osu file format v14

[General]
AudioFilename: Sub.Sound - Feel The Buzz.mp3
AudioLeadIn: 0
PreviewTime: -1
Countdown: 1
SampleSet: Normal
StackLeniency: 0.7
Mode: 0
LetterboxInBreaks: 0
WidescreenStoryboard: 0

[Editor]
Bookmarks: 6831,12412,15203,17906,27935,33517,38924,41802,49651,55930,62645,84011,88023,95174,100668,106162,112703,114534,117499,122645,128488,134156,139302,144447,150813,161278,166162,169389,171831,176627,181685,186046,192587,197383,216656
DistanceSpacing: 1
BeatDivisor: 4
GridSize: 4
TimelineZoom: 1.3

[Metadata]
Title:Feel The Buzz
TitleUnicode:Feel The Buzz
Artist:Sub.Sound
ArtistUnicode:Sub.Sound
Creator:FoxAndVixen
Version:Insane
Source:
Tags:
BeatmapID:883943
BeatmapSetID:406158

[Difficulty]
HPDrainRate:6
CircleSize:4
OverallDifficulty:7
ApproachRate:9
SliderMultiplier:1.4
SliderTickRate:1

[Events]
//Background and Video events
0,0,"map wallpapr.jpg",0,0
//Break Periods
2,62321,83411
2,150577,160766
//Storyboard Layer 0 (Background)
//Storyboard Layer 1 (Fail)
//Storyboard Layer 2 (Pass)
//Storyboard Layer 3 (Foreground)
//Storyboard Sound Samples

[TimingPoints]
9273.16279069767,348.837209302326,4,1,0,100,1,0

[HitObjects]
80,84,6831,5,0,0:0:0:0:
128,116,9622,1,0,0:0:0:0:
336,140,10406,1,0,0:0:0:0:
176,248,11017,1,0,0:0:0:0:
59,334,12412,5,0,0:0:0:0:
137,336,12761,1,0,0:0:0:0:
211,336,13110,1,0,0:0:0:0:
298,335,13459,1,0,0:0:0:0:
384,334,13808,1,0,0:0:0:0:
470,332,14156,1,0,0:0:0:0:
463,261,14505,5,0,0:0:0:0:
463,179,14854,1,0,0:0:0:0:
464,74,15203,5,0,0:0:0:0:
434,84,15377,1,0,0:0:0:0:
399,100,15552,1,0,0:0:0:0:
365,112,15726,1,0,0:0:0:0:
326,132,15901,1,0,0:0:0:0:
298,148,16075,1,0,0:0:0:0:
272,162,16249,1,0,0:0:0:0:
243,199,16424,5,0,0:0:0:0:
225,221,16511,1,0,0:0:0:0:
208,243,16598,1,0,0:0:0:0:
191,265,16685,1,0,0:0:0:0:
174,287,16772,1,0,0:0:0:0:
157,309,16860,1,0,0:0:0:0:
109,308,17209,5,0,0:0:0:0:
78,217,17383,1,0,0:0:0:0:
105,135,17557,1,0,0:0:0:0:
178,74,17732,1,0,0:0:0:0:
418,46,17906,6,0,L|419:234,1,175
326,273,18517,1,0,0:0:0:0:
266,223,18778,1,0,0:0:0:0:
227,162,19040,2,0,B|188:73|98:98|46:169|43:168,1,210
54,304,19825,5,0,0:0:0:0:
90,310,19999,1,0,0:0:0:0:
131,317,20174,1,0,0:0:0:0:
204,316,20523,2,0,P|205:238|205:238,1,70
414,69,21220,5,0,0:0:0:0:
390,98,21394,1,0,0:0:0:0:
365,120,21569,1,0,0:0:0:0:
74,68,21831,5,0,0:0:0:0:
81,110,22005,1,0,0:0:0:0:
250,64,22790,6,0,L|247:223,1,140
95,305,23488,1,0,0:0:0:0:
348,311,23837,1,0,0:0:0:0:
388,308,24011,1,0,0:0:0:0:
390,46,24360,1,0,0:0:0:0:
390,93,24622,2,0,P|244:189|236:181,1,245
62,57,25494,5,0,0:0:0:0:
60,93,25669,1,0,0:0:0:0:
60,123,25842,1,0,0:0:0:0:
420,68,26191,6,0,L|421:247,1,175
66,182,26889,2,0,L|63:348,1,140
399,316,27587,1,0,0:0:0:0:
78,68,28284,6,0,L|125:132,1,70
407,58,28633,2,0,L|351:145,1,70
243,275,28982,1,0,0:0:0:0:
72,328,29331,5,0,0:0:0:0:
110,327,29505,1,0,0:0:0:0:
301,325,29854,1,0,0:0:0:0:
428,312,30203,2,0,P|431:142|427:141,1,210
78,59,30988,6,0,L|76:136,2,70
413,69,31598,2,0,L|411:152,2,70
76,112,32296,5,0,0:0:0:0:
256,118,32470,1,0,0:0:0:0:
436,120,32645,1,0,0:0:0:0:
428,256,32994,1,0,0:0:0:0:
271,261,33168,1,0,0:0:0:0:
116,298,33691,6,0,P|47:198|104:145,1,210
452,239,34476,2,0,P|486:159|430:100,1,175
400,56,35087,1,0,0:0:0:0:
234,202,35348,1,0,0:0:0:0:
64,56,35610,1,0,0:0:0:0:
412,132,36395,5,0,0:0:0:0:
412,180,36569,1,0,0:0:0:0:
412,236,36744,1,0,0:0:0:0:
412,284,36918,1,0,0:0:0:0:
300,280,37180,2,0,L|112:280,1,175
91,157,37877,2,0,P|147:120|210:166,1,140
301,172,38575,1,0,0:0:0:0:
65,59,38924,6,0,L|111:120,1,70
416,67,39360,2,0,L|377:124,1,70
249,312,39709,2,0,L|248:228,1,70
256,192,40232,12,0,41366,0:0:0:0:
193,62,41889,5,0,0:0:0:0:
268,98,42063,1,0,0:0:0:0:
191,148,42238,1,0,0:0:0:0:
272,183,42412,1,0,0:0:0:0:
198,228,42587,1,0,0:0:0:0:
276,260,42761,1,0,0:0:0:0:
146,307,43284,6,0,L|146:229,1,70
377,313,43895,2,0,L|376:225,1,70
84,54,44854,5,0,0:0:0:0:
73,112,45203,1,0,0:0:0:0:
69,169,45639,2,0,B|76:197|96:230|128:239|151:228|165:186,1,140
227,146,46337,1,0,0:0:0:0:
431,54,46773,1,0,0:0:0:0:
440,313,47383,5,0,0:0:0:0:
404,228,47558,1,0,0:0:0:0:
339,312,47732,1,0,0:0:0:0:
276,187,47906,1,0,0:0:0:0:
81,75,48342,5,0,0:0:0:0:
429,78,48603,1,0,0:0:0:0:
163,202,48953,1,0,0:0:0:0:
362,200,49302,1,0,0:0:0:0:
251,283,49651,1,0,0:0:0:0:
68,296,50348,6,0,L|152:296,1,70
172,200,50784,2,0,L|108:200,1,35
140,112,51133,1,0,0:0:0:0:
208,92,51482,2,0,B|252:20|252:20|252:20,1,70
320,72,51918,1,0,0:0:0:0:
408,76,52180,1,0,0:0:0:0:
424,260,52965,5,0,0:0:0:0:
424,296,53139,1,0,0:0:0:0:
104,292,53662,1,0,0:0:0:0:
104,256,53837,1,0,0:0:0:0:
116,184,54273,6,0,L|116:88,2,70
184,196,54883,2,0,B|320:196|312:200,1,105
368,192,55755,1,0,0:0:0:0:
448,52,56191,1,0,0:0:0:0:
444,328,56540,1,0,0:0:0:0:
272,328,56976,6,0,P|112:328|96:312,1,175
68,244,57674,1,0,0:0:0:0:
64,48,58459,1,0,0:0:0:0:
200,180,58634,1,0,0:0:0:0:
200,52,58808,1,0,0:0:0:0:
68,160,58983,1,0,0:0:0:0:
76,324,59331,5,0,0:0:0:0:
436,320,59592,1,0,0:0:0:0:
432,232,60028,1,0,0:0:0:0:
72,232,60290,1,0,0:0:0:0:
280,344,60639,1,0,0:0:0:0:
192,320,60988,5,0,0:0:0:0:
264,268,61162,1,0,0:0:0:0:
192,240,61337,1,0,0:0:0:0:
260,184,61511,1,0,0:0:0:0:
188,160,61685,1,0,0:0:0:0:
232,48,62034,6,0,L|232:112,1,35
88,232,84011,5,0,0:0:0:0:
136,288,84185,1,0,0:0:0:0:
176,232,84359,1,0,0:0:0:0:
248,232,84534,2,0,L|328:232,4,70
400,72,85406,5,0,0:0:0:0:
348,124,85580,1,0,0:0:0:0:
296,76,85754,1,0,0:0:0:0:
224,76,85929,2,0,L|136:76,4,70
108,160,86889,5,0,0:0:0:0:
156,232,87063,1,0,0:0:0:0:
68,232,87237,1,0,0:0:0:0:
108,160,87412,1,0,0:0:0:0:
160,236,87586,1,0,0:0:0:0:
72,236,87761,1,0,0:0:0:0:
80,144,87935,1,0,0:0:0:0:
164,148,88110,6,0,L|440:148,1,245
168,224,89156,2,0,L|336:224,1,140
192,308,89680,5,0,0:0:0:0:
260,264,89854,1,0,0:0:0:0:
184,228,90028,1,0,0:0:0:0:
248,180,90203,1,0,0:0:0:0:
176,144,90378,1,0,0:0:0:0:
244,96,90552,1,0,0:0:0:0:
176,64,90726,5,0,0:0:0:0:
244,96,90901,1,0,0:0:0:0:
176,144,91075,1,0,0:0:0:0:
248,180,91249,1,0,0:0:0:0:
184,228,91424,1,0,0:0:0:0:
260,264,91598,1,0,0:0:0:0:
192,324,91773,1,0,0:0:0:0:
428,328,92383,6,0,L|428:176,1,140
232,36,93081,1,0,0:0:0:0:
336,116,93866,1,0,0:0:0:0:
128,108,94127,1,0,0:0:0:0:
128,268,94476,1,0,0:0:0:0:
336,268,94738,1,0,0:0:0:0:
344,100,95174,1,0,0:0:0:0:
172,64,95523,6,0,L|224:144,1,70
280,60,95872,2,0,L|244:132,1,70
176,180,96220,6,0,L|228:260,1,70
284,176,96569,2,0,L|248:248,1,70
184,284,96918,6,0,L|236:364,1,70
292,276,97267,2,0,L|256:348,1,70
128,328,97616,1,0,0:0:0:0:
376,332,97790,1,0,0:0:0:0:
212,328,97965,1,0,0:0:0:0:
288,328,98139,1,0,0:0:0:0:
212,256,98313,5,0,0:0:0:0:
292,256,98488,1,0,0:0:0:0:
208,184,98662,1,0,0:0:0:0:
288,184,98837,1,0,0:0:0:0:
248,112,99011,2,0,L|248:12,1,70
80,112,99360,6,0,L|80:304,1,175
160,328,100319,2,0,L|304:328,1,140
168,240,101191,1,0,0:0:0:0:
292,240,101627,1,0,0:0:0:0:
416,312,102063,2,0,L|424:84,1,210
280,144,103023,2,0,P|260:224|288:280,1,140
376,236,103808,5,0,0:0:0:0:
408,148,104156,1,0,0:0:0:0:
288,140,104767,2,0,L|196:32,1,140
148,28,105465,2,0,L|24:160,1,175
48,228,106162,6,0,L|132:228,4,70
168,276,107034,1,0,0:0:0:0:
216,228,107208,1,0,0:0:0:0:
264,276,107383,1,0,0:0:0:0:
444,80,107558,6,0,L|360:80,4,70
320,128,108430,1,0,0:0:0:0:
276,72,108604,1,0,0:0:0:0:
224,120,108779,1,0,0:0:0:0:
68,48,108953,5,0,0:0:0:0:
68,120,109127,1,0,0:0:0:0:
68,188,109302,1,0,0:0:0:0:
68,260,109476,2,0,L|68:336,4,70
184,320,110348,5,0,0:0:0:0:
188,188,110523,1,0,0:0:0:0:
272,264,110697,1,0,0:0:0:0:
276,128,110872,1,0,0:0:0:0:
160,48,111046,1,0,0:0:0:0:
256,56,111395,2,0,L|380:52,1,105
456,72,111918,5,0,0:0:0:0:
456,152,112092,1,0,0:0:0:0:
456,236,112267,1,0,0:0:0:0:
452,328,112441,2,0,L|364:328,4,70
292,320,113313,6,0,L|196:320,1,70
224,252,113662,2,0,L|224:156,1,70
224,108,114011,2,0,L|312:108,1,70
368,112,114534,1,0,0:0:0:0:
428,44,114796,5,0,0:0:0:0:
88,48,114970,1,0,0:0:0:0:
340,112,115145,1,0,0:0:0:0:
168,104,115319,1,0,0:0:0:0:
248,176,115581,2,0,L|248:232,1,35
72,276,115930,6,0,L|72:320,1,35
160,276,116278,2,0,L|160:328,1,35
248,276,116627,2,0,L|248:336,1,35
344,276,116976,2,0,L|344:340,1,35
436,280,117325,2,0,L|436:332,1,35
388,204,117587,5,0,0:0:0:0:
436,128,117761,1,0,0:0:0:0:
348,128,117935,1,0,0:0:0:0:
388,204,118110,1,0,0:0:0:0:
436,128,118284,1,0,0:0:0:0:
348,128,118459,1,0,0:0:0:0:
108,128,118633,5,0,0:0:0:0:
152,204,118807,1,0,0:0:0:0:
64,204,118981,1,0,0:0:0:0:
104,132,119156,1,0,0:0:0:0:
156,208,119330,1,0,0:0:0:0:
68,208,119505,1,0,0:0:0:0:
168,56,119680,5,0,0:0:0:0:
300,56,119854,1,0,0:0:0:0:
236,168,120028,2,0,L|236:312,1,140
292,300,121075,2,0,P|348:200|312:156,1,175
192,76,121860,1,0,0:0:0:0:
64,152,122296,2,0,P|32:232|72:292,1,140
112,312,122732,5,0,0:0:0:0:
112,244,122907,1,0,0:0:0:0:
184,244,123081,1,0,0:0:0:0:
180,312,123255,1,0,0:0:0:0:
112,312,123430,1,0,0:0:0:0:
112,244,123605,1,0,0:0:0:0:
184,244,123779,1,0,0:0:0:0:
180,312,123953,1,0,0:0:0:0:
424,320,124127,5,0,0:0:0:0:
424,248,124301,1,0,0:0:0:0:
424,176,124476,2,0,L|424:96,5,70
192,308,125522,5,0,0:0:0:0:
260,264,125696,1,0,0:0:0:0:
184,228,125870,1,0,0:0:0:0:
248,180,126045,1,0,0:0:0:0:
176,144,126220,1,0,0:0:0:0:
244,96,126394,1,0,0:0:0:0:
176,64,126568,5,0,0:0:0:0:
244,96,126743,1,0,0:0:0:0:
176,144,126917,1,0,0:0:0:0:
248,180,127091,1,0,0:0:0:0:
184,228,127266,1,0,0:0:0:0:
260,264,127440,1,0,0:0:0:0:
192,324,127615,1,0,0:0:0:0:
84,328,127877,6,0,L|84:152,1,175
120,72,128924,2,0,B|156:104|132:112|84:112|172:136|28:160|8:220|100:240|192:176|208:284|96:316|24:280|48:320,1,315
408,296,130319,2,0,B|368:252|416:240|324:244|364:208|416:144|452:224|472:288|476:156|444:88|372:120|304:140,1,315
60,88,131715,6,0,B|108:56|168:124|200:52|116:24|156:156|296:116|296:188|264:76|344:48,1,315
352,336,133110,2,0,B|240:260|232:360|256:176|224:176|104:176|104:236,1,315
64,312,134505,6,0,B|208:320|48:232|92:68|392:360|192:28|504:256|376:24,1,490
48,36,136598,2,0,B|328:36|72:128|64:236|396:92|52:336|344:232,1,455
408,272,137994,1,0,0:0:0:0:
464,332,138343,1,0,0:0:0:0:
348,332,138691,1,0,0:0:0:0:
248,332,139040,1,0,0:0:0:0:
96,320,139389,5,0,0:0:0:0:
96,320,139564,1,0,0:0:0:0:
96,320,139738,2,0,L|96:148,1,140
136,68,140610,1,0,0:0:0:0:
224,64,140872,2,0,L|296:64,1,70
384,64,141482,1,0,0:0:0:0:
444,144,141744,5,0,0:0:0:0:
316,136,141918,1,0,0:0:0:0:
380,184,142092,2,0,L|380:264,1,70
444,328,142441,5,0,0:0:0:0:
368,328,142616,1,0,0:0:0:0:
292,328,142790,1,0,0:0:0:0:
216,328,142965,1,0,0:0:0:0:
140,328,143139,1,0,0:0:0:0:
64,328,143314,1,0,0:0:0:0:
64,240,143488,5,0,0:0:0:0:
144,240,143663,1,0,0:0:0:0:
220,240,143837,1,0,0:0:0:0:
296,240,144012,1,0,0:0:0:0:
372,240,144186,1,0,0:0:0:0:
448,240,144361,1,0,0:0:0:0:
424,192,144883,5,0,0:0:0:0:
424,188,145057,1,0,0:0:0:0:
424,192,145232,2,0,L|328:192,1,70
348,192,145580,1,0,0:0:0:0:
264,188,146017,1,0,0:0:0:0:
260,188,146191,2,0,L|56:188,1,175
76,80,147238,5,0,0:0:0:0:
76,80,147499,2,0,L|340:80,1,245
416,104,148284,6,0,L|416:176,4,70
316,208,149156,2,0,L|316:288,4,70
232,280,150028,1,0,0:0:0:0:
112,280,150377,1,0,0:0:0:0:
428,68,161366,5,0,0:0:0:0:
364,144,161627,1,0,0:0:0:0:
268,144,161802,1,0,0:0:0:0:
152,140,162151,2,0,B|180:168|124:168|192:176|100:164|196:168|96:120|236:172|96:284,1,175
232,324,163197,6,0,L|316:324,2,70
228,236,163895,6,0,L|312:236,2,70
324,156,164592,5,0,0:0:0:0:
272,88,164767,1,0,0:0:0:0:
184,60,164941,1,0,0:0:0:0:
56,208,165290,5,0,0:0:0:0:
100,280,165464,1,0,0:0:0:0:
164,312,166162,2,0,L|248:312,2,70
288,312,166947,5,0,0:0:0:0:
368,312,167296,1,0,0:0:0:0:
452,308,167645,1,0,0:0:0:0:
452,224,167994,1,0,0:0:0:0:
448,148,168342,1,0,0:0:0:0:
448,68,168690,1,0,0:0:0:0:
368,68,169040,1,0,0:0:0:0:
288,68,169389,1,0,0:0:0:0:
200,56,169651,5,0,0:0:0:0:
144,76,169825,1,0,0:0:0:0:
88,96,169999,1,0,0:0:0:0:
36,124,170174,1,0,0:0:0:0:
84,160,170348,1,0,0:0:0:0:
140,188,170523,1,0,0:0:0:0:
188,224,170697,1,0,0:0:0:0:
240,260,170872,1,0,0:0:0:0:
280,296,171046,5,0,0:0:0:0:
313,285,171133,1,0,0:0:0:0:
344,269,171220,1,0,0:0:0:0:
372,248,171307,1,0,0:0:0:0:
396,222,171394,1,0,0:0:0:0:
415,193,171482,1,0,0:0:0:0:
428,161,171569,1,0,0:0:0:0:
436,126,171656,1,0,0:0:0:0:
438,92,171743,1,0,0:0:0:0:
433,57,171830,1,0,0:0:0:0:
422,24,171918,1,0,0:0:0:0:
308,52,172441,5,0,0:0:0:0:
308,52,172703,1,0,0:0:0:0:
304,56,172965,2,0,L|140:56,1,140
88,56,173662,1,0,0:0:0:0:
72,200,174273,5,0,0:0:0:0:
72,296,174447,1,0,0:0:0:0:
164,240,174622,1,0,0:0:0:0:
300,232,174970,1,0,0:0:0:0:
376,232,175232,1,0,0:0:0:0:
404,164,175668,5,0,0:0:0:0:
288,72,175842,1,0,0:0:0:0:
384,76,176017,1,0,0:0:0:0:
328,140,176366,2,0,L|244:232,1,105
224,336,177151,6,0,L|224:152,1,175
64,120,177935,1,0,0:0:0:0:
76,32,178197,2,0,L|168:32,1,70
328,36,178720,1,0,0:0:0:0:
476,168,179069,1,0,0:0:0:0:
448,240,179767,5,0,0:0:0:0:
368,284,179941,1,0,0:0:0:0:
440,336,180116,1,0,0:0:0:0:
304,216,180290,1,0,0:0:0:0:
56,52,180639,6,0,L|248:52,1,175
460,52,181337,2,0,L|268:52,1,175
260,136,182034,1,0,0:0:0:0:
200,188,182732,5,0,0:0:0:0:
280,224,182906,1,0,0:0:0:0:
200,268,183081,1,0,0:0:0:0:
276,304,183255,1,0,0:0:0:0:
76,312,183430,5,0,0:0:0:0:
456,232,183779,1,0,0:0:0:0:
456,140,183954,1,0,0:0:0:0:
72,40,184302,2,0,L|72:196,1,140
208,84,185261,6,0,B|192:124|188:180|224:212|308:216|356:176|360:108|320:72|272:64|240:88|260:132|264:136,1,315
259,116,186744,1,0,0:0:0:0:
259,116,186918,1,0,0:0:0:0:
428,64,187441,1,0,0:0:0:0:
428,64,187616,1,0,0:0:0:0:
160,336,188226,5,0,0:0:0:0:
352,336,188575,1,0,0:0:0:0:
448,288,189011,1,0,0:0:0:0:
448,288,189273,2,0,L|448:184,1,105
448,183,189796,1,0,0:0:0:0:
448,183,190145,1,0,0:0:0:0:
304,48,190842,6,0,L|304:168,1,105
216,152,191278,2,0,L|216:100,1,35
216,44,191715,1,0,0:0:0:0:
44,192,192063,1,0,0:0:0:0:
260,344,192412,1,0,0:0:0:0:
464,184,192761,1,0,0:0:0:0:
236,40,193110,1,0,0:0:0:0:
200,64,193546,6,0,L|228:112,1,35
316,60,193808,2,0,L|284:116,1,35
260,140,194069,2,0,L|260:188,1,35
224,312,194505,6,0,B|168:312|132:296|200:240|176:208|156:196|116:200|96:248,1,210
100,239,195377,1,0,0:0:0:0:
100,239,195639,1,0,0:0:0:0:
232,344,196424,5,0,0:0:0:0:
464,204,196598,1,0,0:0:0:0:
352,288,196773,1,0,0:0:0:0:
272,224,197034,2,0,L|212:160,1,70
