osu file format v14

[General]
AudioFilename: audio.mp3
AudioLeadIn: 0
PreviewTime:43475
Countdown: 0
SampleSet: Soft
StackLeniency: 0.7
Mode: 0
LetterboxInBreaks: 0
WidescreenStoryboard: 1

[Editor]
Bookmarks:33130,44164,49682,55199,66233,71751,75889,77268,93820
DistanceSpacing: 1
BeatDivisor: 4
GridSize: 16
TimelineZoom: 1.8

[Metadata]
Title:Desire (Cut Ver.)
TitleUnicode:Desire (Cut Ver.)
Artist:Sub Focus, Dimension
ArtistUnicode:Sub Focus, Dimension
Creator:Booliix
Version:Maki's Normal
Source:
Tags:D&B Drum and Bass Makidonalds Reform Kujinn Electronic English Elinor
BeatmapID:2932640
BeatmapSetID:1411024

[Difficulty]
HPDrainRate:3.5
CircleSize:3.2
OverallDifficulty:4
ApproachRate:5
SliderMultiplier:0.999999999999999
SliderTickRate:1

[Events]
//Background and Video events
0,0,"original_drawn_by_lifeline_a384079959__8ebf5719aab24e5369dd2fac2cb4c024.jpg",0,0
//Break Periods
//Storyboard Layer 0 (Background)
//Storyboard Layer 1 (Fail)
//Storyboard Layer 2 (Pass)
//Storyboard Layer 3 (Foreground)
//Storyboard Layer 4 (Overlay)
//Storyboard Sound Samples

[TimingPoints]
27,344.827586206897,4,2,1,5,1,0
11061,-111.111111111111,4,2,1,30,0,0
27613,-100,4,2,1,60,0,0
27843,-100,4,2,1,5,0,0
27958,-100,4,2,1,45,0,0
28561,-100,4,2,1,5,0,0
28647,-100,4,2,1,45,0,0
29251,-100,4,2,1,5,0,0
29337,-100,4,2,1,45,0,0
29940,-100,4,2,1,5,0,0
30027,-100,4,2,1,45,0,0
30630,-100,4,2,1,5,0,0
30716,-100,4,2,1,45,0,0
31320,-100,4,2,1,5,0,0
31406,-100,4,2,1,45,0,0
32009,-100,4,2,1,6,0,0
32095,-100,4,2,1,45,0,0
32440,-100,4,2,1,30,0,0
33130,-100,4,2,1,50,0,0
42267,-100,4,2,1,50,0,0
42440,-100,4,2,1,50,0,0
55199,-90.9090909090909,4,2,1,85,0,1
55458,-90.9090909090909,4,2,1,5,0,1
55544,-90.9090909090909,4,2,1,85,0,1
55802,-90.9090909090909,4,2,1,5,0,1
55889,-90.9090909090909,4,2,1,85,0,1
56837,-90.9090909090909,4,2,1,5,0,1
56923,-90.9090909090909,4,2,1,85,0,1
57182,-90.9090909090909,4,2,1,5,0,1
57268,-90.9090909090909,4,2,1,85,0,1
58216,-90.9090909090909,4,2,1,5,0,1
58302,-90.9090909090909,4,2,1,85,0,1
58561,-90.9090909090909,4,2,1,5,0,1
58647,-90.9090909090909,4,2,1,85,0,1
59595,-90.9090909090909,4,2,1,5,0,1
59682,-90.9090909090909,4,2,1,85,0,1
60975,-90.9090909090909,4,2,1,5,0,1
61061,-90.9090909090909,4,2,1,85,0,1
61320,-90.9090909090909,4,2,1,5,0,1
61406,-90.9090909090909,4,2,1,85,0,1
62354,-90.9090909090909,4,2,1,5,0,1
62440,-90.9090909090909,4,2,1,85,0,1
62699,-90.9090909090909,4,2,1,5,0,1
62785,-90.9090909090909,4,2,1,85,0,1
63733,-90.9090909090909,4,2,1,5,0,1
63820,-90.9090909090909,4,2,1,85,0,1
64078,-90.9090909090909,4,2,1,5,0,1
64164,-90.9090909090909,4,2,1,85,0,1
65113,-90.9090909090909,4,2,1,5,0,1
65199,-90.9090909090909,4,2,1,85,0,1
66492,-90.9090909090909,4,2,1,5,0,1
66578,-90.9090909090909,4,2,1,85,0,1
67871,-90.9090909090909,4,2,1,5,0,1
67958,-90.9090909090909,4,2,1,85,0,1
69251,-90.9090909090909,4,2,1,5,0,1
69337,-90.9090909090909,4,2,1,85,0,1
70543,-90.9090909090909,4,2,1,5,0,1
70630,-90.9090909090909,4,2,1,5,0,1
70716,-90.9090909090909,4,2,1,85,0,1
71751,-100,4,2,1,75,0,0
77268,-90.9090909090909,4,2,1,100,0,1
77527,-90.9090909090909,4,2,1,5,0,1
77613,-90.9090909090909,4,2,1,100,0,1
78906,-90.9090909090909,4,2,1,5,0,1
78992,-90.9090909090909,4,2,1,100,0,1
81664,-90.9090909090909,4,2,1,5,0,1
81751,-90.9090909090909,4,2,1,100,0,1
82527,-90.9090909090909,4,2,1,5,0,1
82613,-90.9090909090909,4,2,1,100,0,1
82699,-90.9090909090909,4,2,1,5,0,1
82785,-90.9090909090909,4,2,1,100,0,1
83044,-90.9090909090909,4,2,1,5,0,1
83130,-90.9090909090909,4,2,1,100,0,1
84423,-90.9090909090909,4,2,1,5,0,1
84509,-90.9090909090909,4,2,1,100,0,1
87182,-90.9090909090909,4,2,1,5,0,1
87268,-90.9090909090909,4,2,1,100,0,1
88044,-90.9090909090909,4,2,1,5,0,1
88130,-90.9090909090909,4,2,1,100,0,1
88216,-90.9090909090909,4,2,1,5,0,1
88302,-90.9090909090909,4,2,1,100,0,1
88561,-90.9090909090909,4,2,1,5,0,1
88647,-90.9090909090909,4,2,1,100,0,1
89940,-90.9090909090909,4,2,1,5,0,1
90027,-90.9090909090909,4,2,1,100,0,1
91320,-90.9090909090909,4,2,1,5,0,1
91406,-90.9090909090909,4,2,1,100,0,1
92699,-90.9090909090909,4,2,1,5,0,1
92785,-90.9090909090909,4,2,1,100,0,1
93820,-90.9090909090909,4,2,1,70,0,0
96578,-90.9090909090909,4,2,1,60,0,0
97958,-90.9090909090909,4,2,1,40,0,0
98647,-90.9090909090909,4,2,1,35,0,0
99337,-90.9090909090909,4,2,1,40,0,0

[Colours]
Combo1 : 255,215,91
Combo2 : 255,135,47
Combo3 : 255,145,200

[HitObjects]
58,63,11061,6,0,P|53:103|88:248,1,179.999994506836
248,308,12440,2,0,P|275:222|272:133,1,179.999994506836,2|0,0:2|0:0,0:2:0:0:
437,62,13820,6,0,L|412:258,1,179.999994506836,2|2,0:2|0:2,0:2:0:0:
244,179,15199,2,0,L|269:375,1,179.999994506836,2|2,0:2|0:2,0:2:0:0:
99,289,16578,6,0,B|55:243|55:243|78:122,1,179.999994506836,2|0,0:2|0:0,0:2:0:0:
253,166,17958,2,0,B|368:188|368:188|414:144,1,179.999994506836,2|0,0:2|0:0,0:2:0:0:
268,37,19337,5,2,0:2:0:0:
123,144,20027,1,2,0:2:0:0:
236,283,20716,6,0,L|291:276,1,44.999998626709,2|0,0:2|0:0,0:2:0:0:
325,272,21061,1,0,0:2:0:0:
370,349,21406,2,0,L|425:355,1,44.999998626709,2|0,0:2|0:0,0:2:0:0:
459,360,21751,1,0,0:2:0:0:
511,287,22095,6,0,L|486:91,1,179.999994506836,2|2,0:2|0:2,0:2:0:0:
324,33,23475,2,0,L|299:229,1,179.999994506836,2|2,0:2|0:2,0:2:0:0:
193,355,24854,6,0,B|147:311|147:311|26:334,1,179.999994506836,2|2,0:2|0:2,0:2:0:0:
92,162,26233,2,0,B|138:206|138:206|259:183,1,179.999994506836,2|2,0:2|0:2,0:2:0:0:
377,27,27613,6,0,L|479:39,1,99.9999999999999,2|0,0:2|1:2,0:2:0:0:
413,117,28302,2,0,L|310:104,1,99.9999999999999,2|0,0:2|1:2,0:2:0:0:
235,42,28992,1,2,0:2:0:0:
156,104,29337,1,0,1:2:0:0:
174,202,29682,2,0,L|186:304,1,99.9999999999999,2|0,0:2|1:2,0:2:0:0:
278,339,30371,6,0,L|265:236,1,99.9999999999999,2|0,0:2|1:2,0:2:0:0:
335,168,31061,2,0,L|348:65,1,99.9999999999999,2|0,0:2|1:2,0:2:0:0:
263,13,31751,1,2,0:2:0:0:
181,70,32095,2,0,L|193:170,2,99.9999999999999,0|2|2,1:2|0:2|0:2,0:2:0:0:
97,13,33130,5,2,1:2:0:0:
35,91,33475,1,10,0:2:0:0:
89,174,33820,2,0,P|138:183|191:172,1,99.9999999999999,10|10,0:2|0:2,0:2:0:0:
280,138,34509,2,0,L|293:241,1,99.9999999999999,10|10,0:2|0:2,0:2:0:0:
242,324,35199,1,10,0:2:0:0:
148,288,35544,1,10,0:2:0:0:
60,336,35889,6,0,L|46:224,1,99.9999999999999,10|10,0:2|0:2,0:2:0:0:
115,163,36578,2,0,L|123:91,2,50,8|2|8,0:2|0:2|0:2,0:2:0:0:
211,193,37268,1,8,0:2:0:0:
280,121,37613,2,1,P|306:114|335:114,1,50,10|2,0:2|0:2,0:0:0:0:
378,118,37958,2,1,B|387:167|387:167|376:220,1,99.9999999999999,10|10,0:2|0:2,0:0:0:0:
333,305,38647,5,10,0:2:0:0:
412,365,38992,1,10,0:2:0:0:
488,300,39337,2,0,P|497:251|486:198,1,99.9999999999999,8|8,0:2|0:2,0:2:0:0:
439,114,40027,2,0,L|327:127,1,99.9999999999999,8|10,0:2|0:2,0:2:0:0:
240,141,40716,1,10,0:2:0:0:
187,225,41061,1,10,0:2:0:0:
88,207,41406,6,0,L|101:95,1,99.9999999999999,10|10,0:2|0:2,0:2:0:0:
180,48,42095,2,0,L|171:-23,2,50,10|0|10,0:2|0:2|0:2,0:2:0:0:
269,93,42785,1,10,0:2:0:0:
201,167,43130,1,10,0:2:0:0:
280,233,43475,2,0,L|352:224,1,50,10|10,0:2|0:2,0:2:0:0:
365,261,43820,2,0,L|420:267,1,50,10|10,0:2|0:2,0:2:0:0:
463,274,44164,5,10,1:2:0:0:
511,186,44509,1,10,0:2:0:0:
473,93,44854,2,0,P|423:84|370:95,1,99.9999999999999,8|8,0:2|0:2,0:2:0:0:
335,122,45371,1,2,0:2:0:0:
335,122,45544,2,0,L|347:225,1,99.9999999999999,8|8,1:2|0:2,0:2:0:0:
350,321,46233,2,0,P|306:334|246:323,1,99.9999999999999,10|10,0:2|0:2,0:2:0:0:
215,302,46751,1,2,0:2:0:0:
215,302,46923,6,0,L|202:202,1,99.9999999999999,10|10,1:2|0:2,0:2:0:0:
189,103,47613,2,0,L|116:94,1,50,8|2,0:2|1:2,0:0:0:0:
104,131,47958,2,0,L|48:137,1,50,8|2,0:2|0:2,0:0:0:0:
5,145,48302,1,8,1:2:0:0:
45,236,48647,2,1,P|51:262|51:291,1,50,8|2,0:2|0:2,0:0:0:0:
44,334,48992,2,1,B|93:343|93:343|146:332,1,99.9999999999999,10|10,0:2|0:2,0:0:0:0:
194,324,49509,1,2,0:2:0:0:
194,324,49682,5,10,1:2:0:0:
259,248,50027,1,10,0:2:0:0:
325,322,50371,2,0,P|374:331|427:320,1,99.9999999999999,8|8,0:2|0:2,0:2:0:0:
510,273,51062,2,0,L|497:173,1,99.9999999999999,8|8,0:2|0:2,0:2:0:0:
479,75,51751,2,1,B|430:66|430:66|377:77,1,99.9999999999999,10|10,0:2|0:2,0:0:0:0:
357,122,52269,1,2,0:2:0:0:
357,122,52440,6,0,B|308:131|308:131|255:120,1,99.9999999999999,10|10,0:2|0:2,0:2:0:0:
196,42,53130,2,0,L|123:33,1,50,10|2,0:2|0:2,0:2:0:0:
111,70,53475,2,0,L|55:76,1,50,10|2,0:2|0:2,0:2:0:0:
13,84,53819,1,10,0:2:0:0:
51,176,54164,2,1,P|57:202|57:231,1,50,10|2,0:2|0:2,0:0:0:0:
51,275,54509,1,10,0:2:0:0:
109,356,54854,2,1,B|135:362|135:362|164:362,1,50,10|0,0:2|0:2,0:0:0:0:
212,354,55199,5,2,1:2:0:0:
278,266,55544,1,10,1:2:0:0:
212,177,55889,2,0,P|202:128|218:70,1,110.000003356934,2|10,0:2|1:2,0:2:0:0:
254,31,56406,1,2,0:2:0:0:
254,31,56578,2,0,L|357:19,1,110,2|10,1:2|1:2,0:2:0:0:
463,64,57268,2,0,P|476:97|459:182,1,110.000003356934,2|10,0:2|1:2,0:2:0:0:
443,221,57785,1,2,0:2:0:0:
443,221,57958,6,0,L|333:207,1,110,2|10,1:2|0:2,0:2:0:0:
240,264,58647,2,1,B|213:266|213:266|184:258,1,55.0000016784668,2|2,0:2|1:2,0:0:0:0:
150,217,58992,2,1,B|123:215|123:215|94:223,1,55.0000016784668,10|2,0:2|0:2,0:0:0:0:
42,238,59337,1,2,1:2:0:0:
1,136,59682,2,1,B|-1:109|-1:109|6:82,1,55.0000016784668,10|2,1:2|0:2,0:0:0:0:
29,31,60027,2,0,B|81:45|81:45|135:36,1,110.000003356934,2|10,0:2|0:2,0:2:0:0:
193,26,60544,1,2,0:2:0:0:
193,26,60716,5,2,1:2:0:0:
268,106,61061,1,10,1:2:0:0:
189,182,61406,2,0,P|174:234|183:288,1,110.000003356934,2|10,0:2|1:2,0:2:0:0:
214,340,61923,1,2,0:2:0:0:
214,340,62095,2,0,L|317:352,1,110,0|10,1:0|1:2,0:0:0:0:
432,366,62785,2,0,L|419:262,1,110,2|10,0:2|1:2,0:2:0:0:
458,218,63302,1,2,0:2:0:0:
458,218,63475,6,0,L|470:114,1,110,2|10,1:2|1:2,0:2:0:0:
426,8,64164,2,1,B|399:6|399:6|370:14,1,55.0000016784668,2|2,0:2|1:2,0:0:0:0:
336,55,64509,2,1,B|309:57|309:57|280:49,1,55.0000016784668,10|2,0:2|0:2,0:0:0:0:
228,34,64854,1,2,1:2:0:0:
135,93,65199,2,1,B|133:120|133:120|141:149,1,55.0000016784668,10|2,0:2|0:2,0:0:0:0:
156,199,65544,1,2,1:2:0:0:
244,264,65889,2,1,B|246:291|246:291|238:320,1,55.0000016784668,10|2,1:2|1:2,0:0:0:0:
222,370,66233,5,2,1:2:0:0:
119,330,66578,1,10,1:2:0:0:
15,367,66923,2,0,P|0:315|9:261,1,110.000003356934,2|10,1:2|1:2,0:0:0:0:
45,220,67440,1,2,0:2:0:0:
45,220,67613,2,0,L|31:110,1,110,2|10,1:2|1:2,0:2:0:0:
17,1,68302,2,0,L|126:14,1,110,2|10,1:2|0:2,0:0:0:0:
162,62,68820,1,2,0:2:0:0:
162,62,68992,6,0,L|271:48,1,110,2|10,1:2|0:2,0:2:0:0:
379,68,69682,2,1,B|381:95|381:95|373:124,1,55.0000016784668,2|2,1:2|1:2,0:0:0:0:
332,158,70027,2,1,B|330:185|330:185|338:214,1,55.0000016784668,10|2,0:2|0:2,0:0:0:0:
353,266,70372,1,2,1:2:0:0:
394,367,70716,2,1,B|421:369|421:369|450:361,1,55.0000016784668,10|2,0:2|1:2,0:0:0:0:
499,342,71061,2,1,B|508:286|508:286|494:234,1,110.000003356934,2|10,1:2|0:2,0:0:0:0:
473,189,71578,1,2,1:2:0:0:
473,189,71751,5,2,1:2:0:0:
274,215,72440,1,2,1:2:0:0:
75,239,73130,2,0,L|62:135,1,99.9999999999999,2|2,1:2|0:2,0:2:0:0:
88,42,73820,2,0,B|137:30|137:30|193:45,1,99.9999999999999,2|2,1:2|0:2,0:2:0:0:
275,84,74509,5,2,1:2:0:0:
472,54,75199,1,2,1:2:0:0:
369,224,75889,2,0,B|343:230|343:230|314:230,1,50,2|0,1:2|0:0,0:0:0:0:
266,222,76234,1,10,0:2:0:0:
184,163,76578,2,1,L|190:107,2,50,10|2|10,0:2|1:2|0:2,0:0:0:0:
152,202,77095,1,2,1:2:0:0:
152,202,77268,5,0,1:2:0:0:
190,307,77613,2,1,B|216:314|216:314|243:312,1,55.0000016784668,10|2,0:2|1:2,0:0:0:0:
298,305,77958,2,1,B|307:249|307:249|293:197,1,110.000003356934,2|10,1:2|1:2,0:0:0:0:
257,93,78647,1,2,1:2:0:0:
341,22,78992,2,1,B|368:20|368:20|394:27,1,55.0000016784668,10|2,0:2|1:2,0:0:0:0:
443,53,79337,1,2,1:2:0:0:
403,155,79682,2,1,B|401:182|401:182|408:208,1,55.0000016784668,10|2,1:2|0:2,0:0:0:0:
434,257,80027,5,2,1:2:0:0:
376,350,80371,2,0,B|349:357|349:357|322:355,1,55.0000016784668,8|0,1:2|1:2,0:2:0:0:
267,347,80716,2,1,B|257:291|257:291|271:239,1,110.000003356934,2|10,1:2|1:2,0:0:0:0:
314,138,81406,1,0,1:2:0:0:
272,36,81751,2,1,B|245:34|245:34|218:41,1,55.0000016784668,8|2,0:2|1:2,0:0:0:0:
170,67,82096,1,2,1:2:0:0:
101,152,82440,2,0,B|99:179|99:179|106:205,1,55.0000016784668,8|0,1:2|0:2,0:0:0:0:
132,254,82785,5,2,1:2:0:0:
214,181,83130,2,1,B|240:173|240:173|272:180,1,55.0000016784668,8|2,1:2|1:2,0:0:0:0:
315,152,83475,2,1,B|371:162|371:162|423:148,1,110.000003356934,2|8,1:2|1:2,0:0:0:0:
511,83,84164,1,2,1:2:0:0:
423,16,84509,2,1,B|396:9|396:9|369:11,1,55.0000016784668,8|2,1:2|1:2,0:0:0:0:
314,21,84854,1,2,1:2:0:0:
247,108,85199,2,1,B|220:115|220:115|193:113,1,55.0000016784668,8|2,1:2|0:2,0:0:0:0:
138,103,85544,5,2,1:2:0:0:
43,158,85889,2,0,B|51:184|51:184|44:216,1,55.0000016784668,10|0,1:2|1:2,0:2:0:0:
72,259,86234,2,1,B|62:315|62:315|76:367,1,110.000003356934,2|8,1:2|1:2,0:0:0:0:
171,311,86923,1,2,1:2:0:0:
265,366,87268,2,1,B|292:373|292:373|319:371,1,55.0000016784668,8|2,1:2|1:2,0:0:0:0:
374,361,87613,1,2,1:2:0:0:
482,340,87958,2,0,B|489:313|489:313|487:286,1,55.0000016784668,10|10,1:2|1:2,0:2:0:0:
477,231,88303,5,2,1:2:0:0:
392,170,88647,1,8,0:2:0:0:
392,170,88820,2,1,L|272:185,1,110,2|2,1:2|1:2,0:0:0:0:
244,222,89337,2,0,L|173:212,1,55.0000016784668,10|2,1:2|0:2,0:0:0:0:
135,202,89682,1,2,1:2:0:0:
92,106,90027,1,8,0:2:0:0:
92,106,90199,2,1,L|208:94,1,110.000003356934,2|2,1:2|1:2,0:0:0:0:
229,47,90716,2,1,L|292:54,1,55,10|2,1:2|0:2,0:0:0:0:
337,60,91060,5,2,1:2:0:0:
441,17,91406,1,10,1:2:0:0:
441,17,91579,2,1,L|456:136,1,110,2|0,1:2|1:2,0:0:0:0:
500,157,92096,2,0,L|490:228,1,55.0000016784668,8|2,1:2|0:2,0:0:0:0:
480,266,92441,1,2,1:2:0:0:
398,339,92786,1,10,0:2:0:0:
398,339,92958,2,1,L|282:327,1,110.000003356934,2|2,1:2|1:2,0:0:0:0:
261,280,93475,2,1,L|198:287,1,55,10|2,1:2|0:2,0:0:0:0:
153,293,93819,5,2,0:2:0:0:
67,251,94164,1,2,0:2:0:0:
67,251,94337,2,0,P|54:214|72:145,1,110.000003356934,2|2,0:2|0:2,0:2:0:0:
98,119,94854,1,2,0:2:0:0:
98,119,95027,1,2,0:2:0:0:
190,157,95371,2,0,L|255:146,1,55.0000016784668,2|2,0:2|0:2,0:0:0:0:
270,111,95716,2,0,L|390:123,1,110.000003356934,2|2,0:2|0:2,0:2:0:0:
423,129,96233,1,2,0:0:0:0:
423,129,96406,1,2,0:0:0:0:
504,203,96751,6,0,L|495:272,1,55.0000016784668,2|2,0:0|0:0,0:0:0:0:
488,301,97095,1,2,0:0:0:0:
381,330,97440,2,0,L|390:401,2,55.0000016784668,2|2|2,0:0|0:2|0:2,0:0:0:0:
304,249,98130,2,0,L|232:236,1,55.0000016784668,2|2,0:0|0:0,0:0:0:0:
195,228,98475,1,2,0:0:0:0:
147,128,98820,2,0,L|75:136,2,55.0000016784668,2|2|2,0:0|0:0|0:0,0:0:0:0:
176,81,99337,5,2,1:2:0:0:
256,192,99509,12,0,106233,0:0:0:0:
