osu file format v14

[General]
AudioFilename: audio.mp3
AudioLeadIn: 0
PreviewTime: 43475
Countdown: 0
SampleSet: Soft
StackLeniency: 0.7
Mode: 0
LetterboxInBreaks: 0
WidescreenStoryboard: 1

[Editor]
Bookmarks: 32095
DistanceSpacing: 1
BeatDivisor: 4
GridSize: 32
TimelineZoom: 3.899998

[Metadata]
Title:Desire (Cut Ver.)
TitleUnicode:Desire (Cut Ver.)
Artist:Sub Focus, Dimension
ArtistUnicode:Sub Focus, Dimension
Creator:Booliix
Version:Kujinn's Expert
Source:
Tags:D&B Drum and Bass Makidonalds Reform Kujinn Electronic English Elinor
BeatmapID:2930330
BeatmapSetID:1411024

[Difficulty]
HPDrainRate:5
CircleSize:4
OverallDifficulty:8
ApproachRate:9
SliderMultiplier:1.8
SliderTickRate:1

[Events]
//Background and Video events
0,0,"original_drawn_by_lifeline_a384079959__8ebf5719aab24e5369dd2fac2cb4c024.jpg",0,0
//Break Periods
//Storyboard Layer 0 (Background)
//Storyboard Layer 1 (Fail)
//Storyboard Layer 2 (Pass)
//Storyboard Layer 3 (Foreground)
//Storyboard Layer 4 (Overlay)
//Storyboard Sound Samples

[TimingPoints]
27,344.827586206897,4,2,1,5,1,0
11061,-153.846153846153,4,2,1,30,0,0
19251,-153.846153846153,4,2,1,5,0,0
19337,-153.846153846153,4,2,1,30,0,0
27613,-153.846153846153,4,2,1,60,0,0
27843,-153.846153846153,4,2,1,5,0,0
27958,-153.846153846153,4,2,1,45,0,0
28561,-153.846153846153,4,2,1,5,0,0
28647,-153.846153846153,4,2,1,45,0,0
29251,-153.846153846153,4,2,1,5,0,0
29337,-153.846153846153,4,2,1,45,0,0
29940,-153.846153846153,4,2,1,5,0,0
30027,-153.846153846153,4,2,1,45,0,0
30630,-153.846153846153,4,2,1,5,0,0
30716,-153.846153846153,4,2,1,45,0,0
31320,-153.846153846153,4,2,1,5,0,0
31406,-153.846153846153,4,2,1,45,0,0
32009,-153.846153846153,4,2,1,6,0,0
32095,-153.846153846153,4,2,1,45,0,0
32440,-153.846153846153,4,2,1,30,0,0
33130,-133.333333333333,4,2,1,50,0,0
44164,-117.647058823529,4,2,1,50,0,0
55199,-80,4,2,1,85,0,0
55458,-80,4,2,1,5,0,0
55544,-95.2380952380952,4,2,1,85,0,0
55802,-95.2380952380952,4,2,1,5,0,0
55889,-95.2380952380952,4,2,1,85,0,0
56837,-95.2380952380952,4,2,1,5,0,0
56923,-95.2380952380952,4,2,1,85,0,0
57182,-95.2380952380952,4,2,1,5,0,0
57268,-95.2380952380952,4,2,1,85,0,0
58216,-95.2380952380952,4,2,1,5,0,0
58302,-95.2380952380952,4,2,1,85,0,0
58561,-95.2380952380952,4,2,1,5,0,0
58647,-95.2380952380952,4,2,1,85,0,0
59595,-95.2380952380952,4,2,1,5,0,0
59682,-95.2380952380952,4,2,1,85,0,0
60975,-95.2380952380952,4,2,1,5,0,0
61061,-95.2380952380952,4,2,1,85,0,0
61320,-95.2380952380952,4,2,1,5,0,0
61406,-95.2380952380952,4,2,1,85,0,0
62354,-95.2380952380952,4,2,1,5,0,0
62440,-95.2380952380952,4,2,1,85,0,0
62699,-95.2380952380952,4,2,1,5,0,0
62785,-95.2380952380952,4,2,1,85,0,0
63733,-95.2380952380952,4,2,1,5,0,0
63820,-95.2380952380952,4,2,1,85,0,0
64078,-95.2380952380952,4,2,1,5,0,0
64164,-95.2380952380952,4,2,1,85,0,0
65113,-95.2380952380952,4,2,1,5,0,0
65199,-95.2380952380952,4,2,1,85,0,0
66492,-95.2380952380952,4,2,1,5,0,0
66578,-95.2380952380952,4,2,1,85,0,0
67871,-95.2380952380952,4,2,1,5,0,0
67958,-95.2380952380952,4,2,1,85,0,0
69251,-95.2380952380952,4,2,1,5,0,0
69337,-95.2380952380952,4,2,1,85,0,0
70543,-95.2380952380952,4,2,1,5,0,0
70630,-95.2380952380952,4,2,1,5,0,0
70716,-95.2380952380952,4,2,1,85,0,0
71751,-117.647058823529,4,2,1,75,0,0
77268,-95.238095238095,4,2,1,100,0,0
77527,-95.238095238095,4,2,1,5,0,0
77613,-95.238095238095,4,2,1,100,0,0
78906,-95.238095238095,4,2,1,5,0,0
78992,-95.238095238095,4,2,1,100,0,0
81664,-95.238095238095,4,2,1,5,0,0
81751,-95.238095238095,4,2,1,100,0,0
82527,-95.238095238095,4,2,1,5,0,0
82613,-95.238095238095,4,2,1,100,0,0
82699,-95.238095238095,4,2,1,5,0,0
82785,-95.238095238095,4,2,1,100,0,0
83044,-95.238095238095,4,2,1,5,0,0
83130,-95.238095238095,4,2,1,100,0,0
84423,-95.238095238095,4,2,1,5,0,0
84509,-95.238095238095,4,2,1,100,0,0
87182,-95.238095238095,4,2,1,5,0,0
87268,-95.238095238095,4,2,1,100,0,0
88044,-95.238095238095,4,2,1,5,0,0
88130,-95.238095238095,4,2,1,100,0,0
88216,-95.238095238095,4,2,1,5,0,0
88302,-95.238095238095,4,2,1,100,0,0
88561,-95.238095238095,4,2,1,5,0,0
88647,-95.238095238095,4,2,1,100,0,0
89940,-95.238095238095,4,2,1,5,0,0
90027,-95.238095238095,4,2,1,100,0,0
91320,-95.238095238095,4,2,1,5,0,0
91406,-95.238095238095,4,2,1,100,0,0
92699,-95.238095238095,4,2,1,5,0,0
92785,-95.238095238095,4,2,1,100,0,0
93820,-133.333333333333,4,2,1,70,0,0
96578,-133.333333333333,4,2,1,60,0,0
97958,-133.333333333333,4,2,1,40,0,0
98647,-133.333333333333,4,2,1,35,0,0
99337,-133.333333333333,4,2,1,40,0,0

[Colours]
Combo1 : 255,215,91
Combo2 : 255,135,47
Combo3 : 255,145,200

[HitObjects]
43,272,11061,6,0,B|95:262|138:290|99:318|144:358|208:345,1,175.499991966248
291,373,11751,2,0,P|284:320|309:189,1,175.499991966248
384,187,12440,2,0,P|356:139|245:147,1,175.499991966248,2|0,0:2|0:2,0:2:0:0:
192,205,13130,2,0,P|111:222|55:157,1,175.499991966248
9,68,13820,6,0,P|60:79|185:117,1,175.499991966248,2|0,0:2|0:2,0:2:0:0:
260,166,14509,2,0,P|342:138|434:115,1,175.499991966248,2|0,0:2|0:2,0:2:0:0:
470,29,15199,6,0,P|408:14|348:115,1,175.499991966248,2|0,0:2|0:2,0:2:0:0:
371,181,15889,2,0,P|332:253|241:248,1,175.499991966248,2|0,0:2|0:2,0:2:0:0:
76,230,16578,6,0,B|16:265|15:332|87:366|155:330|173:263|164:248|164:230|167:167|239:147|288:176,1,409.499981254578,2|0,0:2|0:2,0:2:0:0:
330,239,17958,6,0,B|366:226|384:166|349:121|349:121|317:76|325:15|378:-22|462:-2|457:79|434:129|373:124,1,438.74997991562,2|0,0:2|0:0,0:2:0:0:
282,170,19337,6,0,P|246:168|210:242,1,116.999994644165,2|0,0:2|0:2,0:2:0:0:
143,384,20027,2,0,P|179:386|215:312,1,116.999994644165,2|0,0:2|0:2,0:2:0:0:
149,373,20716,6,0,P|96:351|33:331,1,116.999994644165,2|0,0:2|0:2,0:2:0:0:
320,216,21406,2,0,P|373:238|436:258,1,116.999994644165,2|0,0:2|0:2,0:2:0:0:
133,257,22095,6,0,P|116:186|87:73,1,175.499991966248,2|0,0:2|0:2,0:2:0:0:
93,5,22785,2,0,P|111:54|222:52,1,175.499991966248,2|0,0:2|0:2,0:2:0:0:
294,5,23475,2,0,P|374:-13|420:55,1,175.499991966248,2|0,0:2|0:2,0:2:0:0:
482,114,24164,2,0,P|460:198|439:284,1,175.499991966248,2|0,0:2|0:2,0:2:0:0:
349,341,24854,6,0,B|310:311|258:337|289:362|226:398|177:351,1,175.499991966248,2|0,0:2|0:2,0:2:0:0:
64,316,25544,2,0,B|103:346|155:320|124:295|187:259|236:306,1,175.499991966248,2|0,0:2|0:2,0:2:0:0:
315,252,26233,6,0,P|324:191|349:63,1,175.499991966248,2|0,0:2|0:2,0:2:0:0:
465,15,26923,2,0,P|482:101|495:187,1,175.499991966248,2|0,0:2|0:2,0:2:0:0:
482,265,27613,6,0,P|449:279|393:255,1,87.749995983124,2|0,0:2|0:2,0:2:0:0:
352,208,27958,2,0,L|347:176,4,19.4999991073609,0|0|0|0|0,1:2|1:2|1:2|1:2|1:2,0:2:0:0:
306,100,28302,6,0,P|273:86|217:110,1,87.749995983124,2|0,0:2|0:2,0:2:0:0:
176,157,28647,2,0,L|171:189,4,19.4999991073609,0|0|0|0|0,1:2|1:2|1:2|1:2|1:2,0:2:0:0:
61,232,28992,6,0,P|101:238|157:249,1,87.749995983124,2|0,0:2|0:2,0:2:0:0:
204,309,29337,2,0,L|236:313,4,19.4999991073609,0|0|0|0|0,1:2|1:2|1:2|1:2|1:2,0:2:0:0:
318,368,29682,6,0,P|361:359|404:353,1,87.749995983124,2|0,0:2|0:2,0:2:0:0:
459,290,30027,2,0,L|478:286,4,19.4999991073609,0|0|0|0|0,1:2|1:2|1:2|1:2|1:2,0:2:0:0:
380,232,30371,6,0,P|370:174|361:121,1,87.749995983124,2|0,0:2|0:2,0:2:0:0:
316,87,30716,2,0,L|312:67,4,19.4999991073609,0|0|0|0|0,1:2|1:2|1:2|1:2|1:2,0:2:0:0:
227,24,31061,6,0,P|217:82|208:135,1,87.749995983124,2|0,0:2|0:2,0:2:0:0:
164,169,31406,2,0,L|160:188,4,19.4999991073609,0|0|0|0|0,1:2|1:2|1:2|1:2|1:2,0:2:0:0:
77,249,31751,6,0,P|67:191|58:138,1,87.749995983124,2|0,0:2|0:2,0:2:0:0:
14,104,32096,2,0,L|10:84,4,19.4999991073609,0|0|0|0|0,1:2|1:2|1:2|1:2|1:2,0:2:0:0:
58,24,32440,6,0,P|93:30|134:36,1,58.4999973220826,2|0,0:2|0:2,0:2:0:0:
164,169,32785,2,0,P|199:163|240:157,1,58.4999973220826,2|0,0:2|0:2,0:2:0:0:
281,44,33130,6,0,P|321:92|399:76,1,135.000005149842,2|10,1:2|0:2,0:2:0:0:
497,3,33820,2,0,P|489:52|474:142,1,135.000005149842,10|10,0:2|0:2,0:2:0:0:
512,224,34337,1,2,0:2:0:0:
512,224,34509,6,0,P|472:176|394:192,1,135.000005149842,10|10,0:2|0:2,0:2:0:0:
314,270,35199,2,0,P|308:309|302:354,1,67.5000025749208,10|2,0:2|0:2,0:2:0:0:
220,365,35544,2,0,P|226:326|232:281,1,67.5000025749208,10|2,0:2|0:2,0:2:0:0:
59,197,35889,6,0,P|99:245|177:229,1,135.000005149842,10|10,0:2|0:2,0:2:0:0:
258,126,36578,2,0,P|221:118|183:113,1,67.5000025749208,8|2,0:2|0:2,0:2:0:0:
191,35,36923,2,0,P|224:39|257:47,1,67.5000025749208,8|2,0:2|0:2,0:2:0:0:
408,28,37268,6,0,P|397:93|387:177,1,135.000005149842,8|10,0:2|0:2,0:2:0:0:
426,233,37785,1,2,0:2:0:0:
330,306,37958,5,10,0:2:0:0:
330,306,38130,1,2,0:2:0:0:
432,376,38302,5,10,0:2:0:0:
432,376,38475,1,2,0:2:0:0:
323,220,38647,6,0,P|272:212|183:194,1,135.000005149842,10|10,0:2|0:2,0:2:0:0:
18,337,39337,2,0,P|69:345|158:363,1,135.000005149842,8|8,0:2|0:2,0:2:0:0:
218,307,39854,5,2,0:2:0:0:
218,307,40027,2,0,P|244:258|222:176,1,135.000005149842,8|10,0:2|0:2,0:2:0:0:
183,112,40544,1,2,0:2:0:0:
183,112,40716,2,0,P|177:78|170:45,1,67.5000025749208,10|2,0:2|0:2,0:2:0:0:
257,95,41061,2,0,P|251:61|244:28,1,67.5000025749208,10|2,0:2|0:2,0:2:0:0:
441,193,41406,6,0,P|434:226|413:349,1,135.000005149842,10|10,0:2|0:2,0:2:0:0:
348,370,41923,1,2,0:2:0:0:
348,370,42095,2,0,P|315:377|282:384,1,67.5000025749208,10|0,0:2|0:2,0:2:0:0:
192,250,42440,2,0,P|198:283|206:315,1,67.5000025749208,10|2,0:2|0:2,0:2:0:0:
298,181,42785,6,0,P|329:145|298:54,1,135.000005149842,10|10,0:2|0:2,0:2:0:0:
122,11,43475,2,0,P|160:27|194:38,1,67.5000025749208,10|10,0:2|0:2,0:2:0:0:
186,123,43820,2,0,P|148:107|114:96,1,67.5000025749208,10|10,0:2|0:2,0:2:0:0:
29,217,44164,6,0,P|43:285|59:386,1,153.000002918243,10|10,1:2|0:2,0:2:0:0:
200,234,44682,1,0,0:2:0:0:
200,234,44854,2,0,P|190:283|183:327,1,76.5000014591217,8|0,0:2|1:2,0:2:0:0:
339,184,45199,1,8,0:2:0:0:
339,184,45371,1,2,0:2:0:0:
183,130,45544,6,0,P|160:72|208:-4,1,153.000002918243,8|8,1:2|0:2,0:2:0:0:
250,74,46061,1,0,0:2:0:0:
148,209,46233,2,0,P|106:221|58:231,1,76.5000014591217,10|2,0:2|1:2,0:2:0:0:
209,302,46578,2,0,P|246:310|283:321,1,76.5000014591217,10|2,0:2|0:2,0:2:0:0:
446,203,46923,6,0,P|435:136|418:29,1,153.000002918243,10|10,1:2|0:2,0:2:0:0:
421,51,47440,1,2,0:2:0:0:
301,148,47613,1,8,0:2:0:0:
301,148,47785,1,2,1:2:0:0:
407,232,47958,1,8,0:2:0:0:
407,232,48130,1,2,0:2:0:0:
291,335,48302,6,0,P|241:351|129:389,1,153.000002918243,8|8,1:2|0:2,0:2:0:0:
145,383,48820,1,2,0:2:0:0:
32,286,48992,5,10,0:2:0:0:
32,286,49165,1,2,1:2:0:0:
140,181,49337,1,10,0:2:0:0:
140,181,49509,1,2,0:2:0:0:
29,34,49682,6,0,P|44:83|57:133,1,76.5000014591217,10|2,1:2|0:2,0:2:0:0:
118,254,50027,2,0,P|133:205|146:155,1,76.5000014591217,10|2,0:2|0:2,0:2:0:0:
261,77,50371,2,0,P|212:61|176:46,1,76.5000014591217,8|2,0:2|0:2,0:2:0:0:
282,243,50716,2,0,P|317:229|354:217,1,76.5000014591217,8|2,0:2|0:2,0:2:0:0:
416,19,51061,6,0,P|405:70|397:112,1,76.5000014591217,8|2,0:2|0:2,0:2:0:0:
463,285,51406,2,0,P|474:234|482:192,1,76.5000014591217,8|2,0:2|0:2,0:2:0:0:
273,106,51751,5,10,0:2:0:0:
349,165,51923,1,2,0:2:0:0:
254,221,52095,1,10,0:2:0:0:
330,280,52267,1,2,0:2:0:0:
198,348,52440,6,0,P|140:366|96:381,1,76.5000014591217,10|2,0:2|0:2,0:2:0:0:
24,208,52785,2,0,P|82:226|126:241,1,76.5000014591217,10|2,0:2|0:2,0:2:0:0:
218,110,53130,6,0,P|232:57|242:16,1,76.5000014591217,10|2,0:2|0:2,0:2:0:0:
315,186,53475,2,0,P|324:223|334:260,1,76.5000014591217,10|2,0:2|0:2,0:2:0:0:
451,94,53820,6,0,L|370:73,1,76.5000014591217,10|0,0:2|0:2,0:2:0:0:
447,220,54164,1,10,0:2:0:0:
447,220,54337,1,2,0:2:0:0:
215,202,54509,6,8,L|296:181,1,76.5000014591217,10|0,0:2|0:2,0:2:0:0:
219,328,54853,1,10,0:2:0:0:
219,328,55026,1,0,0:2:0:0:
66,72,55199,6,0,B|121:37|121:37|78:181,1,168.75,2|0,1:2|0:2,0:2:0:0:
49,201,55544,2,0,P|64:257|80:318,1,94.499997116089,10|0,1:2|0:2,0:2:0:0:
245,166,55889,2,0,P|257:120|269:74,1,94.499997116089,2|0,0:2|1:2,0:2:0:0:
319,306,56233,1,10,1:2:0:0:
174,231,56406,1,2,0:2:0:0:
380,160,56578,6,0,P|437:187|431:281,1,141.749995674133,2|0,1:2|0:2,0:2:0:0:
399,325,56923,2,0,P|348:342|290:366,1,94.499997116089,10|0,1:2|0:2,0:2:0:0:
147,162,57268,2,0,P|198:179|256:203,1,94.499997116089,2|0,0:2|1:2,0:2:0:0:
15,253,57613,1,10,1:2:0:0:
64,116,57785,1,2,0:2:0:0:
217,301,57958,6,0,P|192:350|97:342,1,141.749995674133,2|0,1:2|0:2,0:2:0:0:
45,322,58302,2,0,P|77:288|123:283,1,94.499997116089,10|0,0:2|0:2,0:2:0:0:
359,343,58647,5,2,0:2:0:0:
250,161,58820,1,2,1:2:0:0:
200,317,58992,1,10,0:2:0:0:
318,122,59164,1,2,0:2:0:0:
484,241,59337,6,0,P|429:255|372:272,1,94.499997116089,2|0,1:2|0:2,0:2:0:0:
279,40,59682,1,10,1:2:0:0:
435,155,59854,1,2,0:2:0:0:
228,215,60027,2,0,P|205:173|224:114,1,94.499997116089,2|0,0:2|1:2,0:2:0:0:
416,28,60371,1,10,0:2:0:0:
343,216,60544,1,2,0:2:0:0:
131,39,60716,6,0,B|189:29|189:29|213:48|213:48|296:35,1,141.749995674133,2|0,1:2|0:2,0:2:0:0:
343,78,61061,2,0,B|300:94|300:94|242:48,1,94.499997116089,10|0,1:2|0:2,0:2:0:0:
52,222,61406,2,0,B|90:191|90:191|133:207,1,94.499997116089,2|0,0:2|1:2,0:2:0:0:
320,292,61751,1,10,1:2:0:0:
231,134,61923,1,2,0:2:0:0:
53,374,62095,6,0,P|133:354|211:334,1,141.749995674133,0|0,1:0|0:0,0:0:0:0:
219,265,62440,2,0,P|250:287|265:349,1,94.499997116089,10|0,1:2|0:2,0:2:0:0:
110,263,62785,2,0,P|113:225|159:181,1,94.499997116089,2|0,0:2|1:2,0:2:0:0:
383,235,63130,1,10,1:2:0:0:
273,62,63302,1,2,0:2:0:0:
294,260,63475,6,0,L|324:116,1,141.749995674133,2|0,1:2|0:2,0:2:0:0:
273,62,63820,2,0,P|241:96|250:152,1,94.499997116089,10|0,1:2|0:2,0:2:0:0:
368,343,64164,5,2,0:2:0:0:
201,233,64337,1,2,1:2:0:0:
395,121,64509,1,10,0:2:0:0:
199,257,64682,1,2,0:2:0:0:
419,223,64854,6,0,P|481:245|531:264,1,94.499997116089,2|0,1:2|0:2,0:2:0:0:
358,66,65199,1,10,0:2:0:0:
283,220,65371,1,2,0:2:0:0:
453,53,65544,1,2,1:2:0:0:
355,267,65716,1,8,1:2:0:0:
355,267,65802,1,10,1:2:0:0:
355,267,65889,1,10,1:2:0:0:
308,31,66061,1,2,1:2:0:0:
493,365,66233,6,0,B|439:312|439:312|479:224,1,141.749995674133,2|0,1:2|0:2,0:2:0:0:
509,195,66578,2,0,P|496:130|485:68,1,94.499997116089,10|2,1:2|0:2,0:2:0:0:
497,87,66837,1,2,1:2:0:0:
503,73,66923,1,2,1:2:0:0:
343,207,67095,1,0,1:2:0:0:
508,287,67268,1,10,1:2:0:0:
400,99,67440,1,2,0:2:0:0:
348,326,67613,6,0,B|302:361|302:361|188:327,1,141.749995674133,2|0,1:2|0:2,0:2:0:0:
149,289,67958,2,0,L|47:324,1,94.499997116089,10|2,1:2|0:2,0:2:0:0:
52,307,68216,1,2,1:2:0:0:
43,296,68302,1,2,1:2:0:0:
171,121,68475,1,0,1:2:0:0:
260,300,68647,1,10,0:2:0:0:
95,222,68820,1,2,0:2:0:0:
295,60,68992,6,0,P|279:133|261:216,1,141.749995674133,2|0,1:2|0:2,0:2:0:0:
299,267,69337,1,10,0:2:0:0:
196,88,69509,1,2,1:2:0:0:
196,88,69595,1,2,1:2:0:0:
196,88,69682,1,2,1:2:0:0:
389,194,69854,1,2,1:2:0:0:
163,305,70027,1,10,0:2:0:0:
325,116,70199,1,2,0:2:0:0:
385,362,70371,6,0,P|335:365|290:320,1,94.499997116089,2|0,1:2|0:2,0:2:0:0:
215,171,70716,1,10,0:2:0:0:
361,280,70889,1,2,1:2:0:0:
178,373,71061,1,2,1:2:0:0:
224,198,71233,1,2,1:2:0:0:
361,306,71406,1,10,0:2:0:0:
220,373,71578,1,2,1:2:0:0:
355,223,71751,6,0,P|404:230|438:340,1,153.000002918243,2|2,1:2|0:2,0:2:0:0:
128,188,72440,6,0,P|115:128|90:27,1,153.000002918243,2|2,1:2|0:2,0:2:0:0:
93,39,72958,1,0,0:0:0:0:
194,92,73130,6,0,P|130:112|39:145,1,153.000002918243,2|2,1:2|0:2,0:2:0:0:
1,206,73647,1,0,0:0:0:0:
1,206,73820,2,0,P|35:239|148:218,1,153.000002918243,2|2,1:2|0:2,0:2:0:0:
226,171,74337,1,0,0:0:0:0:
226,171,74509,6,0,P|241:221|250:257,1,76.5000014591217,2|0,1:2|0:2,0:2:0:0:
286,118,74854,2,0,P|301:168|310:204,1,76.5000014591217,2|0,0:2|0:2,0:2:0:0:
382,312,75199,6,0,P|397:262|406:226,1,76.5000014591217,2|0,1:2|0:2,0:2:0:0:
442,365,75544,2,0,P|457:315|466:279,1,76.5000014591217,2|0,0:2|0:2,0:2:0:0:
335,28,75889,5,2,1:2:0:0:
335,28,76233,5,10,0:2:0:0:
403,238,76406,1,2,1:2:0:0:
254,75,76578,5,10,0:2:0:0:
322,285,76751,1,2,1:2:0:0:
173,122,76923,5,10,0:2:0:0:
241,332,77096,1,2,1:2:0:0:
436,216,77268,6,0,P|409:164|304:182,1,141.749995674133,0|0,1:2|0:2,0:2:0:0:
251,158,77613,2,0,P|265:225|276:276,1,94.499997116089,10|2,0:2|1:2,0:0:0:0:
270,250,77871,1,2,1:2:0:0:
270,250,77958,1,2,1:2:0:0:
341,101,78130,1,2,1:2:0:0:
168,195,78302,1,10,1:2:0:0:
355,285,78475,1,2,0:2:0:0:
214,98,78647,6,0,P|121:119|56:134,1,141.749995674133,2|0,1:2|0:2,0:2:0:0:
22,186,78992,2,0,P|-4:130|14:83,1,94.499997116089,10|2,0:2|1:2,0:0:0:0:
2,100,79251,1,2,1:2:0:0:
2,100,79337,1,2,1:2:0:0:
160,183,79509,1,0,1:2:0:0:
10,282,79682,1,10,1:2:0:0:
81,130,79854,1,2,0:2:0:0:
215,316,80027,5,2,1:2:0:0:
54,229,80199,1,2,0:2:0:0:
251,94,80371,2,0,P|263:160|273:207,1,94.499997116089,8|0,1:2|1:2,0:2:0:0:
331,234,80630,1,2,1:2:0:0:
331,234,80716,2,0,P|319:300|309:347,1,94.499997116089,2|2,1:2|1:2,0:0:0:0:
267,161,81061,1,10,1:2:0:0:
411,264,81233,1,2,0:2:0:0:
220,306,81406,6,0,P|158:289|96:355,1,141.749995674133,0|0,1:2|0:2,0:2:0:0:
25,351,81751,2,0,P|82:366|136:382,1,94.499997116089,8|2,0:2|1:2,0:0:0:0:
116,375,82009,1,2,1:2:0:0:
116,375,82095,1,2,1:2:0:0:
0,225,82268,1,2,1:2:0:0:
162,166,82440,2,0,B|146:225|137:275|137:279,1,94.499997116089,8|0,1:2|0:2,0:0:0:0:
37,75,82785,6,0,P|69:24|166:43,1,141.749995674133,2|0,1:2|0:2,0:2:0:0:
206,65,83130,2,0,P|243:103|295:96,1,94.499997116089,8|2,1:2|1:2,0:0:0:0:
281,102,83389,1,2,1:2:0:0:
281,102,83475,1,2,1:2:0:0:
455,17,83647,1,2,1:2:0:0:
366,186,83820,1,8,1:2:0:0:
295,7,83992,1,2,0:2:0:0:
498,146,84164,6,0,P|486:216|469:327,1,141.749995674133,2|0,1:2|0:2,0:2:0:0:
509,350,84509,2,0,P|463:357|420:333,1,94.499997116089,8|2,1:2|1:2,0:0:0:0:
422,335,84768,1,2,1:2:0:0:
422,335,84854,1,2,1:2:0:0:
280,231,85027,1,0,1:2:0:0:
416,169,85199,1,8,1:2:0:0:
328,342,85371,1,2,0:2:0:0:
258,142,85544,5,2,1:2:0:0:
374,254,85716,1,2,0:2:0:0:
208,322,85889,2,0,P|152:343|86:369,1,94.499997116089,10|0,1:2|1:2,0:2:0:0:
48,351,86146,1,2,1:2:0:0:
40,349,86233,2,0,P|6:301|23:251,1,94.499997116089,2|2,1:2|1:2,0:0:0:0:
181,129,86578,1,8,1:2:0:0:
114,275,86751,1,2,0:2:0:0:
30,175,86923,6,0,P|17:107|0:24,1,141.749995674133,2|0,1:2|0:2,0:2:0:0:
26,27,87268,2,0,P|67:1|121:17,1,94.499997116089,8|2,1:2|1:2,0:0:0:0:
110,8,87527,1,2,1:2:0:0:
110,8,87613,1,2,1:2:0:0:
295,151,87785,1,10,1:2:0:0:
286,104,87871,1,10,1:2:0:0:
276,57,87958,1,10,1:2:0:0:
134,185,88130,1,10,1:2:0:0:
355,244,88302,6,0,P|279:264|229:279,1,94.499997116089,2|0,1:2|0:0,0:2:0:0:
472,294,88647,1,8,0:2:0:0:
363,159,88820,1,2,1:2:0:0:
363,159,88906,1,2,1:2:0:0:
363,159,88992,2,0,P|341:205|366:255,1,94.499997116089,2|2,1:2|1:2,0:2:0:0:
501,120,89337,1,10,1:2:0:0:
365,32,89509,1,2,0:2:0:0:
434,217,89682,6,0,P|490:201|538:188,1,94.499997116089,2|0,1:2|0:0,0:2:0:0:
253,135,90027,1,8,0:2:0:0:
369,322,90199,1,2,1:2:0:0:
369,322,90285,1,2,1:2:0:0:
369,322,90371,2,0,P|425:306|473:293,1,94.499997116089,2|2,1:2|1:2,0:2:0:0:
317,80,90716,1,10,1:2:0:0:
247,270,90889,1,2,0:2:0:0:
229,40,91061,5,2,1:2:0:0:
346,217,91233,1,0,0:2:0:0:
384,5,91406,1,10,1:2:0:0:
224,175,91578,1,2,1:2:0:0:
224,175,91664,1,2,1:2:0:0:
224,175,91751,2,0,P|176:196|123:162,1,94.499997116089,2|0,1:2|1:2,0:2:0:0:
367,108,92095,1,8,1:2:0:0:
243,284,92268,1,2,0:2:0:0:
80,93,92440,6,0,P|140:105|194:116,1,94.499997116089,2|0,1:2|0:0,0:2:0:0:
71,298,92785,1,10,0:2:0:0:
254,115,92958,1,2,1:2:0:0:
254,115,93044,1,2,1:2:0:0:
254,115,93130,1,2,1:2:0:0:
70,224,93302,1,2,1:2:0:0:
204,19,93475,1,10,1:2:0:0:
141,263,93647,1,2,0:2:0:0:
328,37,93820,6,0,P|339:100|358:200,1,135.000005149842,2|2,0:2|0:2,0:2:0:0:
404,230,94337,1,2,0:2:0:0:
404,230,94509,2,0,P|368:250|332:245,1,67.5000025749208,0|2,0:0|0:2,0:0:0:0:
281,304,94854,2,0,P|247:304|219:322,1,67.5000025749208,2|2,0:2|0:2,0:0:0:0:
179,384,95199,6,0,P|144:333|169:265,1,135.000005149842,2|2,0:2|0:2,0:2:0:0:
223,208,95716,1,2,0:2:0:0:
223,208,95889,2,0,P|189:198|149:191,1,67.5000025749208,0|2,0:0|0:2,0:0:0:0:
134,104,96233,2,0,P|167:110|199:119,1,67.5000025749208,2|2,0:0|0:0,0:0:0:0:
303,88,96578,6,0,P|310:46|319:2,1,67.5000025749208,2|2,0:0|0:0,0:0:0:0:
355,165,96923,2,0,P|348:207|339:251,2,67.5000025749208,2|2|0,0:0|0:0|0:0,0:0:0:0:
423,104,97440,1,2,0:0:0:0:
423,104,97613,2,0,P|456:110|488:119,1,67.5000025749208,2|2,0:2|0:2,0:0:0:0:
343,231,97958,6,0,P|309:224|209:196,1,135.000005149842,2|2,0:0|0:0,0:0:0:0:
148,139,98475,1,2,0:0:0:0:
148,139,98647,2,0,P|137:182|132:212,1,67.5000025749208,2|2,0:0|0:0,0:0:0:0:
53,234,98992,2,0,P|42:277|37:307,1,67.5000025749208,2|2,0:0|0:0,0:0:0:0:
86,365,99337,5,2,1:2:0:0:
