osu file format v14

[General]
AudioFilename: audio.mp3
AudioLeadIn: 0
PreviewTime: 43475
Countdown: 0
SampleSet: Soft
StackLeniency: 0.7
Mode: 0
LetterboxInBreaks: 0
WidescreenStoryboard: 1

[Editor]
Bookmarks: 11061,11751,12440,13130,13820,14509,15199,15889,16578,22095,22785,23475,24164,24854,25544,26233,26923,27613,33130,44164,55199,71751,77268,78302,78389,78475,78561,78647,79682,79768,79854,79940,80027,80113,80199,81061,81147,81233,81320,81406,82440,82527,82613,82699,82785,83820,83906,83992,84078,84164,85199,85285,85371,85458,85544,85630,85716,86578,86664,86751,86837,86923,87785,87871,87958,88044,88130,88216,88302,93820
DistanceSpacing: 0.8
BeatDivisor: 4
GridSize: 32
TimelineZoom: 2.699999

[Metadata]
Title:Desire (Cut Ver.)
TitleUnicode:Desire (Cut Ver.)
Artist:Sub Focus, Dimension
ArtistUnicode:Sub Focus, Dimension
Creator:Booliix
Version:Eli's Insane
Source:
Tags:D&B Drum and Bass Makidonalds Reform Kujinn Electronic English Elinor
BeatmapID:2984549
BeatmapSetID:1411024

[Difficulty]
HPDrainRate:4.6
CircleSize:3.8
OverallDifficulty:7.4
ApproachRate:8.8
SliderMultiplier:1.6
SliderTickRate:1

[Events]
//Background and Video events
0,0,"original_drawn_by_lifeline_a384079959__8ebf5719aab24e5369dd2fac2cb4c024.jpg",0,0
//Break Periods
//Storyboard Layer 0 (Background)
//Storyboard Layer 1 (Fail)
//Storyboard Layer 2 (Pass)
//Storyboard Layer 3 (Foreground)
//Storyboard Layer 4 (Overlay)
//Storyboard Sound Samples

[TimingPoints]
27,344.827586206897,4,2,1,5,1,0
11061,-500,4,2,1,30,0,0
11751,-400,4,2,1,30,0,0
12440,-333.333333333333,4,2,1,30,0,0
13130,-285.714285714286,4,2,1,30,0,0
13820,-250,4,2,1,30,0,0
14509,-222.222222222222,4,2,1,30,0,0
15199,-200,4,2,1,30,0,0
15889,-181.818181818182,4,2,1,30,0,0
16578,-166.666666666667,4,2,1,30,0,0
22095,-333.333333333334,4,2,1,30,0,0
22785,-285.714285714286,4,2,1,30,0,0
23475,-250,4,2,1,30,0,0
24164,-222.222222222222,4,2,1,30,0,0
24854,-200,4,2,1,30,0,0
25544,-181.818181818182,4,2,1,30,0,0
26233,-166.666666666667,4,2,1,30,0,0
26923,-153.846153846154,4,2,1,30,0,0
27613,-142.857142857143,4,2,1,60,0,0
27843,-142.857142857143,4,2,1,5,0,0
27958,-142.857142857143,4,2,1,45,0,0
28561,-142.857142857143,4,2,1,5,0,0
28647,-142.857142857143,4,2,1,45,0,0
29251,-142.857142857143,4,2,1,5,0,0
29337,-142.857142857143,4,2,1,45,0,0
29940,-142.857142857143,4,2,1,5,0,0
30027,-142.857142857143,4,2,1,45,0,0
30630,-142.857142857143,4,2,1,5,0,0
30716,-142.857142857143,4,2,1,45,0,0
31320,-142.857142857143,4,2,1,5,0,0
31406,-142.857142857143,4,2,1,45,0,0
32009,-142.857142857143,4,2,1,6,0,0
32095,-142.857142857143,4,2,1,45,0,0
32440,-142.857142857143,4,2,1,30,0,0
33130,-125,4,2,1,50,0,0
41406,-166.666666666667,4,2,1,50,0,0
42095,-142.857142857143,4,2,1,50,0,0
42785,-125,4,2,1,50,0,0
44164,-111.111111111111,4,2,1,50,0,0
49940,-111.111111111111,4,2,1,5,0,0
50027,-111.111111111111,4,2,1,50,0,0
50630,-111.111111111111,4,2,1,5,0,0
50716,-111.111111111111,4,2,1,50,0,0
51320,-111.111111111111,4,2,1,5,0,0
51406,-111.111111111111,4,2,1,50,0,0
53820,-125,4,2,1,50,0,0
55199,-83.3333333333333,4,2,1,85,0,1
55458,-83.3333333333333,4,2,1,5,0,1
55544,-83.3333333333333,4,2,1,85,0,1
55802,-83.3333333333333,4,2,1,5,0,1
55889,-100,4,2,1,85,0,1
56578,-83.3333333333333,4,2,1,85,0,1
56837,-83.3333333333333,4,2,1,5,0,1
56923,-83.3333333333333,4,2,1,85,0,1
57182,-83.3333333333333,4,2,1,5,0,1
57268,-100,4,2,1,85,0,1
57958,-83.3333333333333,4,2,1,85,0,1
58216,-83.3333333333333,4,2,1,5,0,1
58302,-83.3333333333333,4,2,1,85,0,1
58561,-83.3333333333333,4,2,1,5,0,1
58647,-83.3333333333333,4,2,1,85,0,1
59337,-83.3333333333333,4,2,1,85,0,1
59595,-83.3333333333333,4,2,1,5,0,1
59682,-100,4,2,1,85,0,1
60716,-83.3333333333333,4,2,1,85,0,1
60975,-83.3333333333333,4,2,1,5,0,1
61061,-83.3333333333333,4,2,1,85,0,1
61320,-83.3333333333333,4,2,1,5,0,1
61406,-100,4,2,1,85,0,1
62095,-83.3333333333333,4,2,1,85,0,1
62354,-83.3333333333333,4,2,1,5,0,1
62440,-83.3333333333333,4,2,1,85,0,1
62699,-83.3333333333333,4,2,1,5,0,1
62785,-100,4,2,1,85,0,1
63475,-83.3333333333333,4,2,1,85,0,1
63733,-83.3333333333333,4,2,1,5,0,1
63820,-83.3333333333333,4,2,1,85,0,1
64078,-83.3333333333333,4,2,1,5,0,1
64164,-83.3333333333333,4,2,1,85,0,1
64854,-83.3333333333333,4,2,1,85,0,1
65113,-83.3333333333333,4,2,1,5,0,1
65199,-100,4,2,1,85,0,1
66233,-83.3333333333333,4,2,1,85,0,1
66492,-83.3333333333333,4,2,1,5,0,1
66578,-83.3333333333333,4,2,1,85,0,1
67871,-83.3333333333333,4,2,1,5,0,1
67958,-83.3333333333333,4,2,1,85,0,1
69251,-83.3333333333333,4,2,1,5,0,1
69337,-83.3333333333333,4,2,1,85,0,1
70543,-83.3333333333333,4,2,1,5,0,1
70630,-83.3333333333333,4,2,1,5,0,1
70716,-83.3333333333333,4,2,1,85,0,1
71751,-142.857142857143,4,2,1,75,0,0
75889,-100,4,2,1,75,0,0
77268,-83.3333333333333,4,2,1,100,0,1
77527,-83.3333333333333,4,2,1,5,0,1
77613,-90.9090909090909,4,2,1,100,0,1
78647,-83.3333333333333,4,2,1,100,0,1
78906,-83.3333333333333,4,2,1,5,0,1
78992,-90.9090909090909,4,2,1,100,0,1
81406,-83.3333333333333,4,2,1,100,0,1
81664,-83.3333333333333,4,2,1,5,0,1
81751,-90.9090909090909,4,2,1,100,0,1
82527,-90.9090909090909,4,2,1,5,0,1
82613,-90.9090909090909,4,2,1,100,0,1
82699,-90.9090909090909,4,2,1,5,0,1
82785,-83.3333333333333,4,2,1,100,0,1
83044,-83.3333333333333,4,2,1,5,0,1
83130,-90.9090909090909,4,2,1,100,0,1
84164,-83.3333333333333,4,2,1,100,0,1
84423,-83.3333333333333,4,2,1,5,0,1
84509,-90.9090909090909,4,2,1,100,0,1
86923,-83.3333333333333,4,2,1,100,0,1
87182,-83.3333333333333,4,2,1,5,0,1
87268,-90.9090909090909,4,2,1,100,0,1
88044,-90.9090909090909,4,2,1,5,0,1
88130,-90.9090909090909,4,2,1,100,0,1
88216,-90.9090909090909,4,2,1,5,0,1
88302,-83.3333333333333,4,2,1,100,0,1
88561,-83.3333333333333,4,2,1,5,0,1
88647,-90.9090909090909,4,2,1,100,0,1
89682,-83.3333333333333,4,2,1,100,0,1
89940,-90.9090909090909,4,2,1,5,0,1
90027,-90.9090909090909,4,2,1,100,0,1
91061,-83.3333333333333,4,2,1,100,0,1
91320,-83.3333333333333,4,2,1,5,0,1
91406,-90.9090909090909,4,2,1,100,0,1
92440,-83.3333333333333,4,2,1,100,0,1
92699,-83.3333333333333,4,2,1,5,0,1
92785,-90.9090909090909,4,2,1,100,0,1
93820,-142.857142857143,4,2,1,70,0,0
95199,-125,4,2,1,70,0,0
96578,-111.111111111111,4,2,1,60,0,0
97958,-99.9999999999999,4,2,1,40,0,0
98647,-99.9999999999999,4,2,1,35,0,0
99337,-90.9090909090909,4,2,1,40,0,0

[Colours]
Combo1 : 255,215,91
Combo2 : 255,135,47
Combo3 : 255,145,200

[HitObjects]
32,156,11061,6,0,L|44:108,1,48
108,48,11751,6,0,L|168:64,1,60
244,132,12440,6,0,B|276:124|264:96|300:88,1,71.9999978027344,2|0,0:2|0:2,0:2:0:0:
416,72,13130,6,0,P|448:88|448:132,1,83.9999974365235
332,204,13820,6,0,B|292:236|292:236|328:268,1,96,2|0,0:2|0:2,0:2:0:0:
468,316,14509,6,0,P|416:332|364:352,1,107.999996704102,2|0,0:2|0:2,0:2:0:0:
200,344,15199,6,0,P|192:296|176:224,1,120,2|0,0:2|0:2,0:2:0:0:
308,104,15889,6,0,B|396:123|396:123|368:120|351:133,1,132.00000402832,2|0,0:2|0:2,0:2:0:0:
176,224,16578,6,0,P|120:196|159:130,1,143.999995605469,2|0,0:2|0:0,0:2:0:0:
209,96,17268,2,0,P|160:81|117:68,1,95.9999970703126
0,240,17958,6,0,B|36:232|36:232|48:216|48:216|88:208,1,95.9999970703126,2|0,0:2|0:0,0:2:0:0:
252,344,18647,2,0,B|216:336|216:336|204:320|204:320|164:312,1,95.9999970703126
272,152,19337,6,0,P|316:152|332:196,1,95.9999970703126,2|0,0:2|0:2,0:2:0:0:
416,336,20027,2,0,P|430:293|476:292,1,95.9999970703126,2|0,0:2|0:2,0:2:0:0:
512,216,20544,1,0,0:0:0:0:
512,216,20716,2,0,P|467:199|424:180,1,95.9999970703126,2|0,0:2|0:2,0:2:0:0:
256,300,21406,6,0,B|208:308|208:308|240:268,1,95.9999970703126,2|0,0:2|0:2,0:2:0:0:
296,136,22095,6,0,P|260:124|228:112,1,71.9999978027344,2|0,0:2|0:2,0:2:0:0:
196,28,22785,6,0,P|158:44|116:60,1,83.9999974365235,2|0,0:2|0:2,0:2:0:0:
20,96,23475,6,0,P|-4:136|24:172,1,96,2|0,0:2|0:2,0:2:0:0:
144,180,24164,6,0,P|172:224|148:268,1,107.999996704102,2|0,0:2|0:2,0:2:0:0:
20,316,24854,6,0,B|64:324|64:324|84:340|84:340|132:352,1,120,2|0,0:2|0:2,0:2:0:0:
280,320,25544,6,0,B|324:268|324:268|276:220,1,132.00000402832,2|0,0:2|0:2,0:2:0:0:
140,128,26233,6,0,B|208:128|188:60|260:60,1,143.999995605469,2|0,0:2|0:2,0:2:0:0:
396,176,26923,6,0,B|288:144|288:144|312:148|332:136,1,155.999992858887,2|0,0:2|0:2,0:2:0:0:
439,28,27613,6,0,B|462:31|462:31|473:40|473:40|491:44,1,55.9999982910157,2|0,0:2|0:0,0:2:0:0:
512,119,27958,2,0,L|506:137,3,18.6666660970052,0|0|0|0,1:2|1:2|1:2|1:2,0:2:0:0:
336,259,28302,2,0,B|314:242|314:242|334:218,1,55.9999982910157,2|0,0:2|0:0,0:2:0:0:
396,176,28647,2,0,L|416:185,3,18.6666660970052,0|0|0|0,1:2|1:2|1:2|1:2,0:2:0:0:
512,344,28992,6,0,L|460:364,1,55.9999982910157,2|0,0:2|0:0,0:2:0:0:
403,308,29337,2,0,L|427:298,3,18.6666660970052,0|0|0|0,1:2|1:2|1:2|1:2,0:2:0:0:
261,349,29682,2,0,P|245:329|258:304,1,55.9999982910157,2|0,0:2|0:0,0:2:0:0:
300,234,30027,2,0,L|332:249,3,18.6666660970052,0|0|0|0,1:2|1:2|1:2|1:2,0:2:0:0:
418,191,30371,6,0,P|434:171|418:143,1,55.9999982910157,2|0,0:2|0:0,0:2:0:0:
366,91,30716,2,0,L|348:98,3,18.6666660970052,0|0|0|0,1:2|1:2|1:2|1:2,0:2:0:0:
291,0,31061,2,0,L|239:20,1,55.9999982910157,2|0,0:2|0:0,0:2:0:0:
213,103,31406,2,0,L|232:95,3,18.6666660970052,0|0|0|0,1:2|1:2|1:2|1:2,0:2:0:0:
120,176,31751,6,0,L|175:195,1,55.9999982910157,2|0,0:2|0:0,0:2:0:0:
182,274,32095,2,0,L|165:269,3,18.6666660970052,0|0|0|0,1:2|1:2|1:2|1:2,0:2:0:0:
332,342,32440,6,0,B|351:340|351:340|365:328|365:328|383:326,1,55.9999982910157,2|0,0:2|0:2,0:2:0:0:
512,263,32785,2,0,B|495:258|495:258|482:248|482:248|462:242,1,55.9999982910157,2|0,0:2|0:2,0:2:0:0:
440,52,33130,6,0,B|376:56|408:120|348:128,1,128,2|10,1:2|0:2,0:2:0:0:
276,96,33647,1,0,0:0:0:0:
112,32,33820,6,0,B|32:64|32:64|76:80,1,128,10|10,0:2|0:2,0:2:0:0:
144,108,34337,1,2,0:2:0:0:
284,176,34509,2,0,P|320:220|288:276,1,128,10|10,0:2|0:2,0:2:0:0:
220,304,35027,1,0,0:0:0:0:
44,344,35199,6,0,P|37:315|28:280,1,64,10|2,0:2|0:2,0:2:0:0:
136,204,35544,2,0,P|128:234|120:266,1,64,10|2,0:2|0:2,0:2:0:0:
4,180,35889,2,0,B|64:176|44:112|104:108,1,128,10|10,0:2|0:2,0:2:0:0:
176,136,36406,1,0,0:0:0:0:
324,248,36578,6,0,P|333:275|313:303,1,64,8|2,0:2|0:2,0:2:0:0:
222,270,36923,2,0,P|218:239|241:218,1,64,8|2,0:2|0:2,0:2:0:0:
296,148,37268,2,0,B|344:160|344:160|364:176|364:176|416:188,1,128,8|10,0:2|0:2,0:2:0:0:
504,40,37785,5,2,0:2:0:0:
504,40,37958,2,0,P|496:72|488:104,1,64,10|2,0:2|0:2,0:0:0:0:
412,168,38302,2,0,P|404:137|396:105,1,64,10|2,0:2|0:2,0:0:0:0:
344,20,38647,2,0,B|317:8|296:28|296:28|284:75|238:67,1,128,10|10,0:2|0:2,0:2:0:0:
168,32,39164,1,0,0:0:0:0:
256,157,39337,6,0,P|286:145|316:133,1,64,8|0,0:2|0:0,0:2:0:0:
384,257,39682,2,0,P|354:245|324:233,1,64,8|2,0:2|0:2,0:0:0:0:
396,105,40027,2,0,P|456:105|480:164,1,128,8|10,0:2|0:2,0:2:0:0:
472,252,40544,5,2,0:2:0:0:
324,344,40716,2,0,L|304:284,1,64,10|2,0:2|0:2,0:2:0:0:
397,194,41061,2,0,L|383:257,1,64,10|2,0:2|0:2,0:2:0:0:
232,344,41406,6,0,B|188:336|208:300|156:292,1,95.9999970703126,10|10,0:2|0:2,0:2:0:0:
88,328,41923,1,2,0:2:0:0:
264,256,42095,6,0,B|296:208|296:208|256:172,1,111.999996582031,10|10,0:2|0:2,0:2:0:0:
192,124,42613,1,2,0:2:0:0:
16,176,42785,6,0,P|-16:124|20:72,1,128,10|10,0:2|0:2,0:2:0:0:
88,40,43302,1,0,0:0:0:0:
250,14,43475,6,0,P|283:21|313:29,1,64,10|10,0:2|0:2,0:2:0:0:
328,112,43733,1,0,0:0:0:0:
328,112,43820,2,0,P|297:103|265:97,1,64,10|10,0:2|0:2,0:2:0:0:
440,24,44164,6,0,B|488:40|488:40|460:132,1,143.999995605469,10|10,1:2|0:2,0:2:0:0:
380,208,44682,1,0,0:2:0:0:
424,324,44854,6,0,P|392:312|356:300,1,71.9999978027344,8|0,0:2|1:2,0:2:0:0:
232,224,45199,2,0,P|266:212|299:200,1,71.9999978027344,8|2,0:2|0:2,0:0:0:0:
228,344,45544,2,0,B|160:336|196:268|120:260,1,143.999995605469,8|8,1:2|0:2,0:2:0:0:
36,320,46061,1,0,0:2:0:0:
132,240,46233,6,0,B|155:208|155:208|135:180,1,71.9999978027344,10|2,0:2|1:2,0:2:0:0:
32,112,46578,2,0,B|13:138|13:138|36:170,1,71.9999978027344,10|2,0:2|0:2,0:2:0:0:
208,268,46923,2,0,B|268:248|228:184|296:164,1,143.999995605469,10|10,1:2|0:2,0:2:0:0:
400,160,47440,1,2,0:2:0:0:
488,344,47613,6,0,P|448:332|416:324,1,71.9999978027344,8|2,0:2|1:2,0:0:0:0:
323,259,47958,2,0,P|357:250|392:239,1,71.9999978027344,8|2,0:2|0:2,0:0:0:0:
512,128,48302,2,0,B|488:92|500:56|500:56|488:92|452:100,1,143.999995605469,8|8,1:2|0:2,0:2:0:0:
404,4,48820,5,2,0:2:0:0:
328,160,48992,2,0,P|296:144|259:132,1,71.9999978027344,10|2,0:2|1:2,0:0:0:0:
144,56,49337,2,0,P|178:44|210:28,1,71.9999978027344,10|2,0:2|0:2,0:0:0:0:
156,216,49682,6,0,B|96:240|96:240|116:200,1,107.999996704102,10|0,1:2|0:0,0:2:0:0:
128,184,50027,1,10,0:2:0:0:
356,172,50371,6,0,B|336:228|388:228|368:276,1,107.999996704102,8|0,0:2|0:0,0:2:0:0:
364,296,50716,1,8,0:2:0:0:
192,344,51061,6,0,B|160:332|160:332|140:304|140:304|103:290,1,107.999996704102,8|0,0:2|0:0,0:2:0:0:
88,300,51406,1,8,0:2:0:0:
164,144,51751,5,10,0:2:0:0:
235,175,51923,1,2,0:2:0:0:
204,247,52095,1,10,0:2:0:0:
131,215,52268,1,2,0:2:0:0:
272,88,52440,6,0,P|308:104|340:116,1,71.9999978027344,10|2,0:2|0:2,0:2:0:0:
424,232,52785,2,0,P|390:244|357:259,1,71.9999978027344,10|2,0:2|0:2,0:2:0:0:
168,340,53130,5,10,0:2:0:0:
168,340,53302,1,2,0:2:0:0:
284,240,53475,5,10,0:2:0:0:
284,240,53647,1,2,0:2:0:0:
144,136,53820,6,0,B|200:124|176:64|232:52,1,128,10|10,0:2|0:2,0:2:0:0:
308,80,54337,1,2,0:2:0:0:
448,184,54509,6,8,B|488:136|488:136|448:80,1,128,10|10,0:2|0:2,0:2:0:0:
380,44,55027,1,0,0:2:0:0:
204,224,55199,6,0,B|186:235|158:231|158:231|250:263,1,143.999995605469,2|0,1:2|0:2,0:2:0:0:
328,276,55544,2,0,B|261:269|285:353|213:345,1,143.999995605469,10|0,1:2|0:0,0:2:0:0:
136,344,55889,2,0,L|60:316,1,80,2|0,0:2|1:2,0:2:0:0:
172,144,56233,5,10,1:2:0:0:
24,224,56405,1,2,0:2:0:0:
51,104,56578,6,0,B|83:80|127:112|99:132|143:164|171:144,1,143.999995605469,2|0,1:2|0:2,0:2:0:0:
224,56,56923,2,0,B|136:28|136:28|168:40|176:60,1,143.999995605469,10|0,1:2|0:0,0:2:0:0:
244,176,57268,2,0,L|316:140,1,80,2|0,0:2|1:2,0:2:0:0:
512,216,57613,5,10,1:2:0:0:
380,288,57785,1,2,0:2:0:0:
460,72,57958,6,0,B|484:16|536:36|536:36|504:48|500:72,1,143.999995605469,2|0,1:2|0:2,0:2:0:0:
460,156,58302,2,0,B|432:176|388:144|416:124|372:92|340:116,1,143.999995605469,10|0,0:2|0:0,0:2:0:0:
218,241,58647,5,2,0:2:0:0:
275,339,58820,1,2,1:2:0:0:
380,292,58992,1,10,0:2:0:0:
328,192,59164,1,2,0:2:0:0:
184,80,59337,6,0,B|135:97|135:97|119:137|119:137|70:155,1,143.999995605469,2|0,1:2|0:0,0:2:0:0:
40,84,59682,1,10,1:2:0:0:
200,164,59854,1,2,0:2:0:0:
44,296,60027,2,0,L|20:216,1,80,2|0,0:2|1:2,0:2:0:0:
196,188,60371,5,10,0:2:0:0:
152,312,60544,1,2,0:2:0:0:
216,76,60716,6,0,B|244:56|280:88|260:108|304:144|336:124,1,143.999995605469,2|0,1:2|0:2,0:2:0:0:
452,164,61061,2,0,B|403:181|403:181|387:221|387:221|338:239,1,143.999995605469,10|0,1:2|0:0,0:2:0:0:
272,196,61406,2,0,P|256:232|272:272,1,80,2|0,0:2|1:2,0:2:0:0:
344,344,61751,5,10,1:2:0:0:
168,224,61923,1,2,0:2:0:0:
28,348,62095,6,0,B|-16:288|55:268|28:212,1,143.999995605469,0|0,1:0|0:0,0:0:0:0:
52,136,62440,2,0,B|120:116|104:204|176:184,1,143.999995605469,10|0,1:2|0:0,0:2:0:0:
248,220,62785,2,0,P|284:204|324:188,1,80,2|0,0:2|1:2,0:2:0:0:
376,32,63130,5,10,1:2:0:0:
448,176,63302,1,2,0:2:0:0:
256,16,63475,6,0,B|208:64|208:64|256:124,1,143.999995605469,2|0,1:2|0:2,0:2:0:0:
321,188,63820,2,0,B|385:180|345:112|425:100,1,143.999995605469,10|0,1:2|0:0,0:2:0:0:
484,152,64164,5,2,0:2:0:0:
346,262,64337,1,2,1:2:0:0:
496,324,64509,5,10,0:2:0:0:
416,212,64682,1,2,0:2:0:0:
300,328,64854,6,0,B|208:304|208:304|236:308|256:292,1,143.999995605469,2|0,1:2|0:0,0:2:0:0:
217,228,65199,1,10,0:2:0:0:
336,132,65371,1,2,0:2:0:0:
203,32,65544,2,0,B|171:42|171:42|160:55|160:55|129:66,1,80,2|8,1:2|1:2,0:0:0:0:
120,73,65802,1,10,1:2:0:0:
109,79,65889,1,10,1:2:0:0:
244,168,66061,1,2,1:2:0:0:
73,310,66233,6,0,B|25:250|25:250|73:198,1,143.999995605469,2|0,1:2|0:2,0:2:0:0:
132,148,66578,2,0,B|180:156|164:192|208:200,1,95.9999970703126,10|2,1:2|0:2,0:2:0:0:
220,204,66837,1,2,1:2:0:0:
232,204,66923,1,2,1:2:0:0:
392,96,67095,5,0,1:2:0:0:
280,32,67268,1,10,1:2:0:0:
300,156,67440,1,2,0:2:0:0:
468,240,67613,6,0,B|481:180|481:180|477:168|477:168|492:100,1,143.999995605469,2|0,1:2|0:2,0:2:0:0:
480,20,67958,2,0,P|444:-8|400:8,1,95.9999970703126,10|2,1:2|0:2,0:2:0:0:
392,16,68216,1,2,1:2:0:0:
384,24,68302,1,2,1:2:0:0:
288,184,68475,5,0,1:2:0:0:
412,140,68647,1,10,0:2:0:0:
248,60,68820,1,2,0:2:0:0:
184,232,68992,6,0,B|116:220|156:152|84:140,1,143.999995605469,2|0,1:2|0:2,0:2:0:0:
16,180,69337,2,0,P|-4:220|16:264,1,95.9999970703126,10|2,0:2|1:2,0:2:0:0:
24,272,69595,1,2,1:2:0:0:
33,279,69682,1,2,1:2:0:0:
152,332,69854,5,2,1:2:0:0:
288,252,70027,1,10,0:2:0:0:
164,152,70199,1,2,0:2:0:0:
308,336,70371,6,0,B|353:319|353:319|364:281|364:281|417:262,1,143.999995605469,2|0,1:2|0:0,0:2:0:0:
488,300,70716,2,0,B|520:264|520:264|488:224,1,95.9999970703126,10|2,0:2|1:2,0:0:0:0:
392,108,71061,5,2,1:2:0:0:
392,108,71233,1,2,1:2:0:0:
252,208,71406,5,10,0:2:0:0:
252,208,71578,1,2,1:2:0:0:
164,124,71751,6,0,B|126:137|126:137|110:164|110:164|69:179,2,111.999996582031,2|2|2,1:2|0:2|1:2,0:2:0:0:
360,200,72785,2,0,L|344:256,1,55.9999982910157,2|0,0:2|0:0,0:0:0:0:
308,352,73130,5,2,1:2:0:0:
308,352,73475,1,2,0:2:0:0:
124,348,73820,6,0,P|96:336|72:328,1,55.9999982910157,2|0,1:2|0:2,0:2:0:0:
20,244,74164,2,0,P|46:235|72:223,1,55.9999982910157,2|0,0:2|0:0,0:0:0:0:
168,184,74509,5,2,1:2:0:0:
168,184,74854,1,2,0:2:0:0:
68,56,75199,5,2,1:2:0:0:
68,56,75544,1,2,0:2:0:0:
296,32,75889,6,0,B|326:42|326:42|337:59|337:59|363:69,1,80,2|0,1:2|0:0,0:0:0:0:
472,184,76233,5,10,0:2:0:0:
472,184,76406,1,2,1:2:0:0:
324,328,76578,5,10,0:2:0:0:
324,328,76751,1,2,1:2:0:0:
320,184,76923,5,10,0:2:0:0:
468,328,77095,1,2,1:2:0:0:
292,156,77268,6,0,B|256:136|236:168|236:168|204:212|168:188,1,143.999995605469,0|0,1:2|0:2,0:2:0:0:
136,116,77613,2,0,B|112:80|112:80|136:40,1,88.000002685547,10|2,0:2|1:2,0:0:0:0:
144,32,77871,1,2,1:2:0:0:
152,24,77958,1,2,1:2:0:0:
288,184,78130,1,2,1:2:0:0:
380,8,78302,6,0,P|404:4|420:20,1,44.0000013427735,10|0,1:2|0:0,0:0:0:0:
480,64,78475,1,2,0:2:0:0:
380,156,78647,2,0,B|352:220|424:220|396:292,1,143.999995605469,2|0,1:2|0:2,0:2:0:0:
348,356,78992,6,0,P|324:348|308:292,1,88.000002685547,10|2,0:2|1:2,0:0:0:0:
313,284,79251,1,2,1:2:0:0:
317,276,79337,1,2,1:2:0:0:
484,244,79509,1,0,1:2:0:0:
360,124,79682,6,0,L|320:108,1,44.0000013427735,10|0,1:2|0:0,0:0:0:0:
248,76,79854,1,2,0:2:0:0:
132,148,80027,1,2,1:2:0:0:
232,212,80199,1,2,0:2:0:0:
124,48,80371,6,0,P|84:48|56:84,1,88.000002685547,8|0,1:2|1:2,0:2:0:0:
52,96,80630,1,2,1:2:0:0:
52,108,80716,1,2,1:2:0:0:
216,232,80889,1,2,1:2:0:0:
56,336,81061,2,0,P|43:317|44:296,1,44.0000013427735,10|0,1:2|0:0,0:0:0:0:
88,232,81233,1,2,0:2:0:0:
236,344,81406,2,0,B|300:336|264:264|340:256,1,143.999995605469,0|0,1:2|0:2,0:2:0:0:
396,204,81751,6,0,B|428:212|428:212|440:232|440:232|472:240,1,88.000002685547,8|2,0:2|1:2,0:0:0:0:
480,244,82009,1,2,1:2:0:0:
492,248,82095,1,2,1:2:0:0:
376,324,82268,1,2,1:2:0:0:
256,216,82440,6,0,B|240:200|240:200|256:184,1,44.0000013427735,8|0,1:2|0:0,0:0:0:0:
312,128,82613,1,0,0:2:0:0:
480,64,82785,2,0,B|409:45|409:45|403:38|403:38|342:24,1,143.999995605469,2|0,1:2|0:2,0:2:0:0:
268,0,83130,6,0,B|220:8|240:48|204:56,1,88.000002685547,8|2,1:2|1:2,0:0:0:0:
192,60,83389,1,2,1:2:0:0:
180,60,83475,1,2,1:2:0:0:
328,148,83647,1,2,1:2:0:0:
256,288,83820,6,0,L|216:264,1,44.0000013427735,8|0,1:2|0:0,0:0:0:0:
156,224,83992,1,2,0:2:0:0:
32,128,84164,2,0,B|-16:176|-16:176|20:244,1,143.999995605469,2|0,1:2|0:2,0:2:0:0:
60,312,84509,6,0,P|88:344|132:344,1,88.000002685547,8|2,1:2|1:2,0:0:0:0:
140,340,84768,1,2,1:2:0:0:
150,335,84854,1,2,1:2:0:0:
260,240,85027,1,0,1:2:0:0:
396,344,85199,6,0,L|408:300,1,44.0000013427735,8|0,1:2|0:0,0:0:0:0:
432,228,85371,1,2,0:2:0:0:
296,168,85544,1,2,1:2:0:0:
224,312,85716,1,2,0:2:0:0:
72,204,85889,6,0,P|72:160|108:140,1,88.000002685547,10|0,1:2|1:2,0:2:0:0:
120,140,86147,1,2,1:2:0:0:
132,144,86234,1,2,1:2:0:0:
284,200,86406,1,2,1:2:0:0:
192,24,86578,6,0,L|200:68,1,44.0000013427735,8|0,1:2|0:0,0:0:0:0:
216,144,86751,1,2,0:2:0:0:
328,280,86923,2,0,B|396:272|356:200|436:192,1,143.999995605469,2|0,1:2|0:2,0:2:0:0:
508,217,87268,6,0,P|528:260|508:296,1,88.000002685547,8|2,1:2|1:2,0:0:0:0:
501,307,87527,1,2,1:2:0:0:
492,316,87613,1,2,1:2:0:0:
276,348,87785,5,10,1:2:0:0:
276,348,87871,1,10,1:2:0:0:
276,348,87958,2,0,B|244:340|244:340|232:324|232:324|196:316,1,88.000002685547,10|10,1:2|1:2,0:2:0:0:
80,360,88302,6,0,B|32:312|32:312|80:252,1,143.999995605469,2|0,1:2|0:2,0:2:0:0:
128,192,88647,1,8,0:2:0:0:
316,240,88820,1,2,1:2:0:0:
316,240,88906,1,2,1:2:0:0:
316,240,88992,2,0,P|336:208|320:164,1,88.000002685547,2|2,1:2|1:2,0:2:0:0:
240,60,89337,1,10,1:2:0:0:
144,172,89509,1,2,0:2:0:0:
8,56,89682,6,0,B|68:40|68:40|84:24|84:24|144:8,1,143.999995605469,2|0,1:2|0:2,0:2:0:0:
216,36,90027,1,8,0:2:0:0:
352,176,90199,1,2,1:2:0:0:
352,176,90285,1,2,1:2:0:0:
352,176,90371,2,0,B|311:166|311:166|304:160|304:160|268:152,1,88.000002685547,2|2,1:2|1:2,0:2:0:0:
124,304,90716,1,10,1:2:0:0:
288,248,90889,1,2,0:2:0:0:
152,92,91061,6,0,B|100:140|100:140|148:196,1,143.999995605469,2|0,1:2|0:0,0:0:0:0:
200,252,91406,1,10,1:2:0:0:
384,100,91578,1,2,1:2:0:0:
384,100,91664,1,2,1:2:0:0:
384,100,91751,2,0,B|424:108|408:148|448:156,1,88.000002685547,2|0,1:2|1:2,0:2:0:0:
512,60,92095,1,8,1:2:0:0:
360,192,92268,1,2,0:2:0:0:
312,16,92440,6,0,B|248:16|276:96|204:96,1,143.999995605469,2|0,1:2|0:2,0:2:0:0:
196,16,92785,1,10,0:2:0:0:
344,96,92958,5,2,1:2:0:0:
344,96,93044,1,2,1:2:0:0:
344,96,93130,1,2,1:2:0:0:
456,172,93302,1,2,1:2:0:0:
380,276,93475,1,10,1:2:0:0:
272,204,93647,1,2,0:2:0:0:
384,24,93820,6,0,B|432:8|432:76|484:60,1,111.999996582031,2|2,0:2|0:2,0:2:0:0:
488,176,94337,1,2,0:2:0:0:
488,176,94509,2,0,P|479:202|472:232,1,55.9999982910157,0|2,0:0|0:2,0:0:0:0:
395,329,94854,2,0,P|388:301|379:275,1,55.9999982910157,2|2,0:2|0:2,0:0:0:0:
328,172,95199,6,0,P|268:172|256:232,1,128,2|2,0:2|0:2,0:2:0:0:
200,320,95716,1,2,0:2:0:0:
200,320,95889,2,0,P|168:308|140:300,1,64,0|2,0:0|0:2,0:0:0:0:
68,216,96233,2,0,P|98:206|128:195,1,64,2|2,0:0|0:0,0:0:0:0:
272,200,96578,6,0,B|320:148|320:148|272:92,1,143.999995605469,2|2,0:0|0:0,0:0:0:0:
204,16,97095,1,2,0:0:0:0:
204,16,97268,2,0,B|180:24|180:24|168:40|168:40|140:48,1,71.9999978027344,0|2,0:0|0:0,0:0:0:0:
56,132,97613,2,0,B|80:140|80:140|92:156|92:156|120:164,1,71.9999978027344,2|2,0:2|0:2,0:0:0:0:
176,304,97958,6,0,P|196:232|272:232,1,160,2|2,0:0|0:0,0:0:0:0:
372,296,98475,1,2,0:0:0:0:
372,296,98647,2,0,L|448:264,1,80,2|2,0:0|0:0,0:0:0:0:
468,144,98992,2,0,B|428:136|440:108|404:100,1,80,2|2,0:0|0:0,0:0:0:0:
256,192,99337,5,2,1:2:0:0:
