osu file format v14

[General]
AudioFilename: audio.mp3
AudioLeadIn: 0
PreviewTime: 43475
Countdown: 0
SampleSet: Soft
StackLeniency: 0.7
Mode: 0
LetterboxInBreaks: 0
WidescreenStoryboard: 1

[Editor]
Bookmarks: 16578,17958
DistanceSpacing: 0.6
BeatDivisor: 4
GridSize: 32
TimelineZoom: 3.699999

[Metadata]
Title:Desire (Cut Ver.)
TitleUnicode:Desire (Cut Ver.)
Artist:Sub Focus, Dimension
ArtistUnicode:Sub Focus, Dimension
Creator:Booliix
Version:All Of Your Desire
Source:
Tags:D&B Drum and Bass Makidonalds Reform Kujinn Electronic English Elinor
BeatmapID:2943109
BeatmapSetID:1411024

[Difficulty]
HPDrainRate:5.5
CircleSize:4.2
OverallDifficulty:8.6
ApproachRate:9.2
SliderMultiplier:1.82
SliderTickRate:1

[Events]
//Background and Video events
0,0,"original_drawn_by_lifeline_a384079959__8ebf5719aab24e5369dd2fac2cb4c024.jpg",0,0
//Break Periods
//Storyboard Layer 0 (Background)
//Storyboard Layer 1 (Fail)
//Storyboard Layer 2 (Pass)
//Storyboard Layer 3 (Foreground)
//Storyboard Layer 4 (Overlay)
//Storyboard Sound Samples

[TimingPoints]
27,344.827586206897,4,2,1,5,1,0
27,-142.857142857143,4,2,1,5,0,0
11061,-333.333333333333,4,2,1,30,0,0
12440,-222.222222222222,4,2,1,30,0,0
13820,-181.818181818182,4,2,1,30,0,0
16578,-200,4,2,1,30,0,0
19337,-166.666666666667,4,2,1,30,0,0
22095,-333.333333333333,4,2,1,30,0,0
23475,-222.222222222222,4,2,1,30,0,0
24854,-200,4,2,1,30,0,0
27613,-166.666666666667,4,2,1,60,0,0
27843,-166.666666666667,4,2,1,5,0,0
27958,-166.666666666667,4,2,1,45,0,0
28561,-166.666666666667,4,2,1,5,0,0
28647,-166.666666666667,4,2,1,45,0,0
29251,-166.666666666667,4,2,1,5,0,0
29337,-166.666666666667,4,2,1,45,0,0
29940,-166.666666666667,4,2,1,5,0,0
30027,-166.666666666667,4,2,1,45,0,0
30630,-166.666666666667,4,2,1,5,0,0
30716,-166.666666666667,4,2,1,45,0,0
31320,-166.666666666667,4,2,1,5,0,0
31406,-166.666666666667,4,2,1,45,0,0
32009,-166.666666666667,4,2,1,6,0,0
32095,-166.666666666667,4,2,1,45,0,0
32440,-111.111111111111,4,2,1,30,0,0
33130,-142.857142857143,4,2,1,50,0,0
43475,-133.333333333333,4,2,1,50,0,0
55199,-83.3333333333333,4,2,1,85,0,0
55458,-83.3333333333333,4,2,1,5,0,0
55544,-83.3333333333333,4,2,1,85,0,0
55802,-83.3333333333333,4,2,1,5,0,0
55889,-83.3333333333333,4,2,1,85,0,0
56837,-83.3333333333333,4,2,1,5,0,0
56923,-83.3333333333333,4,2,1,85,0,0
57182,-83.3333333333333,4,2,1,5,0,0
57268,-83.3333333333333,4,2,1,85,0,0
58216,-83.3333333333333,4,2,1,5,0,0
58302,-83.3333333333333,4,2,1,85,0,0
58561,-83.3333333333333,4,2,1,5,0,0
58647,-83.3333333333333,4,2,1,85,0,0
59595,-83.3333333333333,4,2,1,5,0,0
59682,-83.3333333333333,4,2,1,85,0,0
60975,-83.3333333333333,4,2,1,5,0,0
61061,-83.3333333333333,4,2,1,85,0,0
61320,-83.3333333333333,4,2,1,5,0,0
61406,-83.3333333333333,4,2,1,85,0,0
62354,-83.3333333333333,4,2,1,5,0,0
62440,-83.3333333333333,4,2,1,85,0,0
62699,-83.3333333333333,4,2,1,5,0,0
62785,-83.3333333333333,4,2,1,85,0,0
63733,-83.3333333333333,4,2,1,5,0,0
63821,-83.3333333333333,4,2,1,85,0,0
64078,-83.3333333333333,4,2,1,5,0,0
64164,-83.3333333333333,4,2,1,85,0,0
65113,-83.3333333333333,4,2,1,5,0,0
65199,-83.3333333333333,4,2,1,85,0,0
66492,-83.3333333333333,4,2,1,5,0,0
66578,-83.3333333333333,4,2,1,85,0,0
67871,-83.3333333333333,4,2,1,5,0,0
67958,-83.3333333333333,4,2,1,85,0,0
69251,-83.3333333333333,4,2,1,5,0,0
69337,-83.3333333333333,4,2,1,85,0,0
70543,-83.3333333333333,4,2,1,5,0,0
70630,-83.3333333333333,4,2,1,5,0,0
70716,-83.3333333333333,4,2,1,85,0,0
71751,-133.333333333333,4,2,1,75,0,0
77268,-83.3333333333333,4,2,1,100,0,0
77527,-83.3333333333333,4,2,1,5,0,0
77613,-83.3333333333333,4,2,1,100,0,0
78906,-83.3333333333333,4,2,1,5,0,0
78992,-83.3333333333333,4,2,1,100,0,0
81664,-83.3333333333333,4,2,1,5,0,0
81751,-83.3333333333333,4,2,1,100,0,0
82527,-83.3333333333333,4,2,1,5,0,0
82613,-83.3333333333333,4,2,1,100,0,0
82699,-83.3333333333333,4,2,1,5,0,0
82785,-83.3333333333333,4,2,1,100,0,0
83044,-83.3333333333333,4,2,1,5,0,0
83130,-83.3333333333333,4,2,1,100,0,0
84423,-83.3333333333333,4,2,1,5,0,0
84509,-83.3333333333333,4,2,1,100,0,0
87182,-83.3333333333333,4,2,1,5,0,0
87268,-83.3333333333333,4,2,1,100,0,0
88044,-83.3333333333333,4,2,1,5,0,0
88130,-83.3333333333333,4,2,1,100,0,0
88216,-83.3333333333333,4,2,1,5,0,0
88302,-83.3333333333333,4,2,1,100,0,0
88561,-83.3333333333333,4,2,1,5,0,0
88647,-83.3333333333333,4,2,1,100,0,0
89940,-83.3333333333333,4,2,1,5,0,0
90027,-83.3333333333333,4,2,1,100,0,0
91320,-83.3333333333333,4,2,1,5,0,0
91406,-83.3333333333333,4,2,1,100,0,0
92699,-83.3333333333333,4,2,1,5,0,0
92785,-83.3333333333333,4,2,1,100,0,0
93820,-125,4,2,1,70,0,0
96578,-166.666666666667,4,2,1,60,0,0
97958,-250,4,2,1,40,0,0
98647,-250,4,2,1,35,0,0
99337,-250,4,2,1,40,0,0

[Colours]
Combo1 : 255,215,91
Combo2 : 255,135,47
Combo3 : 255,145,200

[HitObjects]
137,322,11061,6,0,P|180:330|216:315,1,81.8999975006104
294,246,11751,2,0,P|337:238|373:253,1,81.8999975006104
472,359,12440,2,0,P|483:289|498:224,1,122.849996250916,2|0,0:2|0:2,0:2:0:0:
496,131,13130,2,0,P|436:121|395:167,1,122.849996250916
292,318,13820,6,0,P|279:234|264:166,1,150.150004582214,2|0,0:2|0:2,0:2:0:0:
66,268,14509,2,0,P|78:321|162:350,1,150.150004582214,2|0,0:2|0:2,0:2:0:0:
266,167,15199,2,0,P|339:163|386:222,1,150.150004582214,2|0,0:2|0:2,0:2:0:0:
478,384,15889,2,0,P|493:313|519:224,1,150.150004582214,2|0,0:2|0:2,0:2:0:0:
388,79,16578,6,0,B|351:15|290:-7|207:3|170:118|253:154|304:123,1,318.5,2|0,0:2|0:2,0:2:0:0:
405,255,17958,2,0,B|334:191|232:234|270:270|195:312|110:254,1,318.5,2|0,0:2|0:2,0:2:0:0:
32,41,19337,6,0,P|85:46|148:62,1,109.79999664917,2|0,0:2|0:2,0:2:0:0:
208,122,20027,2,0,P|261:108|316:101,1,109.199996667481,2|0,0:2|0:2,0:2:0:0:
432,117,20716,2,0,P|456:175|414:221,1,109.79999664917,2|0,0:2|0:2,0:2:0:0:
321,206,21406,2,0,P|337:253|352:323,1,109.79999664917,2|0,0:2|0:2,0:2:0:0:
352,121,22095,6,0,P|308:118|273:148,1,81.8999975006104,2|0,0:2|0:2,0:2:0:0:
212,268,22785,2,0,P|168:270|133:241,1,81.8999975006104,2|0,0:2|0:2,0:2:0:0:
37,137,23475,2,0,P|108:140|176:156,1,122.849996250916,2|0,0:2|0:2,0:2:0:0:
251,239,24164,2,0,P|330:217|388:212,1,122.849996250916,2|0,0:2|0:2,0:2:0:0:
498,341,24854,6,0,P|426:361|373:308,1,136.5,2|0,0:2|0:2,0:2:0:0:
310,217,25544,2,0,P|238:196|184:249,1,136.5,2|0,0:2|0:2,0:2:0:0:
73,355,26233,2,0,P|61:259|42:202,1,136.5,2|0,0:2|0:2,0:2:0:0:
87,94,26923,2,0,P|157:66|212:113,1,136.5,2|0,0:2|0:2,0:2:0:0:
169,232,27613,6,0,P|161:188|144:147,1,81.8999975006104,2|0,0:2|0:2,0:2:0:0:
147,152,27958,2,0,L|125:151,4,18.1999994445801,0|0|0|0|0,1:2|1:2|1:2|1:2|1:2,0:2:0:0:
310,119,28302,2,0,P|295:157|288:198,1,82.3499974868775,2|0,0:2|0:2,0:2:0:0:
288,197,28647,2,0,L|310:195,4,18.1999994445801,0|0|0|0|0,1:2|1:2|1:2|1:2|1:2,0:2:0:0:
354,367,28992,6,0,P|346:323|328:279,1,82.3499974868775,2|0,0:2|0:2,0:2:0:0:
332,287,29337,2,0,L|309:285,4,18.1999994445801,0|0|0|0|0,1:2|1:2|1:2|1:2|1:2,0:2:0:0:
495,254,29681,2,0,P|480:292|473:333,1,82.3499974868775,2|0,0:2|0:2,0:2:0:0:
473,332,30027,2,0,L|495:333,4,18.1999994445801,0|0|0|0|0,1:2|1:2|1:2|1:2|1:2,0:2:0:0:
386,206,30371,6,0,P|378:162|360:118,1,82.3499974868775,2|0,0:2|0:2,0:2:0:0:
364,126,30716,2,0,L|341:124,4,18.1999994445801,0|0|0|0|0,1:2|1:2|1:2|1:2|1:2,0:2:0:0:
490,28,31061,2,0,P|475:66|468:107,1,82.3499974868775,2|0,0:2|0:2,0:2:0:0:
468,106,31406,2,0,L|490:104,4,18.1999994445801,0|0|0|0|0,1:2|1:2|1:2|1:2|1:2,0:2:0:0:
386,206,31751,2,0,P|378:162|357:111,1,81.8999975006104,2|0,0:2|0:2,0:2:0:0:
364,126,32095,2,0,L|341:124,4,18.1999994445801,0|0|0|0|0,1:2|1:2|1:2|1:2|1:2,0:2:0:0:
175,63,32440,6,0,L|260:79,1,81.8999975006104,2|0,0:2|0:2,0:2:0:0:
78,179,32785,2,0,L|163:162,1,81.8999975006104,2|0,0:2|0:2,0:2:0:0:
312,255,33130,6,0,P|280:316|214:318,1,127.399996112061,2|10,1:2|0:2,0:2:0:0:
78,179,33820,2,0,P|95:247|108:331,1,127.399996112061,10|10,0:2|0:2,0:2:0:0:
255,227,34337,1,2,0:2:0:0:
255,227,34509,2,0,P|211:158|149:170,1,127.399996112061,10|10,0:2|0:2,0:2:0:0:
27,54,35199,6,0,L|111:37,1,63.6999980560303,10|2,0:2|0:2,0:2:0:0:
198,70,35544,2,0,L|281:82,1,63.6999980560303,10|2,0:2|0:2,0:2:0:0:
415,27,35889,2,0,P|395:94|387:180,1,127.399996112061,10|10,0:2|0:2,0:2:0:0:
487,329,36578,6,0,P|446:325|410:317,1,63.6999980560303,8|2,0:2|0:2,0:2:0:0:
292,333,36923,2,0,P|251:336|208:348,1,63.6999980560303,8|2,0:2|0:2,0:2:0:0:
65,244,37268,2,0,P|138:224|185:278,1,127.399996112061,8|10,0:2|0:2,0:2:0:0:
175,253,37785,5,2,0:2:0:0:
230,341,37958,1,10,0:2:0:0:
230,341,38130,1,2,0:2:0:0:
303,259,38302,1,10,0:2:0:0:
303,259,38475,1,2,0:2:0:0:
385,360,38647,6,0,P|395:268|416:208,1,127.399996112061,10|10,0:2|0:2,0:2:0:0:
356,50,39337,2,0,P|301:39|250:107,1,127.399996112061,8|8,0:2|0:2,0:2:0:0:
165,220,39854,1,2,0:2:0:0:
165,220,40027,2,0,P|154:136|138:73,1,127.399996112061,8|10,0:2|0:2,0:2:0:0:
80,54,40544,5,2,0:2:0:0:
217,95,40716,2,0,L|294:80,1,63.6999980560303,10|2,0:2|0:2,0:2:0:0:
367,146,41061,2,0,L|449:157,1,63.6999980560303,10|2,0:2|0:2,0:2:0:0:
409,303,41406,6,0,P|331:331|290:283,1,127.399996112061,10|10,0:2|0:2,0:2:0:0:
208,175,41923,1,2,0:2:0:0:
208,175,42095,2,0,P|196:217|190:265,1,63.6999980560303,10|0,0:2|0:2,0:2:0:0:
89,350,42440,2,0,P|84:307|75:271,1,63.6999980560303,10|2,0:2|0:2,0:2:0:0:
106,151,42785,2,0,P|167:133|208:201,1,127.399996112061,10|10,0:2|0:2,0:2:0:0:
369,339,43475,6,0,P|325:327|284:323,1,68.250002603531,10|10,0:2|0:2,0:2:0:0:
406,234,43820,2,0,P|449:229|487:218,1,68.250002603531,10|10,0:2|0:2,0:2:0:0:
382,57,44164,6,0,P|311:50|273:111,1,136.500005207062,10|10,1:2|0:2,0:2:0:0:
197,223,44682,1,0,0:2:0:0:
197,223,44854,2,0,P|193:176|181:127,1,68.250002603531,8|0,0:2|1:2,0:2:0:0:
320,246,45199,1,8,0:2:0:0:
320,246,45371,1,2,0:2:0:0:
199,342,45544,6,0,P|111:338|88:272,1,136.500005207062,8|8,1:2|0:2,0:2:0:0:
181,221,46061,1,0,0:2:0:0:
64,115,46233,2,0,L|81:200,1,68.250002603531,10|2,0:2|1:2,0:2:0:0:
227,53,46578,2,0,L|208:142,1,68.250002603531,10|2,0:2|0:2,0:2:0:0:
428,61,46923,6,0,P|358:53|316:111,1,136.500005207062,10|10,1:2|0:2,0:2:0:0:
318,98,47440,1,2,0:2:0:0:
398,214,47613,1,8,0:2:0:0:
398,214,47785,1,2,1:2:0:0:
444,92,47958,1,8,0:2:0:0:
444,92,48130,1,2,0:2:0:0:
302,206,48302,6,0,P|322:283|333:364,1,136.500005207062,8|8,1:2|0:2,0:2:0:0:
330,339,48820,1,2,0:2:0:0:
206,252,48992,1,10,0:2:0:0:
206,252,49164,1,2,1:2:0:0:
94,361,49337,1,10,0:2:0:0:
94,361,49509,1,2,0:2:0:0:
11,194,49682,6,0,L|98:174,1,68.250002603531,10|0,1:2|0:2,0:2:0:0:
206,252,50027,2,0,L|296:267,1,68.250002603531,10|2,0:2|0:2,0:2:0:0:
467,203,50371,6,0,L|451:297,1,68.250002603531,8|2,0:2|0:2,0:2:0:0:
357,153,50716,2,0,L|342:73,1,68.250002603531,8|2,0:2|0:2,0:2:0:0:
117,207,51061,6,0,L|213:188,1,68.250002603531,8|2,0:2|0:2,0:2:0:0:
319,288,51406,2,0,L|238:276,1,68.250002603531,8|2,0:2|0:2,0:2:0:0:
123,356,51751,5,10,0:2:0:0:
252,278,51923,1,2,0:2:0:0:
117,207,52095,1,10,0:2:0:0:
268,121,52268,1,2,0:2:0:0:
92,20,52440,6,0,L|110:113,1,68.250002603531,10|2,0:2|0:2,0:2:0:0:
268,121,52785,2,0,L|248:218,1,68.250002603531,10|2,0:2|0:2,0:2:0:0:
404,337,53130,6,0,P|445:323|481:323,1,68.250002603531,10|2,0:2|0:2,0:2:0:0:
396,204,53475,2,0,P|355:190|315:188,1,68.250002603531,10|2,0:2|0:2,0:2:0:0:
75,36,53820,6,0,L|93:129,1,68.250002603531,10|0,0:2|0:2,0:2:0:0:
113,222,54164,1,10,0:2:0:0:
113,222,54337,1,2,0:2:0:0:
261,158,54509,2,8,L|245:252,1,68.250002603531,10|0,0:2|0:2,0:2:0:0:
233,333,54853,1,10,0:2:0:0:
233,333,55026,1,0,0:2:0:0:
496,67,55199,6,0,P|429:44|375:116,1,163.799995001221,2|0,1:2|0:2,0:2:0:0:
418,168,55544,2,0,P|405:222|396:282,1,109.199996667481,10|0,1:2|0:2,0:2:0:0:
289,352,55889,2,0,P|281:298|268:245,1,109.199996667481,2|0,0:2|1:2,0:2:0:0:
63,335,56233,1,10,1:2:0:0:
269,245,56406,1,2,0:2:0:0:
63,105,56578,6,0,P|19:168|65:233,1,163.799995001221,2|0,1:2|0:2,0:2:0:0:
134,206,56923,2,0,P|186:184|255:177,1,109.199996667481,10|0,1:2|0:2,0:2:0:0:
354,116,57268,2,0,P|406:138|475:145,1,109.199996667481,2|0,0:2|1:2,0:2:0:0:
297,308,57613,1,10,1:2:0:0:
457,145,57785,1,2,0:2:0:0:
265,29,57958,6,0,P|213:83|273:170,1,163.799995001221,2|0,1:2|0:2,0:2:0:0:
307,196,58302,2,0,P|293:255|288:316,1,109.199996667481,10|0,0:2|0:2,0:2:0:0:
49,326,58647,5,2,0:2:0:0:
240,171,58820,1,2,1:2:0:0:
0,94,58992,1,10,0:2:0:0:
220,192,59164,1,2,0:2:0:0:
29,351,59337,6,0,P|82:334|149:326,1,109.199996667481,2|0,1:2|0:2,0:2:0:0:
320,297,59682,1,10,1:2:0:0:
141,158,59854,1,2,0:2:0:0:
332,81,60027,2,0,P|318:127|312:202,1,109.199996667481,2|0,0:2|1:2,0:2:0:0:
406,371,60371,1,10,0:2:0:0:
495,132,60544,1,2,0:2:0:0:
301,317,60716,6,0,P|217:340|164:262,1,163.799995001221,2|0,1:2|0:2,0:2:0:0:
174,215,61061,2,0,P|168:160|153:108,1,109.199996667481,10|0,1:2|0:2,0:2:0:0:
319,37,61406,2,0,P|303:89|298:143,1,109.199996667481,2|0,0:2|1:2,0:2:0:0:
452,326,61751,1,10,1:2:0:0:
298,170,61923,1,2,0:2:0:0:
474,65,62095,6,0,B|524:46|524:46|506:179,1,163.799995001221,0|0,1:0|0:0,0:0:0:0:
498,244,62440,2,0,P|446:222|377:215,1,109.199996667481,10|0,1:2|0:2,0:2:0:0:
266,313,62785,2,0,P|214:335|145:342,1,109.199996667481,2|0,0:2|1:2,0:2:0:0:
0,202,63130,1,10,1:2:0:0:
152,340,63302,1,2,0:2:0:0:
283,90,63475,6,0,P|210:79|155:169,1,163.799995001221,2|0,1:2|0:2,0:2:0:0:
174,220,63820,2,0,P|226:198|295:191,1,109.199996667481,10|0,1:2|0:2,0:2:0:0:
512,99,64164,5,2,0:2:0:0:
380,309,64337,1,2,1:2:0:0:
283,90,64509,1,10,0:2:0:0:
376,333,64682,1,2,0:2:0:0:
488,143,64854,6,0,P|476:194|468:259,1,109.199996667481,2|0,1:2|0:2,0:2:0:0:
281,89,65199,1,10,0:2:0:0:
468,250,65371,1,2,0:2:0:0:
245,303,65544,1,2,1:2:0:0:
396,95,65716,1,8,1:2:0:0:
396,95,65802,1,10,1:2:0:0:
396,95,65889,1,10,1:2:0:0:
358,338,66061,1,2,1:2:0:0:
236,174,66233,6,0,P|157:156|111:229,1,163.799995001221,2|0,1:2|0:2,0:2:0:0:
75,275,66578,2,0,P|65:212|48:144,1,109.199996667481,10|2,1:2|0:2,0:2:0:0:
51,150,66837,1,2,1:2:0:0:
47,134,66923,1,2,1:2:0:0:
306,97,67095,1,0,1:2:0:0:
179,324,67268,1,10,1:2:0:0:
115,82,67440,1,2,0:2:0:0:
262,284,67613,6,0,P|341:302|387:229,1,163.799995001221,2|0,1:2|0:2,0:2:0:0:
406,172,67958,2,0,P|416:109|433:41,1,109.199996667481,10|2,1:2|0:2,0:2:0:0:
432,45,68217,1,2,1:2:0:0:
436,29,68303,1,2,1:2:0:0:
247,125,68475,1,0,1:2:0:0:
420,300,68647,1,10,0:2:0:0:
333,67,68820,1,2,0:2:0:0:
270,303,68992,6,0,P|191:321|145:248,1,163.799995001221,2|0,1:2|0:2,0:2:0:0:
82,203,69337,2,0,P|95:251|106:328,1,109.199996667481,10|2,0:2|1:2,0:2:0:0:
107,336,69595,1,2,1:2:0:0:
109,357,69682,5,2,1:2:0:0:
301,215,69854,1,2,1:2:0:0:
84,127,70027,1,10,0:2:0:0:
199,356,70199,1,2,0:2:0:0:
320,108,70371,6,0,P|308:154|301:224,1,109.199996667481,2|0,1:2|0:2,0:2:0:0:
362,328,70716,1,10,0:2:0:0:
184,159,70889,1,2,1:2:0:0:
184,159,70975,1,2,1:2:0:0:
184,159,71061,1,2,1:2:0:0:
428,136,71233,1,2,1:2:0:0:
264,300,71406,1,10,0:2:0:0:
322,109,71578,1,2,1:2:0:0:
444,363,71751,6,0,P|448:321|460:278,1,68.250002603531,2|0,1:2|0:2,0:2:0:0:
483,221,72095,1,2,0:2:0:0:
332,176,72440,2,0,P|328:134|315:91,1,68.250002603531,2|0,1:2|0:2,0:2:0:0:
300,32,72784,1,2,0:2:0:0:
484,34,73130,6,0,P|475:62|468:115,1,68.250002603531,2|0,1:2|0:2,0:2:0:0:
467,180,73475,1,2,0:2:0:0:
469,332,73820,2,0,P|432:324|393:320,1,68.250002603531,2|0,1:2|0:2,0:2:0:0:
331,346,74164,1,2,0:2:0:0:
244,266,74509,6,0,L|160:283,1,68.250002603531,2|0,1:2|0:2,0:2:0:0:
101,350,74854,2,0,L|17:332,1,68.250002603531,2|0,0:2|0:2,0:2:0:0:
16,124,75199,6,0,L|99:141,1,68.250002603531,2|0,1:2|0:2,0:2:0:0:
159,208,75544,2,0,L|242:190,1,68.250002603531,2|0,0:2|0:2,0:2:0:0:
322,34,75889,5,2,1:2:0:0:
320,39,76233,5,10,0:2:0:0:
162,177,76406,1,2,1:2:0:0:
477,258,76578,5,10,0:2:0:0:
319,120,76751,1,2,1:2:0:0:
155,328,76923,5,10,0:2:0:0:
315,207,77096,1,2,1:2:0:0:
169,89,77268,6,0,P|98:72|43:158,1,163.799995001221,0|0,1:2|0:2,0:2:0:0:
43,162,77613,1,10,0:2:0:0:
155,328,77785,1,2,1:2:0:0:
155,328,77871,1,2,1:2:0:0:
155,328,77958,1,2,1:2:0:0:
332,179,78130,1,2,1:2:0:0:
130,170,78302,1,10,1:2:0:0:
265,301,78475,1,2,0:2:0:0:
360,17,78647,6,0,P|345:91|331:184,1,163.799995001221,2|0,1:2|0:2,0:2:0:0:
328,204,78992,1,10,0:2:0:0:
472,333,79164,1,2,1:2:0:0:
472,333,79251,1,2,1:2:0:0:
472,333,79337,1,2,1:2:0:0:
244,286,79509,1,0,1:2:0:0:
460,156,79682,5,10,1:2:0:0:
342,339,79854,1,2,0:2:0:0:
263,141,80027,1,2,1:2:0:0:
399,231,80199,1,2,0:2:0:0:
219,302,80371,2,0,P|165:293|100:285,1,109.199996667481,8|0,1:2|1:2,0:2:0:0:
93,284,80630,1,2,1:2:0:0:
79,285,80716,5,2,1:2:0:0:
229,151,80889,1,2,1:2:0:0:
321,298,81061,1,10,1:2:0:0:
416,136,81233,1,2,0:2:0:0:
459,364,81406,6,0,P|472:265|490:189,1,163.799995001221,0|0,1:2|0:2,0:2:0:0:
493,175,81751,1,8,0:2:0:0:
276,231,81923,1,2,1:2:0:0:
276,231,82009,1,2,1:2:0:0:
276,231,82095,1,2,1:2:0:0:
421,107,82268,1,2,1:2:0:0:
358,310,82440,1,8,1:2:0:0:
216,134,82613,1,0,0:2:0:0:
49,355,82785,6,0,P|122:338|219:321,1,163.799995001221,2|0,1:2|0:2,0:2:0:0:
236,319,83130,1,8,1:2:0:0:
347,124,83302,1,2,1:2:0:0:
347,124,83389,1,2,1:2:0:0:
347,124,83475,1,2,1:2:0:0:
398,317,83647,1,2,1:2:0:0:
232,150,83820,1,8,1:2:0:0:
451,206,83992,1,2,0:2:0:0:
286,313,84164,6,0,P|211:327|178:217,1,163.799995001221,2|0,1:2|0:2,0:2:0:0:
160,235,84509,1,8,1:2:0:0:
275,62,84682,1,2,1:2:0:0:
275,62,84768,1,2,1:2:0:0:
275,62,84854,1,2,1:2:0:0:
377,224,85027,1,0,1:2:0:0:
184,138,85199,5,8,1:2:0:0:
417,120,85371,1,2,0:2:0:0:
304,288,85544,1,2,1:2:0:0:
427,96,85716,1,2,0:2:0:0:
473,346,85889,2,0,P|481:283|497:221,1,109.199996667481,10|0,1:2|1:2,0:2:0:0:
497,218,86147,1,2,1:2:0:0:
503,202,86233,5,2,1:2:0:0:
275,144,86406,1,2,1:2:0:0:
362,325,86578,1,8,1:2:0:0:
430,125,86751,1,2,0:2:0:0:
247,332,86923,6,0,P|174:333|141:249,1,163.799995001221,2|0,1:2|0:2,0:2:0:0:
143,229,87268,1,8,1:2:0:0:
265,111,87440,1,2,1:2:0:0:
265,111,87527,1,2,1:2:0:0:
265,111,87613,1,2,1:2:0:0:
471,188,87785,5,10,1:2:0:0:
471,188,87871,1,10,1:2:0:0:
471,188,87958,2,0,P|460:213|452:262,1,54.5999983337403,10|0,1:2|0:2,0:2:0:0:
320,322,88130,2,0,P|313:295|303:270,1,54.5999983337403,10|0,1:2|0:2,0:2:0:0:
160,60,88302,6,0,P|91:63|48:148,1,163.799995001221,2|0,1:2|0:2,0:2:0:0:
52,174,88647,1,8,0:2:0:0:
181,337,88820,1,2,1:2:0:0:
181,337,88906,1,2,1:2:0:0:
181,337,88992,2,0,P|189:275|202:213,1,109.199996667481,2|2,1:2|1:2,0:2:0:0:
273,57,89337,1,10,1:2:0:0:
351,237,89509,1,2,0:2:0:0:
488,42,89682,6,0,P|471:110|457:213,1,163.799995001221,2|0,1:2|0:2,0:2:0:0:
455,235,90027,1,8,0:2:0:0:
258,146,90199,1,2,1:2:0:0:
258,146,90285,1,2,1:2:0:0:
258,146,90371,2,0,P|302:101|363:109,1,109.199996667481,2|2,1:2|1:2,0:2:0:0:
184,296,90716,1,10,1:2:0:0:
109,119,90889,1,2,0:2:0:0:
312,207,91061,5,2,1:2:0:0:
81,254,91233,1,0,0:2:0:0:
221,102,91406,1,10,1:2:0:0:
202,329,91578,1,2,1:2:0:0:
202,329,91664,1,2,1:2:0:0:
202,329,91751,2,0,P|193:259|180:220,1,109.199996667481,2|0,1:2|1:2,0:2:0:0:
367,118,92095,1,8,1:2:0:0:
180,222,92268,1,2,0:2:0:0:
375,334,92440,6,0,P|450:303|438:220,1,163.799995001221,2|0,1:2|0:2,0:2:0:0:
437,207,92785,1,10,0:2:0:0:
231,153,92958,1,2,1:2:0:0:
231,153,93044,1,2,1:2:0:0:
231,153,93130,1,2,1:2:0:0:
264,350,93302,1,2,1:2:0:0:
381,131,93475,1,10,1:2:0:0:
207,253,93647,1,2,0:2:0:0:
368,347,93820,6,0,L|376:265,2,72.8,2|2|2,0:2|0:2|0:2,0:2:0:0:
442,224,94337,2,0,P|385:190|313:218,1,145.6,2|2,0:2|0:2,0:2:0:0:
260,318,94854,1,2,0:2:0:0:
260,318,95027,1,2,0:2:0:0:
122,220,95199,6,0,L|130:302,2,72.8,2|2|2,0:2|0:2|0:2,0:2:0:0:
55,168,95716,2,0,P|112:134|184:162,1,145.6,2|2,0:2|0:2,0:2:0:0:
270,248,96233,2,0,L|278:166,1,72.8,2|2,0:0|0:0,0:0:0:0:
382,63,96578,6,0,L|450:72,2,54.5999983337403,2|2|2,0:0|0:0|0:0,0:0:0:0:
351,137,97095,2,0,P|309:103|301:44,1,109.199996667481,2|2,0:0|0:0,0:0:0:0:
218,128,97613,1,2,0:2:0:0:
218,128,97785,1,2,0:2:0:0:
111,46,97958,6,0,L|120:93,3,36.4,2|2|2|2,0:0|0:0|0:0|0:0,0:0:0:0:
45,118,98647,2,0,L|35:165,3,36.4,2|2|2|2,0:0|0:0|0:0|0:0,0:0:0:0:
116,221,99337,5,2,1:2:0:0:
