osu file format v14

[General]
AudioFilename: Sub Focus - Tidal Wave ft. Alpines.mp3
AudioLeadIn: 0
PreviewTime: -1
Countdown: 1
SampleSet: Normal
StackLeniency: 0.7
Mode: 0
LetterboxInBreaks: 0
WidescreenStoryboard: 0

[Editor]
DistanceSpacing: 1
BeatDivisor: 4
GridSize: 32
TimelineZoom: 1

[Metadata]
Title:Tidal Wave (ft. Alpines)
TitleUnicode:Tidal Wave (ft. Alpines)
Artist:Sub Focus
ArtistUnicode:Sub Focus
Creator:- Mika -
Version:Wave
Source:
Tags:drum and bass collab grumd ryuu gero -kevincela- kenterz
BeatmapID:825122
BeatmapSetID:376961

[Difficulty]
HPDrainRate:5
CircleSize:4
OverallDifficulty:5
ApproachRate:9.3
SliderMultiplier:1.4
SliderTickRate:1

[Events]
//Background and Video events
0,0,"menu-background.jpg",0,0
//Break Periods
2,110842,121122
2,132910,143018
//Storyboard Layer 0 (Background)
//Storyboard Layer 1 (Fail)
//Storyboard Layer 2 (Pass)
//Storyboard Layer 3 (Foreground)
//Storyboard Sound Samples

[TimingPoints]
644.222996908836,344.820809248554,4,1,0,100,1,0

[HitObjects]
96,288,66504,5,0,0:0:0:0:
416,160,66677,5,0,0:0:0:0:
96,96,66849,5,0,0:0:0:0:
256,320,67022,5,0,0:0:0:0:
320,64,67194,5,0,0:0:0:0:
128,288,67367,5,0,0:0:0:0:
448,160,67539,5,0,0:0:0:0:
128,96,67711,5,0,0:0:0:0:
288,320,67884,5,0,0:0:0:0:
352,64,68056,5,0,0:0:0:0:
64,320,68229,5,0,0:0:0:0:
384,192,68401,5,0,0:0:0:0:
64,128,68573,5,0,0:0:0:0:
224,352,68746,5,0,0:0:0:0:
288,96,68918,5,0,0:0:0:0:
160,288,69091,5,0,0:0:0:0:
480,160,69263,5,0,0:0:0:0:
160,96,69435,5,0,0:0:0:0:
320,320,69608,5,0,0:0:0:0:
384,64,69780,5,0,0:0:0:0:
96,288,69953,5,0,0:0:0:0:
384,128,70125,5,0,0:0:0:0:
64,64,70298,5,0,0:0:0:0:
224,288,70470,5,0,0:0:0:0:
288,32,70642,5,0,0:0:0:0:
96,288,70815,5,0,0:0:0:0:
352,192,70987,5,0,0:0:0:0:
32,128,71160,5,0,0:0:0:0:
192,352,71332,5,0,0:0:0:0:
256,96,71504,5,0,0:0:0:0:
352,192,71677,5,0,0:0:0:0:
224,64,71849,5,0,0:0:0:0:
384,288,72022,5,0,0:0:0:0:
448,32,72194,5,0,0:0:0:0:
320,256,72366,5,0,0:0:0:0:
128,64,72539,5,0,0:0:0:0:
160,320,72711,5,0,0:0:0:0:
416,128,72884,5,0,0:0:0:0:
256,224,73056,5,0,0:0:0:0:
64,32,73229,5,0,0:0:0:0:
96,288,73401,5,0,0:0:0:0:
256,288,73573,5,0,0:0:0:0:
128,192,73746,5,0,0:0:0:0:
416,256,73918,5,0,0:0:0:0:
256,32,74091,5,0,0:0:0:0:
224,224,74263,5,0,0:0:0:0:
128,32,74435,5,0,0:0:0:0:
384,256,74608,5,0,0:0:0:0:
32,128,74780,5,0,0:0:0:0:
288,288,74953,5,0,0:0:0:0:
224,64,75125,5,0,0:0:0:0:
128,320,75297,5,0,0:0:0:0:
480,320,75470,5,0,0:0:0:0:
384,320,75642,5,0,0:0:0:0:
64,32,75815,5,0,0:0:0:0:
416,320,75987,5,0,0:0:0:0:
32,320,76159,5,0,0:0:0:0:
448,64,76332,5,0,0:0:0:0:
256,32,76504,5,0,0:0:0:0:
256,320,76677,5,0,0:0:0:0:
256,32,76849,5,0,0:0:0:0:
256,320,77022,5,0,0:0:0:0:
64,192,77194,5,0,0:0:0:0:
448,192,77366,5,0,0:0:0:0:
64,192,77539,5,0,0:0:0:0:
448,192,77711,5,0,0:0:0:0:
448,64,77884,5,0,0:0:0:0:
192,320,78056,5,0,0:0:0:0:
256,32,78228,5,0,0:0:0:0:
32,224,78401,5,0,0:0:0:0:
96,288,78573,5,0,0:0:0:0:
416,160,78746,5,0,0:0:0:0:
96,96,78918,5,0,0:0:0:0:
256,320,79090,5,0,0:0:0:0:
320,64,79263,5,0,0:0:0:0:
320,288,79435,5,0,0:0:0:0:
160,288,79608,5,0,0:0:0:0:
160,64,79780,5,0,0:0:0:0:
320,64,79953,5,0,0:0:0:0:
320,288,80125,5,0,0:0:0:0:
160,288,80297,5,0,0:0:0:0:
160,64,80470,5,0,0:0:0:0:
448,192,80642,5,0,0:0:0:0:
64,192,80815,5,0,0:0:0:0:
448,192,80987,5,0,0:0:0:0:
64,192,81159,5,0,0:0:0:0:
256,32,81332,5,0,0:0:0:0:
256,320,81504,5,0,0:0:0:0:
256,32,81677,5,0,0:0:0:0:
256,320,81849,5,0,0:0:0:0:
96,288,82021,5,0,0:0:0:0:
416,160,82194,5,0,0:0:0:0:
96,96,82366,5,0,0:0:0:0:
256,320,82539,5,0,0:0:0:0:
96,224,82711,5,0,0:0:0:0:
416,96,82883,5,0,0:0:0:0:
96,32,83056,5,0,0:0:0:0:
384,320,83228,5,0,0:0:0:0:
352,32,83401,5,0,0:0:0:0:
160,288,83573,5,0,0:0:0:0:
128,64,83746,5,0,0:0:0:0:
352,320,83918,5,0,0:0:0:0:
320,64,84090,5,0,0:0:0:0:
160,320,84262,5,0,0:0:0:0:
384,64,84435,5,0,0:0:0:0:
384,320,84607,5,0,0:0:0:0:
192,64,84780,5,0,0:0:0:0:
416,288,84952,5,0,0:0:0:0:
128,32,85125,5,0,0:0:0:0:
128,288,85297,5,0,0:0:0:0:
160,96,85470,5,0,0:0:0:0:
352,96,85642,5,0,0:0:0:0:
352,288,85815,5,0,0:0:0:0:
160,288,85987,5,0,0:0:0:0:
64,64,86160,5,0,0:0:0:0:
448,160,86332,5,0,0:0:0:0:
64,256,86505,5,0,0:0:0:0:
448,320,86677,5,0,0:0:0:0:
64,256,86849,5,0,0:0:0:0:
448,160,87022,5,0,0:0:0:0:
64,64,87194,5,0,0:0:0:0:
128,224,87366,5,0,0:0:0:0:
256,352,87883,1,0,0:0:0:0:
256,256,88056,1,0,0:0:0:0:
256,160,88228,1,0,0:0:0:0:
256,64,88401,1,0,0:0:0:0:
96,128,88573,2,0,P|160:224|192:224,1,140
448,320,89263,5,0,0:0:0:0:
64,256,89435,5,0,0:0:0:0:
448,160,89608,5,0,0:0:0:0:
64,64,89780,5,0,0:0:0:0:
96,128,89952,2,0,P|160:224|192:224,1,140
416,96,90470,5,0,0:0:0:0:
96,288,90642,5,0,0:0:0:0:
192,224,90814,5,0,0:0:0:0:
288,224,90987,2,0,P|352:320|384:320,1,140
128,64,91504,2,0,P|192:160|224:160,1,140
448,224,92021,2,0,P|448:128|416:128,1,140
448,320,92538,5,0,0:0:0:0:
64,256,92710,5,0,0:0:0:0:
448,160,92883,5,0,0:0:0:0:
64,64,93055,5,0,0:0:0:0:
448,320,93228,5,0,0:0:0:0:
64,256,93400,5,0,0:0:0:0:
448,160,93573,5,0,0:0:0:0:
64,64,93745,5,0,0:0:0:0:
448,224,93918,2,0,P|448:128|416:128,2,140
96,288,94779,5,0,0:0:0:0:
320,192,94952,5,0,0:0:0:0:
448,224,95125,2,0,P|448:128|416:128,1,140
128,64,95642,5,0,0:0:0:0:
384,288,95815,5,0,0:0:0:0:
320,64,95987,5,0,0:0:0:0:
128,320,96160,5,0,0:0:0:0:
448,224,96504,2,0,P|448:128|416:64,2,140
160,160,97538,5,0,0:0:0:0:
160,160,97711,5,0,0:0:0:0:
160,160,97883,5,0,0:0:0:0:
160,160,98056,5,0,0:0:0:0:
384,64,98228,5,0,0:0:0:0:
96,320,98400,5,0,0:0:0:0:
256,32,98745,5,0,0:0:0:0:
448,160,98918,5,0,0:0:0:0:
64,160,99262,5,0,0:0:0:0:
192,160,99435,5,0,0:0:0:0:
320,160,99607,5,0,0:0:0:0:
448,160,99780,5,0,0:0:0:0:
96,288,99952,5,0,0:0:0:0:
352,288,100125,5,0,0:0:0:0:
448,224,100297,2,0,P|448:128|416:128,1,140
224,64,100987,5,0,0:0:0:0:
32,288,101159,2,0,P|96:288|192:256,1,140
384,192,101676,5,0,0:0:0:0:
384,64,102021,2,0,B|224:64|128:96|64:192,1,350
96,288,103056,5,0,0:0:0:0:
416,160,103229,5,0,0:0:0:0:
96,96,103401,5,0,0:0:0:0:
256,320,103574,5,0,0:0:0:0:
128,224,103745,5,0,0:0:0:0:
448,96,103918,5,0,0:0:0:0:
128,32,104090,5,0,0:0:0:0:
288,256,104263,5,0,0:0:0:0:
448,96,104435,5,0,0:0:0:0:
128,32,104607,5,0,0:0:0:0:
288,256,104780,5,0,0:0:0:0:
96,224,104952,2,0,B|192:288|192:288|384:256,1,280
96,288,105814,5,0,0:0:0:0:
416,160,105987,5,0,0:0:0:0:
96,96,106159,5,0,0:0:0:0:
320,256,106332,5,0,0:0:0:0:
192,32,106504,5,0,0:0:0:0:
480,192,106677,5,0,0:0:0:0:
96,256,106849,5,0,0:0:0:0:
256,192,107022,5,0,0:0:0:0:
256,192,107193,5,0,0:0:0:0:
256,192,107366,5,0,0:0:0:0:
256,192,107538,5,0,0:0:0:0:
256,192,107711,5,0,0:0:0:0:
448,64,107883,2,0,P|352:64|256:128,1,210
96,224,108573,1,0,0:0:0:0:
384,128,108745,1,0,0:0:0:0:
256,32,108917,1,0,0:0:0:0:
256,320,109262,1,0,0:0:0:0:
192,160,109607,2,0,L|352:160,1,140
256,160,110297,1,0,0:0:0:0:
256,160,110642,1,0,0:0:0:0:
448,192,121676,6,0,L|352:224,1,70
64,192,122021,2,0,L|128:224,1,70
256,32,122365,2,0,L|256:192,1,140
448,256,123055,2,0,L|352:128,1,140
64,224,123572,6,0,L|192:32,1,210
256,192,124434,1,0,0:0:0:0:
384,256,125469,2,0,P|320:288|256:256,1,140
96,128,126158,1,0,0:0:0:0:
288,96,126503,2,0,B|384:128|416:192|416:192,1,140
224,288,127193,1,0,0:0:0:0:
188,297,127365,1,0,0:0:0:0:
152,291,127538,1,0,0:0:0:0:
121,272,127710,1,0,0:0:0:0:
101,242,127883,1,0,0:0:0:0:
96,224,128055,1,0,0:0:0:0:
96,192,128227,1,0,0:0:0:0:
256,96,128572,1,0,0:0:0:0:
256,288,129262,1,0,0:0:0:0:
64,64,129607,2,0,L|160:64,1,70
448,128,129952,2,0,L|352:128,1,70
32,224,130296,6,0,L|128:224,1,70
448,288,130641,2,0,L|288:288,1,140
96,224,131331,1,0,0:0:0:0:
288,96,132020,1,0,0:0:0:0:
256,192,132710,1,0,0:0:0:0:
128,192,143572,5,0,0:0:0:0:
128,192,143658,1,0,0:0:0:0:
128,192,143744,1,0,0:0:0:0:
384,256,144089,2,0,P|288:288|224:288,1,140
96,160,144779,1,0,0:0:0:0:
96,160,144951,1,0,0:0:0:0:
96,160,145124,1,0,0:0:0:0:
96,160,145296,1,0,0:0:0:0:
96,160,145468,1,0,0:0:0:0:
256,96,145727,2,0,P|352:96|384:160,1,175
128,192,146331,5,0,0:0:0:0:
128,192,146417,1,0,0:0:0:0:
128,192,146503,1,0,0:0:0:0:
288,96,146675,1,0,0:0:0:0:
288,96,146848,1,0,0:0:0:0:
416,160,147193,2,0,B|448:224|384:320|224:320,1,280
128,192,148400,5,0,0:0:0:0:
128,192,148486,1,0,0:0:0:0:
128,192,148572,1,0,0:0:0:0:
224,96,148917,5,0,0:0:0:0:
320,160,149089,5,0,0:0:0:0:
416,288,149261,5,0,0:0:0:0:
64,288,149434,5,0,0:0:0:0:
65,255,149520,5,0,0:0:0:0:
69,223,149606,5,0,0:0:0:0:
78,192,149692,5,0,0:0:0:0:
94,163,149778,5,0,0:0:0:0:
117,141,149865,5,0,0:0:0:0:
145,124,149951,5,0,0:0:0:0:
176,113,150037,5,0,0:0:0:0:
207,106,150123,5,0,0:0:0:0:
240,104,150209,5,0,0:0:0:0:
272,106,150296,5,0,0:0:0:0:
304,112,150382,5,0,0:0:0:0:
335,123,150468,5,0,0:0:0:0:
363,139,150554,5,0,0:0:0:0:
387,162,150640,5,0,0:0:0:0:
404,189,150727,5,0,0:0:0:0:
413,220,150813,5,0,0:0:0:0:
416,256,150899,5,0,0:0:0:0:
394,283,150985,5,0,0:0:0:0:
364,300,151071,5,0,0:0:0:0:
330,308,151157,5,0,0:0:0:0:
295,309,151243,5,0,0:0:0:0:
261,304,151330,5,0,0:0:0:0:
227,295,151416,5,0,0:0:0:0:
196,279,151502,5,0,0:0:0:0:
169,256,151588,5,0,0:0:0:0:
147,229,151674,5,0,0:0:0:0:
130,199,151761,5,0,0:0:0:0:
116,166,151847,5,0,0:0:0:0:
106,133,151933,5,0,0:0:0:0:
96,99,152019,5,0,0:0:0:0:
288,64,152192,1,0,0:0:0:0:
416,224,152365,1,0,0:0:0:0:
224,320,152537,1,0,0:0:0:0:
128,160,152710,1,0,0:0:0:0:
256,64,152882,1,0,0:0:0:0:
256,192,153055,1,0,0:0:0:0:
256,192,153227,1,0,0:0:0:0:
256,32,153571,5,0,0:0:0:0:
384,256,153744,5,0,0:0:0:0:
96,128,153916,5,0,0:0:0:0:
384,160,154089,5,0,0:0:0:0:
224,288,154261,5,0,0:0:0:0:
288,64,154434,5,0,0:0:0:0:
384,288,154607,5,0,0:0:0:0:
96,96,154779,5,0,0:0:0:0:
384,128,154952,5,0,0:0:0:0:
256,320,155123,5,0,0:0:0:0:
320,96,155295,5,0,0:0:0:0:
352,320,155468,5,0,0:0:0:0:
128,64,155640,5,0,0:0:0:0:
416,160,155813,5,0,0:0:0:0:
192,64,155985,5,0,0:0:0:0:
448,224,156158,5,0,0:0:0:0:
192,288,156330,5,0,0:0:0:0:
320,32,156503,5,0,0:0:0:0:
96,160,156675,5,0,0:0:0:0:
256,32,156848,5,0,0:0:0:0:
160,320,157021,5,0,0:0:0:0:
416,128,157192,5,0,0:0:0:0:
96,128,157365,5,0,0:0:0:0:
352,320,157537,5,0,0:0:0:0:
256,32,157710,5,0,0:0:0:0:
160,320,157883,5,0,0:0:0:0:
416,128,158054,5,0,0:0:0:0:
96,128,158227,5,0,0:0:0:0:
352,320,158399,5,0,0:0:0:0:
256,32,158572,5,0,0:0:0:0:
160,320,158745,5,0,0:0:0:0:
416,128,158916,5,0,0:0:0:0:
96,128,159089,5,0,0:0:0:0:
352,320,159261,5,0,0:0:0:0:
256,32,159434,5,0,0:0:0:0:
160,320,159607,5,0,0:0:0:0:
416,128,159778,5,0,0:0:0:0:
96,128,159951,5,0,0:0:0:0:
352,320,160123,5,0,0:0:0:0:
256,32,160296,5,0,0:0:0:0:
160,320,160469,5,0,0:0:0:0:
416,128,160640,5,0,0:0:0:0:
96,128,160813,5,0,0:0:0:0:
352,320,160985,5,0,0:0:0:0:
256,0,161158,5,0,0:0:0:0:
128,352,161330,5,0,0:0:0:0:
448,96,161502,5,0,0:0:0:0:
64,96,161675,5,0,0:0:0:0:
384,352,161847,5,0,0:0:0:0:
256,0,162020,5,0,0:0:0:0:
128,352,162192,5,0,0:0:0:0:
448,96,162364,5,0,0:0:0:0:
64,96,162537,5,0,0:0:0:0:
384,352,162709,5,0,0:0:0:0:
256,0,162883,5,0,0:0:0:0:
128,352,163055,5,0,0:0:0:0:
448,96,163227,5,0,0:0:0:0:
64,96,163400,5,0,0:0:0:0:
384,352,163572,5,0,0:0:0:0:
256,32,163744,5,0,0:0:0:0:
160,320,163916,5,0,0:0:0:0:
416,128,164088,5,0,0:0:0:0:
96,128,164261,5,0,0:0:0:0:
352,320,164433,5,0,0:0:0:0:
256,64,164606,5,0,0:0:0:0:
192,288,164778,5,0,0:0:0:0:
384,160,164950,5,0,0:0:0:0:
128,160,165123,5,0,0:0:0:0:
320,288,165295,5,0,0:0:0:0:
256,96,165468,5,0,0:0:0:0:
224,256,165640,5,0,0:0:0:0:
352,160,165812,5,0,0:0:0:0:
160,160,165985,5,0,0:0:0:0:
288,256,166157,5,0,0:0:0:0:
256,96,166331,5,0,0:0:0:0:
224,256,166503,5,0,0:0:0:0:
352,160,166675,5,0,0:0:0:0:
160,160,166848,5,0,0:0:0:0:
288,256,167020,5,0,0:0:0:0:
256,64,167193,5,0,0:0:0:0:
192,288,167365,5,0,0:0:0:0:
384,160,167537,5,0,0:0:0:0:
128,160,167710,5,0,0:0:0:0:
320,288,167882,5,0,0:0:0:0:
256,32,168055,5,0,0:0:0:0:
160,320,168227,5,0,0:0:0:0:
416,128,168399,5,0,0:0:0:0:
96,128,168572,5,0,0:0:0:0:
352,320,168744,5,0,0:0:0:0:
256,32,168917,5,0,0:0:0:0:
160,320,169089,5,0,0:0:0:0:
416,128,169261,5,0,0:0:0:0:
96,128,169434,5,0,0:0:0:0:
352,320,169606,5,0,0:0:0:0:
256,32,169779,5,0,0:0:0:0:
160,320,169951,5,0,0:0:0:0:
416,128,170123,5,0,0:0:0:0:
256,0,170296,5,0,0:0:0:0:
128,352,170468,5,0,0:0:0:0:
448,96,170640,5,0,0:0:0:0:
64,96,170813,5,0,0:0:0:0:
256,0,170985,5,0,0:0:0:0:
128,352,171157,5,0,0:0:0:0:
448,96,171329,5,0,0:0:0:0:
64,96,171502,5,0,0:0:0:0:
384,352,171674,5,0,0:0:0:0:
256,0,171848,5,0,0:0:0:0:
128,352,172020,5,0,0:0:0:0:
448,96,172192,5,0,0:0:0:0:
64,96,172365,5,0,0:0:0:0:
384,352,172537,5,0,0:0:0:0:
256,0,172709,5,0,0:0:0:0:
128,352,172881,5,0,0:0:0:0:
448,96,173053,5,0,0:0:0:0:
64,96,173226,5,0,0:0:0:0:
384,352,173398,5,0,0:0:0:0:
256,0,173571,5,0,0:0:0:0:
128,352,173743,5,0,0:0:0:0:
448,96,173915,5,0,0:0:0:0:
64,96,174088,5,0,0:0:0:0:
384,352,174260,5,0,0:0:0:0:
256,0,174434,5,0,0:0:0:0:
128,352,174606,5,0,0:0:0:0:
448,96,174778,5,0,0:0:0:0:
64,96,174951,5,0,0:0:0:0:
384,352,175123,5,0,0:0:0:0:
256,0,175296,5,0,0:0:0:0:
128,352,175468,5,0,0:0:0:0:
448,96,175640,5,0,0:0:0:0:
64,96,175813,5,0,0:0:0:0:
384,352,175985,5,0,0:0:0:0:
256,0,176158,5,0,0:0:0:0:
128,352,176330,5,0,0:0:0:0:
448,96,176502,5,0,0:0:0:0:
64,96,176675,5,0,0:0:0:0:
384,352,176847,5,0,0:0:0:0:
256,192,177020,1,0,0:0:0:0:
256,192,177192,1,0,0:0:0:0:
256,192,177364,1,0,0:0:0:0:
256,192,177537,1,0,0:0:0:0:
256,192,177709,1,0,0:0:0:0:
256,192,177882,1,0,0:0:0:0:
64,128,178226,6,0,B|96:64|160:64|192:64,1,140
352,96,178744,1,0,0:0:0:0:
384,256,178916,2,0,P|352:320|288:320,1,140
96,224,179433,1,0,0:0:0:0:
352,96,179606,1,0,0:0:0:0:
96,224,179778,1,0,0:0:0:0:
352,96,179951,5,0,0:0:0:0:
96,224,180123,1,0,0:0:0:0:
352,96,180295,1,0,0:0:0:0:
96,224,180468,1,0,0:0:0:0:
352,96,180640,1,0,0:0:0:0:
96,96,180813,1,0,0:0:0:0:
224,64,180985,2,0,P|320:32|352:64,1,140
384,256,181502,1,0,0:0:0:0:
160,288,181675,2,0,P|96:256|96:192,1,140
192,64,182192,5,0,0:0:0:0:
352,96,182364,2,0,P|416:128|448:192,1,140
256,320,182882,1,0,0:0:0:0:
128,288,183054,2,0,P|64:224|96:160,1,140
352,64,183571,1,0,0:0:0:0:
224,320,183744,1,0,0:0:0:0:
128,64,183916,1,0,0:0:0:0:
384,320,184088,1,0,0:0:0:0:
256,64,184261,1,0,0:0:0:0:
160,320,184433,1,0,0:0:0:0:
64,128,184606,1,0,0:0:0:0:
384,256,184778,1,0,0:0:0:0:
192,160,184950,1,0,0:0:0:0:
320,64,185123,2,0,P|416:96|416:128,1,140
384,288,185640,1,0,0:0:0:0:
224,288,185812,1,0,0:0:0:0:
96,288,185985,1,0,0:0:0:0:
96,128,186157,6,0,P|192:64|224:64,1,140
416,160,186675,1,0,0:0:0:0:
384,320,186847,2,0,B|256:352|224:320|224:320,1,140
256,192,187277,1,0,0:0:0:0:
256,192,187364,1,0,0:0:0:0:
256,192,187450,1,0,0:0:0:0:
256,192,187536,1,0,0:0:0:0:
256,192,187622,5,0,0:0:0:0:
256,192,187708,1,0,0:0:0:0:
256,192,187795,1,0,0:0:0:0:
256,192,187881,1,0,0:0:0:0:
128,128,188054,1,0,0:0:0:0:
128,128,188226,1,0,0:0:0:0:
256,64,188399,2,0,L|480:64,1,210
256,192,189088,1,0,0:0:0:0:
128,288,189261,2,0,P|64:256|64:192,1,140
192,64,189778,5,0,0:0:0:0:
352,96,189950,2,0,P|416:128|416:192,1,140
288,288,190468,1,0,0:0:0:0:
160,320,190640,2,0,P|96:256|128:224,1,140
224,64,191157,1,0,0:0:0:0:
480,288,191330,2,0,P|448:352|384:352,1,140
64,160,191847,1,0,0:0:0:0:
352,64,192019,2,0,P|448:96|448:128,1,140
288,288,192537,1,0,0:0:0:0:
96,288,192709,6,0,P|64:224|96:160,1,140
96,64,193226,1,0,0:0:0:0:
192,320,193399,1,0,0:0:0:0:
288,64,193571,1,0,0:0:0:0:
416,320,193743,1,0,0:0:0:0:
288,64,193916,1,0,0:0:0:0:
192,320,194088,1,0,0:0:0:0:
64,64,194261,1,0,0:0:0:0:
416,192,194433,1,0,0:0:0:0:
64,192,194605,1,0,0:0:0:0:
416,192,194778,5,0,0:0:0:0:
64,192,194950,1,0,0:0:0:0:
416,192,195123,1,0,0:0:0:0:
64,192,195295,1,0,0:0:0:0:
416,192,195467,1,0,0:0:0:0:
64,192,195640,1,0,0:0:0:0:
96,64,195812,1,0,0:0:0:0:
384,288,195985,1,0,0:0:0:0:
160,32,196157,1,0,0:0:0:0:
320,320,196330,1,0,0:0:0:0:
256,0,196502,1,0,0:0:0:0:
256,352,196674,5,0,0:0:0:0:
320,32,196847,1,0,0:0:0:0:
192,288,197019,1,0,0:0:0:0:
384,96,197192,1,0,0:0:0:0:
128,224,197364,1,0,0:0:0:0:
416,192,197536,1,0,0:0:0:0:
96,128,197709,1,0,0:0:0:0:
384,288,197881,1,0,0:0:0:0:
160,64,198054,1,0,0:0:0:0:
288,352,198226,1,0,0:0:0:0:
256,32,198398,1,0,0:0:0:0:
256,192,198571,1,0,0:0:0:0:
256,192,198743,1,0,0:0:0:0:
352,64,198916,5,0,0:0:0:0:
384,76,199002,5,0,0:0:0:0:
414,95,199088,5,0,0:0:0:0:
435,122,199174,5,0,0:0:0:0:
443,156,199260,5,0,0:0:0:0:
443,191,199347,5,0,0:0:0:0:
436,226,199433,5,0,0:0:0:0:
422,257,199519,5,0,0:0:0:0:
399,284,199605,5,0,0:0:0:0:
369,302,199691,5,0,0:0:0:0:
336,312,199778,5,0,0:0:0:0:
301,317,199864,5,0,0:0:0:0:
266,319,199950,5,0,0:0:0:0:
224,320,200036,5,0,0:0:0:0:
189,318,200122,5,0,0:0:0:0:
154,311,200208,5,0,0:0:0:0:
121,299,200294,5,0,0:0:0:0:
93,278,200380,5,0,0:0:0:0:
76,249,200467,5,0,0:0:0:0:
70,214,200553,5,0,0:0:0:0:
72,179,200639,5,0,0:0:0:0:
83,146,200725,5,0,0:0:0:0:
102,117,200811,5,0,0:0:0:0:
127,92,200898,5,0,0:0:0:0:
156,73,200984,5,0,0:0:0:0:
187,57,201070,5,0,0:0:0:0:
219,44,201156,5,0,0:0:0:0:
253,35,201242,5,0,0:0:0:0:
288,31,201329,5,0,0:0:0:0:
320,32,201416,5,0,0:0:0:0:
354,34,201502,5,0,0:0:0:0:
388,44,201588,5,0,0:0:0:0:
415,65,201674,5,0,0:0:0:0:
431,96,201760,5,0,0:0:0:0:
438,130,201847,5,0,0:0:0:0:
438,165,201933,5,0,0:0:0:0:
432,199,202019,5,0,0:0:0:0:
420,232,202105,5,0,0:0:0:0:
401,262,202191,5,0,0:0:0:0:
376,286,202278,5,0,0:0:0:0:
346,303,202364,5,0,0:0:0:0:
312,313,202450,5,0,0:0:0:0:
278,318,202536,5,0,0:0:0:0:
243,319,202622,5,0,0:0:0:0:
192,320,202709,5,0,0:0:0:0:
159,307,202795,5,0,0:0:0:0:
128,290,202881,5,0,0:0:0:0:
103,266,202967,5,0,0:0:0:0:
90,234,203053,5,0,0:0:0:0:
89,199,203140,5,0,0:0:0:0:
98,165,203226,5,0,0:0:0:0:
115,135,203312,5,0,0:0:0:0:
137,108,203398,5,0,0:0:0:0:
164,86,203484,5,0,0:0:0:0:
195,68,203571,5,0,0:0:0:0:
228,56,203657,5,0,0:0:0:0:
262,48,203743,5,0,0:0:0:0:
296,44,203829,5,0,0:0:0:0:
331,43,203915,5,0,0:0:0:0:
366,46,204002,5,0,0:0:0:0:
400,53,204088,5,0,0:0:0:0:
434,62,204174,5,0,0:0:0:0:
448,96,204261,5,0,0:0:0:0:
456,129,204347,5,0,0:0:0:0:
458,164,204433,5,0,0:0:0:0:
454,199,204519,5,0,0:0:0:0:
442,232,204605,5,0,0:0:0:0:
424,261,204692,5,0,0:0:0:0:
399,286,204778,5,0,0:0:0:0:
370,305,204864,5,0,0:0:0:0:
338,319,204950,5,0,0:0:0:0:
304,327,205036,5,0,0:0:0:0:
269,328,205123,5,0,0:0:0:0:
235,321,205209,5,0,0:0:0:0:
192,320,205296,5,0,0:0:0:0:
157,317,205382,5,0,0:0:0:0:
124,306,205468,5,0,0:0:0:0:
100,281,205554,5,0,0:0:0:0:
91,248,205640,5,0,0:0:0:0:
94,213,205727,5,0,0:0:0:0:
104,179,205813,5,0,0:0:0:0:
121,149,205899,5,0,0:0:0:0:
143,122,205985,5,0,0:0:0:0:
170,100,206071,5,0,0:0:0:0:
201,84,206158,5,0,0:0:0:0:
235,73,206244,5,0,0:0:0:0:
269,67,206330,5,0,0:0:0:0:
304,65,206416,5,0,0:0:0:0:
339,64,206502,5,0,0:0:0:0:
374,64,206589,5,0,0:0:0:0:
416,96,206674,5,0,0:0:0:0:
433,125,206760,5,0,0:0:0:0:
441,159,206846,5,0,0:0:0:0:
443,194,206932,5,0,0:0:0:0:
439,229,207018,5,0,0:0:0:0:
426,262,207105,5,0,0:0:0:0:
405,289,207191,5,0,0:0:0:0:
376,309,207277,5,0,0:0:0:0:
343,321,207363,5,0,0:0:0:0:
309,327,207449,5,0,0:0:0:0:
274,328,207536,5,0,0:0:0:0:
239,325,207622,5,0,0:0:0:0:
204,320,207708,5,0,0:0:0:0:
160,320,207795,5,0,0:0:0:0:
126,311,207881,5,0,0:0:0:0:
101,287,207967,5,0,0:0:0:0:
87,255,208053,5,0,0:0:0:0:
83,221,208139,5,0,0:0:0:0:
87,186,208226,5,0,0:0:0:0:
97,152,208312,5,0,0:0:0:0:
113,121,208398,5,0,0:0:0:0:
134,93,208484,5,0,0:0:0:0:
160,70,208570,5,0,0:0:0:0:
190,51,208657,5,0,0:0:0:0:
222,39,208743,5,0,0:0:0:0:
257,33,208829,5,0,0:0:0:0:
288,32,208916,5,0,0:0:0:0:
322,35,209002,5,0,0:0:0:0:
355,46,209088,5,0,0:0:0:0:
385,64,209174,5,0,0:0:0:0:
409,89,209260,5,0,0:0:0:0:
425,120,209347,5,0,0:0:0:0:
433,154,209433,5,0,0:0:0:0:
434,189,209519,5,0,0:0:0:0:
427,223,209605,5,0,0:0:0:0:
412,255,209691,5,0,0:0:0:0:
391,283,209778,5,0,0:0:0:0:
365,306,209864,5,0,0:0:0:0:
334,323,209950,5,0,0:0:0:0:
301,334,210036,5,0,0:0:0:0:
266,338,210122,5,0,0:0:0:0:
233,328,210209,5,0,0:0:0:0:
192,320,210295,5,0,0:0:0:0:
170,292,210381,5,0,0:0:0:0:
159,259,210467,5,0,0:0:0:0:
157,224,210553,5,0,0:0:0:0:
164,190,210639,5,0,0:0:0:0:
179,158,210726,5,0,0:0:0:0:
200,130,210812,5,0,0:0:0:0:
227,108,210898,5,0,0:0:0:0:
259,95,210984,5,0,0:0:0:0:
294,92,211070,5,0,0:0:0:0:
327,103,211157,5,0,0:0:0:0:
351,128,211243,5,0,0:0:0:0:
362,160,211329,5,0,0:0:0:0:
352,192,211416,5,0,0:0:0:0:
317,190,211502,5,0,0:0:0:0:
282,188,211588,5,0,0:0:0:0:
247,186,211674,5,0,0:0:0:0:
212,186,211760,5,0,0:0:0:0:
177,190,211847,5,0,0:0:0:0:
144,201,211933,5,0,0:0:0:0:
117,223,212019,5,0,0:0:0:0:
111,257,212105,5,0,0:0:0:0:
127,288,212191,5,0,0:0:0:0:
154,310,212278,5,0,0:0:0:0:
186,324,212364,5,0,0:0:0:0:
220,332,212450,5,0,0:0:0:0:
254,335,212536,5,0,0:0:0:0:
289,335,212622,5,0,0:0:0:0:
324,331,212709,5,0,0:0:0:0:
359,325,212795,5,0,0:0:0:0:
384,320,212881,5,0,0:0:0:0:
407,293,212967,5,0,0:0:0:0:
425,264,213053,5,0,0:0:0:0:
434,230,213139,5,0,0:0:0:0:
431,195,213225,5,0,0:0:0:0:
419,162,213312,5,0,0:0:0:0:
401,132,213398,5,0,0:0:0:0:
379,105,213484,5,0,0:0:0:0:
354,81,213570,5,0,0:0:0:0:
325,61,213656,5,0,0:0:0:0:
294,46,213743,5,0,0:0:0:0:
260,36,213829,5,0,0:0:0:0:
225,32,213915,5,0,0:0:0:0:
192,32,214002,5,0,0:0:0:0:
159,44,214088,5,0,0:0:0:0:
128,61,214174,5,0,0:0:0:0:
102,84,214260,5,0,0:0:0:0:
83,113,214346,5,0,0:0:0:0:
74,147,214433,5,0,0:0:0:0:
77,181,214519,5,0,0:0:0:0:
90,214,214605,5,0,0:0:0:0:
112,241,214691,5,0,0:0:0:0:
139,263,214777,5,0,0:0:0:0:
169,281,214864,5,0,0:0:0:0:
201,294,214950,5,0,0:0:0:0:
235,302,215036,5,0,0:0:0:0:
270,307,215122,5,0,0:0:0:0:
305,306,215208,5,0,0:0:0:0:
339,300,215295,5,0,0:0:0:0:
372,287,215381,5,0,0:0:0:0:
401,268,215467,5,0,0:0:0:0:
416,224,215553,5,0,0:0:0:0:
413,189,215639,5,0,0:0:0:0:
404,155,215725,5,0,0:0:0:0:
383,127,215811,5,0,0:0:0:0:
354,108,215897,5,0,0:0:0:0:
321,96,215984,5,0,0:0:0:0:
287,88,216070,5,0,0:0:0:0:
252,84,216156,5,0,0:0:0:0:
217,85,216242,5,0,0:0:0:0:
183,92,216328,5,0,0:0:0:0:
152,108,216415,5,0,0:0:0:0:
136,138,216501,5,0,0:0:0:0:
142,173,216587,5,0,0:0:0:0:
159,203,216673,5,0,0:0:0:0:
182,230,216759,5,0,0:0:0:0:
206,255,216846,5,0,0:0:0:0:
233,278,216932,5,0,0:0:0:0:
260,299,217018,5,0,0:0:0:0:
288,288,217105,5,0,0:0:0:0:
316,268,217191,5,0,0:0:0:0:
336,239,217277,5,0,0:0:0:0:
343,205,217363,5,0,0:0:0:0:
339,170,217449,5,0,0:0:0:0:
328,137,217536,5,0,0:0:0:0:
313,105,217622,5,0,0:0:0:0:
296,75,217708,5,0,0:0:0:0:
96,192,217880,1,0,0:0:0:0:
416,192,218053,1,0,0:0:0:0:
256,32,218225,1,0,0:0:0:0:
256,192,218743,1,0,0:0:0:0:
64,192,219088,1,0,0:0:0:0:
192,192,219260,1,0,0:0:0:0:
320,192,219433,1,0,0:0:0:0:
416,192,219605,1,0,0:0:0:0:
256,192,219950,1,0,0:0:0:0:
256,192,220295,1,0,0:0:0:0:
256,192,220639,1,0,0:0:0:0:
