osu file format v14

[General]
AudioFilename: audio.mp3
AudioLeadIn: 0
PreviewTime: 154115
Countdown: 0
SampleSet: Soft
StackLeniency: 0.7
Mode: 0
LetterboxInBreaks: 0
WidescreenStoryboard: 0

[Editor]
Bookmarks: 21960,44201,55063
DistanceSpacing: 0.6
BeatDivisor: 4
GridSize: 16
TimelineZoom: 0.8

[Metadata]
Title:Tidal Wave (feat. Alpines)
TitleUnicode:Tidal Wave (feat. Alpines)
Artist:Sub Focus
ArtistUnicode:Sub Focus
Creator:CoLouRed GlaZeE
Version:aaaaaa
Source:
Tags:
BeatmapID:1078974
BeatmapSetID:507249

[Difficulty]
HPDrainRate:5
CircleSize:4.5
OverallDifficulty:8.5
ApproachRate:9.2
SliderMultiplier:2.99999990463257
SliderTickRate:1

[Events]
//Background and Video events
//Break Periods
2,44315,54579
//Storyboard Layer 0 (Background)
//Storyboard Layer 1 (Fail)
//Storyboard Layer 2 (Pass)
//Storyboard Layer 3 (Foreground)
//Storyboard Sound Samples

[TimingPoints]
11012,344.827586206897,4,2,0,70,1,0
55149,-100,4,2,0,65,0,0
60667,-100,4,2,0,70,0,0
110322,-100,4,2,0,55,0,0
132391,-100,4,2,0,65,0,0
154460,-100,4,2,0,100,0,1
154632,-100,4,2,0,70,0,1
176529,-100,4,2,0,80,0,0
176701,-100,4,2,0,70,0,0
198598,-100,4,2,0,80,0,0
198770,-100,4,2,0,60,0,0
220667,-100,4,2,0,70,0,0

[Colours]
Combo1 : 255,200,32
Combo2 : 0,230,0
Combo3 : 49,141,255
Combo4 : 243,58,86

[HitObjects]
120,240,22046,5,4,1:0:0:0:
235,293,22218,1,0,0:0:0:0:
151,324,22391,1,0,0:0:0:0:
204,209,22563,1,0,0:0:0:0:
113,242,22736,5,0,1:0:0:0:
233,297,22908,1,0,0:0:0:0:
145,330,23081,1,0,0:0:0:0:
201,209,23253,1,0,0:0:0:0:
405,157,23425,5,0,1:0:0:0:
374,241,23598,1,0,0:0:0:0:
290,210,23770,1,0,0:0:0:0:
321,126,23942,1,0,0:0:0:0:
414,169,24115,5,0,1:0:0:0:
374,253,24288,1,0,0:0:0:0:
289,213,24460,1,0,0:0:0:0:
329,128,24632,1,0,0:0:0:0:
371,278,24805,5,0,1:0:0:0:
286,238,24977,1,0,0:0:0:0:
299,326,25149,1,0,0:0:0:0:
214,286,25321,1,0,0:0:0:0:
312,336,25494,5,0,1:0:0:0:
227,296,25666,1,0,0:0:0:0:
240,384,25838,1,0,0:0:0:0:
155,344,26010,1,0,0:0:0:0:
392,240,26184,5,0,1:0:0:0:
277,293,26356,1,0,0:0:0:0:
361,324,26529,1,0,0:0:0:0:
308,209,26701,1,0,0:0:0:0:
399,242,26874,5,0,1:0:0:0:
279,297,27046,1,0,0:0:0:0:
367,330,27219,1,0,0:0:0:0:
311,209,27391,1,0,0:0:0:0:
150,88,27563,5,0,1:0:0:0:
80,146,27736,1,0,0:0:0:0:
105,231,27908,1,0,0:0:0:0:
190,203,28080,1,0,0:0:0:0:
144,82,28253,5,0,1:0:0:0:
71,143,28426,1,0,0:0:0:0:
97,232,28598,1,0,0:0:0:0:
186,203,28770,1,0,0:0:0:0:
362,88,28943,5,0,1:0:0:0:
432,146,29116,1,0,0:0:0:0:
407,231,29288,1,0,0:0:0:0:
322,203,29460,1,0,0:0:0:0:
367,82,29633,5,0,1:0:0:0:
440,143,29806,1,0,0:0:0:0:
414,232,29978,1,0,0:0:0:0:
325,203,30150,1,0,0:0:0:0:
235,211,30322,5,0,1:0:0:0:
183,284,30494,1,0,0:0:0:0:
191,194,30667,1,0,0:0:0:0:
246,264,30839,1,0,0:0:0:0:
233,211,31012,5,0,1:0:0:0:
179,288,31184,1,0,0:0:0:0:
187,194,31357,1,0,0:0:0:0:
245,267,31529,1,0,0:0:0:0:
155,268,31701,5,0,1:0:0:0:
281,232,31874,1,0,0:0:0:0:
108,235,32046,1,0,0:0:0:0:
247,318,32218,1,0,0:0:0:0:
150,271,32391,5,0,1:0:0:0:
282,233,32564,1,0,0:0:0:0:
100,237,32736,1,0,0:0:0:0:
246,324,32908,1,0,0:0:0:0:
260,214,33080,5,4,1:0:0:0:
224,130,33253,1,0,0:0:0:0:
239,218,33425,1,0,0:0:0:0:
323,250,33598,1,0,0:0:0:0:
260,215,33770,5,0,1:0:0:0:
222,126,33943,1,0,0:0:0:0:
238,219,34115,1,0,0:0:0:0:
326,252,34288,1,0,0:0:0:0:
137,222,34460,5,0,1:0:0:0:
227,232,34633,1,0,0:0:0:0:
144,201,34805,1,0,0:0:0:0:
74,258,34978,1,0,0:0:0:0:
135,221,35150,5,0,1:0:0:0:
231,232,35323,1,0,0:0:0:0:
143,200,35495,1,0,0:0:0:0:
70,259,35668,1,0,0:0:0:0:
191,111,35838,5,0,1:0:0:0:
137,184,36011,1,0,0:0:0:0:
206,128,36183,1,0,0:0:0:0:
191,38,36356,1,0,0:0:0:0:
193,110,36528,5,0,1:0:0:0:
135,187,36701,1,0,0:0:0:0:
207,127,36873,1,0,0:0:0:0:
193,34,37046,1,0,0:0:0:0:
288,252,37218,5,0,1:0:0:0:
344,148,37391,1,0,0:0:0:0:
266,254,37563,1,0,0:0:0:0:
366,150,37736,1,0,0:0:0:0:
294,251,37908,5,0,1:0:0:0:
343,137,38081,1,0,0:0:0:0:
272,255,38253,1,0,0:0:0:0:
367,138,38426,1,0,0:0:0:0:
398,293,38598,5,0,1:0:0:0:
228,278,38770,1,0,0:0:0:0:
316,255,38943,1,0,0:0:0:0:
175,352,39115,1,0,0:0:0:0:
404,297,39287,5,0,1:0:0:0:
226,282,39459,1,0,0:0:0:0:
318,258,39632,1,0,0:0:0:0:
171,359,39804,1,0,0:0:0:0:
246,285,39977,5,0,1:0:0:0:
196,133,40149,1,0,0:0:0:0:
218,276,40322,1,0,0:0:0:0:
205,155,40494,1,0,0:0:0:0:
245,289,40667,5,0,1:0:0:0:
193,130,40839,1,0,0:0:0:0:
216,280,41012,1,0,0:0:0:0:
202,153,41184,1,0,0:0:0:0:
107,283,41356,5,0,1:0:0:0:
111,137,41529,1,0,0:0:0:0:
205,272,41701,1,0,0:0:0:0:
126,119,41874,1,0,0:0:0:0:
215,258,42046,5,0,1:0:0:0:
219,105,42219,1,0,0:0:0:0:
318,247,42391,1,0,0:0:0:0:
235,86,42564,1,0,0:0:0:0:
335,270,42736,5,0,1:0:0:0:
401,191,42908,1,0,0:0:0:0:
309,268,43080,1,0,0:0:0:0:
451,297,43253,1,0,0:0:0:0:
338,273,43425,5,0,1:0:0:0:
408,190,43597,1,0,0:0:0:0:
311,271,43769,1,0,0:0:0:0:
460,302,43942,1,0,0:0:0:0:
284,380,44115,5,4,1:0:0:0:
48,192,55149,5,0,1:0:0:0:
17,338,55494,1,0,0:0:0:0:
48,192,55667,5,0,1:0:0:0:
97,338,56012,1,0,0:0:0:0:
128,192,56184,5,0,1:0:0:0:
97,338,56356,1,0,0:0:0:0:
128,192,56529,5,0,1:0:0:0:
177,338,56874,1,0,0:0:0:0:
208,192,57046,5,0,1:0:0:0:
177,338,57391,1,0,0:0:0:0:
208,192,57564,5,0,1:0:0:0:
257,338,57736,5,0,1:0:0:0:
288,192,57908,5,0,1:0:0:0:
257,338,58253,1,0,0:0:0:0:
288,192,58425,5,0,1:0:0:0:
337,338,58770,1,0,0:0:0:0:
368,192,58943,5,0,1:0:0:0:
337,338,59115,1,0,0:0:0:0:
368,192,59287,5,0,1:0:0:0:
417,338,59632,1,0,0:0:0:0:
448,192,59805,5,0,1:0:0:0:
417,338,60149,1,0,0:0:0:0:
448,192,60322,5,0,1:0:0:0:
497,338,60494,5,0,1:0:0:0:
368,192,60667,5,0,1:0:0:0:
417,338,60839,1,0,0:0:0:0:
417,338,60925,1,0,0:0:0:0:
417,338,61012,1,0,0:0:0:0:
288,192,61184,5,0,1:0:0:0:
337,338,61356,1,0,0:0:0:0:
337,338,61442,1,0,0:0:0:0:
337,338,61529,1,0,0:0:0:0:
48,192,61701,5,0,1:0:0:0:
17,338,61874,1,0,0:0:0:0:
128,192,62046,5,0,1:0:0:0:
97,338,62218,1,0,0:0:0:0:
97,338,62305,1,0,0:0:0:0:
97,338,62391,1,0,0:0:0:0:
208,192,62563,5,0,1:0:0:0:
177,338,62736,1,0,0:0:0:0:
177,338,62822,1,0,0:0:0:0:
177,338,62908,1,0,0:0:0:0:
288,192,63080,5,0,1:0:0:0:
337,338,63252,5,0,1:0:0:0:
368,192,63425,5,0,1:0:0:0:
417,338,63598,1,0,0:0:0:0:
448,192,63770,1,0,0:0:0:0:
128,192,63942,5,0,1:0:0:0:
97,338,64114,1,0,0:0:0:0:
48,192,64287,1,0,0:0:0:0:
177,338,64460,5,0,1:0:0:0:
208,192,64633,1,0,0:0:0:0:
368,192,64805,5,0,1:0:0:0:
97,338,64977,1,0,1:0:0:0:
417,338,65149,5,0,1:0:0:0:
128,192,65322,1,0,1:0:0:0:
448,192,65494,5,0,1:0:0:0:
17,338,65667,1,0,1:0:0:0:
497,338,65839,5,0,1:0:0:0:
48,192,66012,1,0,1:0:0:0:
326,138,66184,5,4,1:0:0:0:
216,272,66356,1,0,0:0:0:0:
321,269,66529,1,0,0:0:0:0:
193,179,66701,1,0,0:0:0:0:
344,154,66874,5,8,1:0:0:0:
189,256,67046,1,0,0:0:0:0:
326,296,67218,1,0,0:0:0:0:
212,135,67391,1,0,0:0:0:0:
326,274,67563,5,0,1:0:0:0:
446,193,67736,1,2,0:0:0:0:
446,193,67822,1,2,0:0:0:0:
446,193,67908,1,2,0:0:0:0:
366,338,68080,1,0,0:0:0:0:
480,228,68253,5,8,1:0:0:0:
299,261,68425,1,0,0:0:0:0:
462,209,68598,1,0,0:0:0:0:
371,292,68770,1,0,0:0:0:0:
261,133,68943,5,0,1:0:0:0:
261,133,69115,1,0,1:0:0:0:
129,198,69460,1,0,1:0:0:0:
317,288,69632,5,8,1:0:0:0:
268,364,69805,1,0,0:0:0:0:
174,206,69977,1,0,0:0:0:0:
181,107,70149,1,0,0:0:0:0:
334,202,70322,5,0,1:0:0:0:
334,202,70494,1,0,1:0:0:0:
376,298,70839,1,0,1:0:0:0:
162,153,71012,5,8,1:0:0:0:
284,127,71184,1,0,0:0:0:0:
201,58,71356,5,0,1:0:0:0:
325,66,71529,1,0,0:0:0:0:
208,278,71701,5,0,1:0:0:0:
240,189,71874,1,0,0:0:0:0:
29,263,72046,1,0,0:0:0:0:
42,343,72218,1,0,0:0:0:0:
122,112,72391,5,8,1:0:0:0:
51,168,72563,1,0,0:0:0:0:
148,303,72736,1,0,0:0:0:0:
151,211,72908,1,0,0:0:0:0:
37,138,73080,5,0,1:0:0:0:
147,233,73253,1,2,0:0:0:0:
147,233,73339,1,2,0:0:0:0:
147,233,73425,1,2,0:0:0:0:
284,257,73598,1,0,0:0:0:0:
463,140,73770,5,8,1:0:0:0:
359,230,73943,1,0,0:0:0:0:
468,223,74115,1,0,0:0:0:0:
317,134,74287,1,0,0:0:0:0:
436,135,74460,5,0,1:0:0:0:
436,135,74632,1,0,1:0:0:0:
374,230,74977,1,0,1:0:0:0:
344,81,75149,5,8,1:0:0:0:
266,235,75322,1,0,0:0:0:0:
195,136,75494,1,0,0:0:0:0:
109,232,75667,1,0,0:0:0:0:
21,107,75839,5,0,1:0:0:0:
21,107,76012,1,0,1:0:0:0:
198,138,76357,1,0,1:0:0:0:
265,232,76529,5,8,1:0:0:0:
339,86,76701,1,0,0:0:0:0:
374,230,76874,5,0,1:0:0:0:
436,135,77046,1,0,0:0:0:0:
494,213,77218,5,0,1:0:0:0:
404,152,77391,1,0,0:0:0:0:
347,256,77563,1,0,0:0:0:0:
227,163,77736,1,0,0:0:0:0:
308,86,77908,5,8,1:0:0:0:
250,190,78080,1,0,0:0:0:0:
126,109,78253,1,0,0:0:0:0:
209,63,78425,1,0,0:0:0:0:
156,259,78598,5,0,1:0:0:0:
63,155,78770,1,2,0:0:0:0:
63,155,78856,1,2,0:0:0:0:
63,155,78943,1,2,0:0:0:0:
219,208,79115,1,0,0:0:0:0:
76,297,79287,5,8,1:0:0:0:
128,197,79460,1,0,0:0:0:0:
228,164,79632,1,0,0:0:0:0:
254,264,79805,1,0,0:0:0:0:
134,373,79977,5,0,1:0:0:0:
134,373,80149,1,0,1:0:0:0:
300,374,80494,1,0,1:0:0:0:
216,196,80667,5,8,1:0:0:0:
203,353,80839,1,0,0:0:0:0:
233,211,81012,1,0,0:0:0:0:
274,373,81184,1,0,0:0:0:0:
359,173,81356,5,0,1:0:0:0:
359,173,81529,1,0,1:0:0:0:
256,214,81874,1,0,1:0:0:0:
324,350,82046,5,8,1:0:0:0:
383,206,82218,1,0,0:0:0:0:
456,346,82391,5,0,1:0:0:0:
371,232,82563,1,0,0:0:0:0:
486,88,82736,5,0,1:0:0:0:
363,116,82908,1,0,0:0:0:0:
461,175,83080,1,0,0:0:0:0:
426,29,83253,1,0,0:0:0:0:
311,197,83425,5,8,1:0:0:0:
438,199,83598,1,0,0:0:0:0:
271,115,83770,1,0,0:0:0:0:
316,236,83943,1,0,0:0:0:0:
391,131,84115,5,0,1:0:0:0:
222,169,84287,1,2,0:0:0:0:
222,169,84374,1,2,0:0:0:0:
222,169,84460,1,2,0:0:0:0:
331,227,84632,1,0,0:0:0:0:
301,94,84805,5,8,1:0:0:0:
174,117,84977,1,0,0:0:0:0:
144,217,85149,1,0,0:0:0:0:
236,268,85322,1,0,0:0:0:0:
355,201,85494,5,0,1:0:0:0:
355,201,85667,1,0,1:0:0:0:
180,210,86012,1,0,1:0:0:0:
276,323,86184,5,8,1:0:0:0:
338,243,86356,1,0,0:0:0:0:
193,263,86529,1,0,0:0:0:0:
220,371,86701,1,0,0:0:0:0:
281,168,86874,5,0,1:0:0:0:
281,168,87046,1,0,1:0:0:0:
385,328,87218,1,2,3:0:0:0:
281,343,87391,1,0,1:0:0:0:
424,247,87564,5,2,3:0:0:0:
362,356,87736,1,2,3:0:0:0:
206,276,87908,5,0,1:0:0:0:
193,155,88080,1,0,1:0:0:0:
357,27,88253,5,0,1:0:0:0:
357,27,88425,1,0,0:0:0:0:
433,109,88598,1,0,0:0:0:0:
433,109,88770,1,0,0:0:0:0:
257,238,88943,1,8,1:0:0:0:
246,159,89115,1,0,0:0:0:0:
328,123,89287,1,0,0:0:0:0:
336,215,89460,1,0,0:0:0:0:
472,208,89632,5,0,1:0:0:0:
472,208,89805,1,0,0:0:0:0:
386,186,89977,1,0,0:0:0:0:
386,186,90149,1,0,0:0:0:0:
210,259,90322,1,8,1:0:0:0:
117,281,90494,1,0,0:0:0:0:
107,183,90667,1,0,0:0:0:0:
200,165,90839,1,0,0:0:0:0:
71,41,91012,5,0,1:0:0:0:
71,41,91184,1,0,1:0:0:0:
135,102,91356,1,0,0:0:0:0:
122,191,91529,1,0,1:0:0:0:
122,191,91701,1,8,1:0:0:0:
160,272,91874,1,0,0:0:0:0:
240,311,92046,1,0,0:0:0:0:
327,290,92218,1,0,0:0:0:0:
264,173,92391,5,0,1:0:0:0:
264,173,92563,1,0,1:0:0:0:
328,109,92736,1,0,0:0:0:0:
416,97,92908,1,0,1:0:0:0:
416,97,93080,1,8,1:0:0:0:
486,153,93253,1,0,0:0:0:0:
477,242,93425,1,0,1:0:0:0:
406,298,93598,1,0,0:0:0:0:
181,100,93770,5,0,1:0:0:0:
181,100,93943,1,0,0:0:0:0:
249,30,94115,1,0,0:0:0:0:
249,30,94287,1,0,0:0:0:0:
395,190,94460,1,8,1:0:0:0:
314,235,94632,1,0,0:0:0:0:
287,156,94805,1,0,0:0:0:0:
375,109,94977,1,0,0:0:0:0:
164,148,95149,5,0,1:0:0:0:
164,148,95322,1,0,0:0:0:0:
202,233,95494,1,0,0:0:0:0:
202,233,95667,1,0,0:0:0:0:
49,357,95839,1,8,1:0:0:0:
27,266,96012,1,0,0:0:0:0:
118,262,96184,1,0,0:0:0:0:
126,352,96356,1,0,0:0:0:0:
308,355,96529,5,0,1:0:0:0:
308,355,96701,1,0,1:0:0:0:
231,306,96874,1,0,0:0:0:0:
199,221,97046,1,0,1:0:0:0:
199,221,97218,1,8,1:0:0:0:
214,132,97391,1,0,0:0:0:0:
171,52,97563,1,0,0:0:0:0:
85,23,97736,1,0,0:0:0:0:
21,196,97908,5,0,1:0:0:0:
21,196,98080,1,0,1:0:0:0:
101,237,98253,1,0,0:0:0:0:
186,209,98425,1,0,1:0:0:0:
186,209,98597,1,8,1:0:0:0:
246,142,98770,1,0,0:0:0:0:
335,134,98943,1,0,1:0:0:0:
409,184,99115,1,0,0:0:0:0:
347,49,99287,5,0,1:0:0:0:
347,49,99460,1,0,0:0:0:0:
456,69,99632,1,0,0:0:0:0:
456,69,99805,1,0,0:0:0:0:
395,278,99977,1,8,1:0:0:0:
313,328,100149,1,0,0:0:0:0:
278,244,100322,1,0,0:0:0:0:
354,186,100494,1,0,0:0:0:0:
495,156,100667,5,0,1:0:0:0:
495,156,100839,1,0,0:0:0:0:
454,255,101012,1,0,0:0:0:0:
454,255,101184,1,0,0:0:0:0:
269,282,101356,1,8,1:0:0:0:
192,226,101529,1,0,0:0:0:0:
271,157,101701,1,0,0:0:0:0:
325,214,101874,1,0,0:0:0:0:
194,318,102046,5,0,1:0:0:0:
194,318,102218,1,0,1:0:0:0:
213,229,102391,1,0,0:0:0:0:
169,150,102563,1,0,1:0:0:0:
169,150,102735,1,8,1:0:0:0:
171,59,102908,1,0,0:0:0:0:
257,35,103080,1,0,0:0:0:0:
334,81,103253,1,0,0:0:0:0:
483,175,103425,5,0,1:0:0:0:
483,175,103597,1,0,1:0:0:0:
392,178,103770,1,0,0:0:0:0:
325,238,103942,1,0,1:0:0:0:
325,238,104114,1,8,1:0:0:0:
252,291,104287,1,0,0:0:0:0:
164,269,104460,1,0,1:0:0:0:
103,202,104632,1,0,0:0:0:0:
160,80,104805,5,0,1:0:0:0:
160,80,104977,1,0,0:0:0:0:
63,108,105149,1,0,0:0:0:0:
63,108,105322,1,0,0:0:0:0:
246,199,105494,1,8,1:0:0:0:
335,183,105667,1,0,0:0:0:0:
325,92,105839,1,0,0:0:0:0:
240,102,106012,1,0,0:0:0:0:
352,334,106184,5,0,1:0:0:0:
352,334,106356,1,0,0:0:0:0:
253,288,106529,1,0,0:0:0:0:
253,288,106701,1,0,0:0:0:0:
478,155,106874,1,8,1:0:0:0:
476,255,107046,1,0,0:0:0:0:
384,247,107218,1,0,0:0:0:0:
389,159,107391,1,0,0:0:0:0:
331,35,107563,5,0,1:0:0:0:
331,35,107736,1,0,1:0:0:0:
319,124,107908,1,0,0:0:0:0:
240,168,108080,1,0,1:0:0:0:
240,168,108253,1,8,1:0:0:0:
153,192,108425,1,0,0:0:0:0:
223,248,108598,1,0,0:0:0:0:
266,326,108770,1,0,0:0:0:0:
58,345,108943,5,0,1:0:0:0:
58,345,109116,1,0,1:0:0:0:
69,256,109287,1,0,0:0:0:0:
142,203,109460,1,0,1:0:0:0:
142,203,109633,1,8,1:0:0:0:
99,123,109805,1,0,0:0:0:0:
146,46,109977,1,0,1:0:0:0:
235,42,110149,1,0,0:0:0:0:
313,86,110322,5,4,1:0:0:0:
13,195,111012,1,0,1:0:0:0:
442,141,111701,1,0,1:0:0:0:
66,72,112391,1,0,1:0:0:0:
456,251,113080,1,0,1:0:0:0:
181,45,113770,1,0,1:0:0:0:
337,358,114460,1,0,1:0:0:0:
319,27,115149,1,0,1:0:0:0:
214,330,115839,5,0,1:0:0:0:
435,38,116529,1,0,1:0:0:0:
82,306,117218,1,0,1:0:0:0:
474,154,117908,1,0,1:0:0:0:
47,155,118597,1,0,1:0:0:0:
465,293,119287,1,0,1:0:0:0:
160,42,119977,1,0,1:0:0:0:
318,352,120666,1,0,1:0:0:0:
347,40,121356,5,4,1:0:0:0:
167,348,122046,1,0,1:0:0:0:
200,26,122735,1,0,1:0:0:0:
376,355,123425,1,0,1:0:0:0:
56,66,124114,1,0,1:0:0:0:
471,221,124804,1,0,1:0:0:0:
63,261,125494,1,0,1:0:0:0:
470,114,126183,1,0,1:0:0:0:
176,341,126874,5,0,1:0:0:0:
251,49,127564,1,0,1:0:0:0:
339,321,128253,1,0,1:0:0:0:
105,52,128943,1,0,1:0:0:0:
457,201,129632,1,0,1:0:0:0:
29,195,130322,1,0,1:0:0:0:
375,47,131012,1,0,1:0:0:0:
110,348,131701,1,0,1:0:0:0:
275,230,132047,5,0,0:0:0:0:
229,45,132391,5,4,1:0:0:0:
119,117,132563,1,0,0:0:0:0:
245,209,132736,1,0,0:0:0:0:
297,88,132908,1,0,0:0:0:0:
214,40,133080,5,2,0:0:0:0:
105,126,133252,1,0,0:0:0:0:
246,210,133425,1,0,0:0:0:0:
289,79,133597,1,0,0:0:0:0:
136,211,133770,5,2,0:0:0:0:
194,308,133943,1,0,0:0:0:0:
346,182,134115,1,0,0:0:0:0:
208,131,134287,1,0,0:0:0:0:
132,222,134460,5,2,0:0:0:0:
201,318,134633,1,0,0:0:0:0:
349,173,134805,1,0,0:0:0:0:
200,132,134977,1,0,0:0:0:0:
276,286,135149,5,2,0:0:0:0:
399,248,135322,1,0,0:0:0:0:
279,124,135494,1,0,0:0:0:0:
208,208,135667,1,0,0:0:0:0:
285,288,135839,5,2,0:0:0:0:
410,237,136012,1,0,0:0:0:0:
273,118,136184,1,0,0:0:0:0:
207,213,136357,1,0,0:0:0:0:
381,296,136529,5,2,0:0:0:0:
356,146,136701,1,0,0:0:0:0:
211,301,136874,1,0,0:0:0:0:
308,379,137046,1,0,0:0:0:0:
368,303,137218,5,2,0:0:0:0:
356,157,137390,1,0,0:0:0:0:
204,293,137563,1,0,0:0:0:0:
291,377,137735,1,0,0:0:0:0:
275,187,137908,5,2,0:0:0:0:
156,202,138080,1,0,0:0:0:0:
137,298,138253,1,0,0:0:0:0:
34,274,138425,1,0,0:0:0:0:
276,188,138598,5,2,0:0:0:0:
150,193,138770,1,0,0:0:0:0:
121,291,138943,1,0,0:0:0:0:
16,257,139115,1,0,0:0:0:0:
102,120,139287,5,2,0:0:0:0:
182,183,139460,1,0,0:0:0:0:
300,215,139632,1,0,0:0:0:0:
379,124,139805,1,0,0:0:0:0:
101,102,139977,5,2,0:0:0:0:
179,175,140150,1,0,0:0:0:0:
299,220,140322,1,0,0:0:0:0:
390,132,140495,1,0,0:0:0:0:
231,102,140667,5,2,0:0:0:0:
157,247,140839,1,0,0:0:0:0:
260,210,141012,1,0,0:0:0:0:
283,317,141184,1,0,0:0:0:0:
238,95,141356,5,2,0:0:0:0:
147,240,141528,1,0,0:0:0:0:
258,211,141701,1,0,0:0:0:0:
272,325,141873,1,0,0:0:0:0:
122,360,142046,5,2,0:0:0:0:
233,312,142218,1,0,0:0:0:0:
220,171,142391,1,0,0:0:0:0:
77,249,142563,1,0,0:0:0:0:
143,363,142736,5,2,0:0:0:0:
245,308,142908,1,0,0:0:0:0:
221,175,143081,1,0,0:0:0:0:
91,261,143253,1,0,0:0:0:0:
321,345,143425,5,0,1:0:0:0:
455,306,143598,1,0,0:0:0:0:
455,306,143684,1,0,0:0:0:0:
455,306,143770,1,0,0:0:0:0:
356,203,143943,5,0,1:0:0:0:
242,265,144115,1,0,0:0:0:0:
242,265,144201,1,0,0:0:0:0:
242,265,144287,1,0,0:0:0:0:
311,360,144460,5,0,1:0:0:0:
374,181,144632,1,0,0:0:0:0:
236,57,144805,5,0,1:0:0:0:
159,178,144977,1,0,0:0:0:0:
159,178,145063,1,0,0:0:0:0:
159,178,145149,1,0,0:0:0:0:
296,183,145322,5,0,1:0:0:0:
146,95,145494,1,0,0:0:0:0:
146,95,145580,1,0,0:0:0:0:
146,95,145667,1,0,0:0:0:0:
126,287,145839,5,0,1:0:0:0:
244,116,146012,5,0,1:0:0:0:
41,163,146184,5,0,1:0:0:0:
216,235,146356,1,0,0:0:0:0:
216,235,146443,1,0,0:0:0:0:
216,235,146529,1,0,0:0:0:0:
79,333,146701,5,0,1:0:0:0:
281,282,146874,1,0,0:0:0:0:
281,282,146960,1,0,0:0:0:0:
281,282,147046,1,0,0:0:0:0:
129,189,147218,5,0,1:0:0:0:
314,212,147391,1,0,0:0:0:0:
177,326,147563,5,0,1:0:0:0:
359,273,147736,1,0,0:0:0:0:
359,273,147822,1,0,0:0:0:0:
359,273,147908,1,0,0:0:0:0:
445,171,148080,5,0,1:0:0:0:
258,122,148253,1,0,0:0:0:0:
258,122,148339,1,0,0:0:0:0:
258,122,148425,1,0,0:0:0:0:
241,278,148598,5,0,1:0:0:0:
371,118,148770,5,0,1:0:0:0:
131,57,148943,5,0,1:0:0:0:
71,170,149115,1,0,0:0:0:0:
66,184,149201,1,0,0:0:0:0:
62,198,149287,1,0,0:0:0:0:
60,213,149373,1,0,0:0:0:0:
60,228,149459,5,0,1:0:0:0:
151,312,149632,1,0,0:0:0:0:
151,312,149718,1,0,0:0:0:0:
151,312,149805,1,0,0:0:0:0:
204,218,149977,5,0,1:0:0:0:
56,322,150149,1,0,0:0:0:0:
237,366,150322,5,0,1:0:0:0:
297,253,150494,1,0,0:0:0:0:
301,238,150580,1,0,0:0:0:0:
305,224,150666,1,0,0:0:0:0:
307,209,150752,1,0,0:0:0:0:
307,194,150838,5,0,1:0:0:0:
181,166,151012,1,0,0:0:0:0:
169,156,151098,1,0,0:0:0:0:
158,146,151184,1,0,0:0:0:0:
150,133,151270,1,0,0:0:0:0:
143,120,151356,5,0,1:0:0:0:
107,324,151529,5,0,1:0:0:0:
279,102,151701,5,0,1:0:0:0:
133,225,151874,1,0,0:0:0:0:
118,226,151960,1,0,0:0:0:0:
103,228,152046,1,0,0:0:0:0:
88,230,152132,1,0,0:0:0:0:
73,232,152218,5,0,1:0:0:0:
199,305,152391,1,0,0:0:0:0:
199,305,152477,1,0,0:0:0:0:
199,305,152563,1,0,0:0:0:0:
236,191,152736,5,0,1:0:0:0:
236,191,152822,1,0,0:0:0:0:
236,191,152908,1,0,0:0:0:0:
82,120,153080,5,0,1:0:0:0:
347,300,153253,1,0,1:0:0:0:
129,269,153425,5,2,3:0:0:0:
457,108,153598,1,0,1:0:0:0:
88,198,153770,5,2,3:0:0:0:
458,338,153943,1,2,3:0:0:0:
44,364,154115,5,0,1:0:0:0:
512,169,154287,1,0,1:0:0:0:
107,36,154460,5,4,1:0:0:0:
124,195,154632,1,2,0:0:0:0:
124,195,154718,1,2,0:0:0:0:
124,195,154805,1,8,1:0:0:0:
250,82,154977,1,0,0:0:0:0:
68,116,155149,5,2,0:0:0:0:
68,116,155235,1,2,0:0:0:0:
68,116,155321,1,0,1:0:0:0:
68,116,155407,1,2,0:0:0:0:
68,116,155493,1,8,1:0:0:0:
146,294,155667,1,0,0:0:0:0:
283,163,155839,5,0,1:0:0:0:
117,188,156012,1,0,0:0:0:0:
313,273,156184,1,8,1:0:0:0:
176,247,156356,1,0,0:0:0:0:
396,140,156529,5,0,0:0:0:0:
250,232,156701,1,0,1:0:0:0:
250,232,156787,1,2,0:0:0:0:
250,232,156873,1,8,1:0:0:0:
297,348,157046,1,0,0:0:0:0:
480,186,157218,5,0,1:0:0:0:
472,81,157390,1,0,0:0:0:0:
396,140,157563,1,8,1:0:0:0:
299,86,157736,5,2,0:0:0:0:
299,86,157822,1,2,0:0:0:0:
299,86,157908,1,2,0:0:0:0:
299,86,157994,1,2,0:0:0:0:
299,86,158080,1,0,1:0:0:0:
396,140,158253,5,8,1:0:0:0:
201,236,158425,1,0,0:0:0:0:
305,326,158598,5,0,1:0:0:0:
307,206,158770,1,0,0:0:0:0:
410,315,158943,1,8,1:0:0:0:
185,279,159115,5,2,0:0:0:0:
185,279,159201,1,2,0:0:0:0:
185,279,159287,1,2,0:0:0:0:
185,279,159374,1,2,0:0:0:0:
185,279,159461,1,0,1:0:0:0:
211,369,159632,5,8,1:0:0:0:
307,206,159805,5,0,1:0:0:0:
140,68,159977,5,0,1:0:0:0:
36,117,160150,1,2,0:0:0:0:
36,117,160236,1,2,0:0:0:0:
36,117,160322,1,8,1:0:0:0:
181,228,160494,5,2,0:0:0:0:
181,228,160580,1,2,0:0:0:0:
181,228,160666,1,2,0:0:0:0:
181,228,160752,1,2,0:0:0:0:
181,228,160838,1,0,1:0:0:0:
216,112,161012,5,8,1:0:0:0:
265,264,161184,1,0,0:0:0:0:
337,95,161356,5,0,1:0:0:0:
337,95,161442,1,2,0:0:0:0:
337,95,161528,1,2,0:0:0:0:
343,229,161701,1,8,1:0:0:0:
471,136,161874,5,2,0:0:0:0:
471,136,161960,1,2,0:0:0:0:
471,136,162046,1,2,0:0:0:0:
471,136,162132,1,2,0:0:0:0:
471,136,162218,1,0,1:0:0:0:
289,153,162391,5,8,1:0:0:0:
416,347,162563,5,0,1:0:0:0:
180,296,162736,5,0,1:0:0:0:
180,296,162822,1,2,0:0:0:0:
180,296,162908,1,2,0:0:0:0:
110,191,163080,5,8,1:0:0:0:
110,191,163166,1,2,0:0:0:0:
110,191,163252,1,2,0:0:0:0:
110,191,163339,1,2,0:0:0:0:
110,191,163425,1,2,0:0:0:0:
196,179,163598,5,0,1:0:0:0:
136,384,163770,1,8,1:0:0:0:
136,384,163856,1,2,0:0:0:0:
136,384,163942,1,2,0:0:0:0:
402,191,164115,5,0,1:0:0:0:
402,191,164201,1,2,0:0:0:0:
402,191,164287,1,2,0:0:0:0:
402,191,164374,1,2,0:0:0:0:
402,191,164460,1,8,1:0:0:0:
332,296,164632,5,2,0:0:0:0:
332,296,164718,1,2,0:0:0:0:
332,296,164804,1,2,0:0:0:0:
376,384,164977,5,0,1:0:0:0:
316,179,165149,1,8,1:0:0:0:
316,179,165235,1,2,0:0:0:0:
316,179,165321,5,0,1:0:0:0:
231,259,165494,5,0,1:0:0:0:
231,259,165580,1,2,0:0:0:0:
231,259,165667,1,2,0:0:0:0:
113,187,165839,5,8,1:0:0:0:
113,187,165925,1,2,0:0:0:0:
113,187,166011,1,2,0:0:0:0:
113,187,166097,1,2,0:0:0:0:
113,187,166183,1,2,0:0:0:0:
220,109,166356,5,0,1:0:0:0:
220,109,166443,1,2,0:0:0:0:
220,109,166529,1,8,1:0:0:0:
81,269,166701,1,0,0:0:0:0:
227,347,166874,5,0,1:0:0:0:
193,189,167046,1,2,0:0:0:0:
193,189,167132,1,2,0:0:0:0:
193,189,167218,1,8,1:0:0:0:
316,253,167391,5,2,0:0:0:0:
316,253,167477,1,2,0:0:0:0:
316,253,167563,1,2,0:0:0:0:
316,253,167649,1,2,0:0:0:0:
316,253,167736,1,0,1:0:0:0:
275,158,167908,5,8,1:0:0:0:
117,373,168080,5,0,1:0:0:0:
351,330,168253,5,0,1:0:0:0:
351,330,168339,1,2,0:0:0:0:
351,330,168425,1,2,0:0:0:0:
186,214,168598,5,8,1:0:0:0:
186,214,168684,1,2,0:0:0:0:
186,214,168770,1,2,0:0:0:0:
186,214,168856,1,2,0:0:0:0:
186,214,168943,1,2,0:0:0:0:
401,198,169115,5,0,1:0:0:0:
401,198,169201,1,2,0:0:0:0:
401,198,169287,1,8,1:0:0:0:
258,293,169460,1,0,0:0:0:0:
326,214,169632,5,0,1:0:0:0:
326,214,169718,1,2,0:0:0:0:
326,214,169804,1,2,0:0:0:0:
326,214,169890,1,2,0:0:0:0:
326,214,169977,1,8,1:0:0:0:
161,330,170150,5,2,0:0:0:0:
161,330,170236,1,2,0:0:0:0:
161,330,170322,1,2,0:0:0:0:
258,293,170494,5,0,1:0:0:0:
111,198,170667,1,8,1:0:0:0:
111,198,170753,1,2,0:0:0:0:
111,198,170839,5,0,1:0:0:0:
263,116,171012,5,0,1:0:0:0:
263,116,171098,1,2,0:0:0:0:
263,116,171184,1,2,0:0:0:0:
386,169,171356,1,8,1:0:0:0:
218,221,171529,5,2,0:0:0:0:
218,221,171615,1,2,0:0:0:0:
218,221,171701,1,2,0:0:0:0:
218,221,171787,1,2,0:0:0:0:
218,221,171874,1,0,1:0:0:0:
349,177,172046,5,8,1:0:0:0:
151,145,172218,1,0,0:0:0:0:
287,288,172391,5,0,1:0:0:0:
287,288,172477,1,2,0:0:0:0:
287,288,172563,1,2,0:0:0:0:
114,303,172736,5,8,1:0:0:0:
114,303,172822,1,2,0:0:0:0:
114,303,172908,1,2,0:0:0:0:
114,303,172994,1,2,0:0:0:0:
114,303,173080,1,2,0:0:0:0:
25,194,173253,5,0,1:0:0:0:
25,194,173339,1,2,0:0:0:0:
25,194,173425,1,8,1:0:0:0:
25,194,173512,1,2,0:0:0:0:
25,194,173598,1,0,1:0:0:0:
151,199,173770,5,0,1:0:0:0:
151,199,173856,1,2,0:0:0:0:
151,199,173943,1,2,0:0:0:0:
89,87,174115,1,8,1:0:0:0:
241,244,174287,5,2,0:0:0:0:
241,244,174374,1,2,0:0:0:0:
241,244,174460,1,2,0:0:0:0:
286,148,174632,5,0,1:0:0:0:
340,320,174805,1,8,1:0:0:0:
411,223,174977,1,0,0:0:0:0:
185,98,175149,5,2,1:2:0:0:
185,98,175236,1,2,0:0:0:0:
185,98,175322,1,2,0:0:0:0:
314,45,175494,1,8,1:0:0:0:
344,185,175667,5,2,0:0:0:0:
344,185,175753,1,2,0:0:0:0:
344,185,175839,1,2,0:0:0:0:
166,277,176012,5,0,1:0:0:0:
314,271,176184,1,8,1:0:0:0:
451,342,176357,1,0,1:0:0:0:
307,69,176529,5,4,1:0:0:0:
242,168,176701,1,2,0:0:0:0:
390,182,176874,1,8,1:0:0:0:
447,82,177046,1,2,0:0:0:0:
447,82,177218,5,2,0:0:0:0:
484,205,177391,1,0,1:0:0:0:
371,219,177563,1,8,1:0:0:0:
316,108,177736,1,0,0:0:0:0:
228,241,177908,5,0,1:0:0:0:
203,349,178080,1,2,0:0:0:0:
82,323,178253,1,8,1:0:0:0:
34,215,178425,1,2,0:0:0:0:
34,215,178598,5,2,0:0:0:0:
115,329,178770,1,0,1:0:0:0:
220,326,178943,1,8,1:0:0:0:
255,190,179115,1,0,1:0:0:0:
96,120,179287,5,0,1:0:0:0:
225,206,179460,1,2,0:0:0:0:
75,229,179632,1,8,1:0:0:0:
190,124,179805,1,2,0:0:0:0:
190,124,179891,1,2,0:0:0:0:
190,124,179977,5,2,0:0:0:0:
91,234,180149,1,0,1:0:0:0:
250,204,180322,1,8,1:0:0:0:
97,138,180494,1,0,0:0:0:0:
268,66,180667,5,0,1:0:0:0:
122,119,180839,1,2,0:0:0:0:
283,202,181012,1,8,1:0:0:0:
170,178,181184,1,2,0:0:0:0:
170,178,181270,1,2,0:0:0:0:
170,178,181356,5,2,0:0:0:0:
355,147,181529,1,0,1:0:0:0:
180,85,181701,1,8,1:0:0:0:
331,149,181874,1,0,1:0:0:0:
201,242,182046,5,0,1:0:0:0:
362,212,182218,1,2,0:0:0:0:
174,199,182391,1,8,1:0:0:0:
353,290,182563,1,2,0:0:0:0:
353,290,182736,5,2,0:0:0:0:
166,288,182908,1,0,1:0:0:0:
349,208,183080,1,8,1:0:0:0:
201,166,183253,1,0,0:0:0:0:
376,177,183425,5,0,1:0:0:0:
234,256,183598,1,2,0:0:0:0:
304,348,183770,1,8,1:0:0:0:
455,351,183943,1,2,0:0:0:0:
455,351,184115,5,2,0:0:0:0:
346,331,184287,1,0,1:0:0:0:
279,222,184460,1,8,1:0:0:0:
426,192,184632,1,0,1:0:0:0:
376,323,184805,5,0,1:0:0:0:
243,242,184977,1,0,0:0:0:0:
243,242,185063,1,0,0:0:0:0:
243,242,185149,1,8,1:0:0:0:
348,207,185322,5,0,0:0:0:0:
184,174,185494,1,0,0:0:0:0:
184,174,185580,1,0,0:0:0:0:
184,174,185667,1,0,1:0:0:0:
290,110,185839,5,8,1:0:0:0:
103,138,186012,1,0,0:0:0:0:
188,305,186184,5,0,1:0:0:0:
253,206,186356,1,0,0:0:0:0:
131,217,186529,1,8,1:0:0:0:
281,302,186701,1,0,0:0:0:0:
184,310,186874,5,0,0:0:0:0:
252,206,187046,1,0,1:0:0:0:
124,218,187219,1,8,1:0:0:0:
282,307,187391,1,0,1:0:0:0:
438,220,187563,5,0,1:0:0:0:
311,291,187736,1,2,0:0:0:0:
161,211,187908,1,8,1:0:0:0:
246,126,188080,1,2,0:0:0:0:
246,126,188253,5,2,0:0:0:0:
163,252,188425,1,0,1:0:0:0:
114,149,188598,1,8,1:0:0:0:
36,254,188770,1,0,0:0:0:0:
146,347,188943,5,0,1:0:0:0:
238,293,189115,1,2,0:0:0:0:
166,188,189287,1,8,1:0:0:0:
70,265,189460,1,2,0:0:0:0:
70,265,189632,5,2,0:0:0:0:
191,301,189805,1,0,1:0:0:0:
309,242,189977,1,8,1:0:0:0:
304,106,190149,1,0,1:0:0:0:
274,241,190322,5,0,1:0:0:0:
346,332,190494,1,2,0:0:0:0:
447,302,190667,1,8,1:0:0:0:
456,194,190839,1,2,0:0:0:0:
456,194,190925,1,2,0:0:0:0:
456,194,191012,5,2,0:0:0:0:
308,240,191184,1,0,1:0:0:0:
407,126,191356,1,8,1:0:0:0:
258,138,191529,1,0,0:0:0:0:
393,235,191701,5,0,1:0:0:0:
236,214,191874,1,2,0:0:0:0:
388,263,192046,1,8,1:0:0:0:
264,322,192218,1,2,0:0:0:0:
264,322,192305,1,2,0:0:0:0:
264,322,192391,5,2,0:0:0:0:
306,237,192563,1,0,1:0:0:0:
147,213,192736,1,8,1:0:0:0:
281,202,192908,1,0,1:0:0:0:
130,305,193080,5,0,1:0:0:0:
37,328,193253,1,2,0:0:0:0:
91,196,193425,1,8,1:0:0:0:
206,174,193598,1,2,0:0:0:0:
206,174,193770,5,2,0:0:0:0:
315,218,193943,1,0,1:0:0:0:
416,95,194115,1,8,1:0:0:0:
313,104,194287,1,0,0:0:0:0:
281,226,194460,5,0,1:0:0:0:
340,328,194632,1,2,0:0:0:0:
443,318,194805,1,8,1:0:0:0:
361,186,194977,1,2,0:0:0:0:
361,186,195149,5,2,0:0:0:0:
248,297,195322,1,0,1:0:0:0:
386,338,195494,1,8,1:0:0:0:
456,229,195667,1,0,1:0:0:0:
279,222,195839,5,0,1:0:0:0:
114,263,196012,1,0,0:0:0:0:
114,263,196098,1,0,0:0:0:0:
114,263,196184,1,8,1:0:0:0:
200,155,196356,5,0,0:0:0:0:
21,159,196529,1,0,0:0:0:0:
21,159,196615,1,0,0:0:0:0:
21,159,196701,1,0,1:0:0:0:
126,92,196874,5,8,1:0:0:0:
21,256,197046,1,0,0:0:0:0:
270,287,197218,5,0,1:0:0:0:
129,309,197391,1,0,0:0:0:0:
294,276,197563,1,8,1:0:0:0:
101,217,197736,1,0,0:0:0:0:
259,178,197908,5,0,0:0:0:0:
133,293,198080,1,8,1:0:0:0:
133,293,198167,1,8,1:0:0:0:
133,293,198253,1,8,1:0:0:0:
317,355,198425,1,0,1:0:0:0:
413,214,198598,5,4,1:0:0:0:
341,140,198770,1,2,0:0:0:0:
277,217,198943,1,8,1:0:0:0:
371,307,199115,1,2,0:0:0:0:
401,253,199287,5,2,0:0:0:0:
351,163,199459,1,0,1:0:0:0:
269,221,199632,1,8,1:0:0:0:
337,332,199804,1,0,0:0:0:0:
180,336,199977,5,0,1:0:0:0:
288,266,200149,1,2,0:0:0:0:
134,217,200322,1,8,1:0:0:0:
306,190,200494,1,2,0:0:0:0:
145,311,200667,5,2,0:0:0:0:
267,271,200839,1,0,1:0:0:0:
131,184,201012,1,8,1:0:0:0:
304,203,201184,1,0,1:0:0:0:
228,347,201356,5,0,1:0:0:0:
183,237,201529,1,2,0:0:0:0:
85,289,201701,1,8,1:0:0:0:
17,185,201874,1,2,0:0:0:0:
188,334,202046,5,2,0:0:0:0:
173,216,202219,1,0,1:0:0:0:
65,241,202391,1,8,1:0:0:0:
26,123,202564,1,0,0:0:0:0:
197,127,202736,5,0,1:0:0:0:
247,236,202908,1,2,0:0:0:0:
356,181,203080,1,8,1:0:0:0:
430,262,203253,1,2,0:0:0:0:
215,113,203425,5,2,0:0:0:0:
235,232,203597,1,0,1:0:0:0:
355,207,203769,1,8,1:0:0:0:
405,304,203942,1,0,1:0:0:0:
267,361,204115,5,0,1:0:0:0:
366,291,204287,1,2,0:0:0:0:
479,298,204460,1,8,1:0:0:0:
346,261,204632,1,2,0:0:0:0:
222,358,204805,5,2,0:0:0:0:
336,316,204977,1,0,1:0:0:0:
443,352,205150,1,8,1:0:0:0:
325,281,205322,1,0,0:0:0:0:
214,331,205494,5,0,1:0:0:0:
269,225,205667,1,2,0:0:0:0:
221,158,205839,1,8,1:0:0:0:
321,92,206012,1,2,0:0:0:0:
179,315,206184,5,2,0:0:0:0:
260,227,206357,1,0,1:0:0:0:
230,150,206529,1,8,1:0:0:0:
344,112,206702,1,0,1:0:0:0:
480,221,206874,5,0,1:0:0:0:
379,247,207046,1,2,0:0:0:0:
277,204,207218,1,8,1:0:0:0:
400,76,207391,1,2,0:0:0:0:
464,277,207563,5,2,0:0:0:0:
360,276,207735,1,0,0:0:0:0:
273,209,207907,1,8,1:0:0:0:
425,117,208080,1,0,0:0:0:0:
371,241,208253,5,0,1:0:0:0:
218,283,208425,1,2,0:0:0:0:
171,150,208598,1,8,1:0:0:0:
302,163,208770,1,2,0:0:0:0:
354,269,208943,5,2,0:0:0:0:
195,270,209115,1,0,1:0:0:0:
184,129,209288,1,8,1:0:0:0:
307,175,209460,1,0,1:0:0:0:
271,312,209632,5,0,1:0:0:0:
170,322,209805,1,2,0:0:0:0:
309,276,209977,1,8,1:0:0:0:
254,173,210149,1,2,0:0:0:0:
239,311,210322,5,2,0:0:0:0:
139,295,210495,1,0,1:0:0:0:
285,286,210667,1,8,1:0:0:0:
258,173,210839,1,0,0:0:0:0:
216,318,211012,5,0,1:0:0:0:
352,345,211184,1,2,0:0:0:0:
408,258,211356,1,8,1:0:0:0:
262,246,211529,1,2,0:0:0:0:
184,303,211701,5,2,0:0:0:0:
309,364,211873,1,0,1:0:0:0:
385,295,212045,1,8,1:0:0:0:
247,245,212218,1,0,1:0:0:0:
87,237,212391,5,0,1:0:0:0:
156,161,212563,1,2,0:0:0:0:
25,106,212736,1,8,1:0:0:0:
126,37,212908,1,2,0:0:0:0:
81,191,213080,5,2,0:0:0:0:
167,136,213252,1,0,1:0:0:0:
55,49,213425,1,8,1:0:0:0:
170,8,213597,1,0,0:0:0:0:
142,143,213770,5,0,1:0:0:0:
275,184,213943,1,2,0:0:0:0:
248,87,214115,1,8,1:0:0:0:
348,86,214287,1,2,0:0:0:0:
158,115,214460,5,2,0:0:0:0:
276,189,214633,1,0,1:0:0:0:
275,88,214805,1,8,1:0:0:0:
372,113,214977,1,0,1:0:0:0:
355,278,215149,5,0,1:0:0:0:
447,225,215322,1,2,0:0:0:0:
321,163,215494,1,8,1:0:0:0:
278,72,215667,1,2,0:0:0:0:
329,300,215839,5,2,0:0:0:0:
431,273,216012,1,0,1:0:0:0:
326,180,216184,1,8,1:0:0:0:
308,81,216357,1,0,0:0:0:0:
411,154,216529,5,0,1:0:0:0:
316,222,216701,1,2,0:0:0:0:
235,196,216874,1,8,1:0:0:0:
246,283,217046,1,2,0:0:0:0:
415,195,217218,5,2,0:0:0:0:
306,236,217390,1,0,1:0:0:0:
234,190,217563,1,8,1:0:0:0:
222,277,217735,1,0,1:0:0:0:
133,207,217908,5,0,1:0:0:0:
118,343,218080,1,0,0:0:0:0:
118,343,218167,1,0,0:0:0:0:
118,343,218253,1,8,1:0:0:0:
38,239,218425,5,0,0:0:0:0:
202,323,218597,1,0,0:0:0:0:
202,323,218684,1,0,0:0:0:0:
202,323,218770,1,0,1:0:0:0:
215,214,218943,5,8,1:0:0:0:
46,313,219115,1,0,0:0:0:0:
334,347,219287,5,0,1:0:0:0:
123,253,219460,1,0,1:0:0:0:
370,196,219632,5,2,3:0:0:0:
251,343,219805,1,0,1:0:0:0:
451,272,219977,5,2,3:0:0:0:
246,122,220149,1,2,3:0:0:0:
458,51,220322,5,0,1:0:0:0:
279,241,220494,1,0,1:0:0:0:
114,176,220667,5,4,1:0:0:0:
