osu file format v14

[General]
AudioFilename: Suara - fu an te i na ka mi sa ma.mp3
AudioLeadIn: 0
PreviewTime: 125530
Countdown: 0
SampleSet: Soft
StackLeniency: 0.7
Mode: 0
LetterboxInBreaks: 0
WidescreenStoryboard: 1

[Editor]
Bookmarks: -47
DistanceSpacing: 1.4
BeatDivisor: 4
GridSize: 4
TimelineZoom: 3.099999

[Metadata]
Title:fuantei na kamisama
TitleUnicode:不安定な神様
Artist:Suara
ArtistUnicode:Suara
Creator:Usami Sumireko
Version:Dnec
Source:うたわれるもの 偽りの仮面
Tags:うたわれるもの
BeatmapID:820761
BeatmapSetID:374681

[Difficulty]
HPDrainRate:7
CircleSize:4
OverallDifficulty:8
ApproachRate:9.3
SliderMultiplier:1.4
SliderTickRate:1

[Events]
//Background and Video events
0,0,"48-151024094S5.jpg",0,0
//Break Periods
2,17845,19398
2,151884,159976
2,172652,175938
2,208615,210746
//Storyboard Layer 0 (Background)
//Storyboard Layer 1 (Fail)
//Storyboard Layer 2 (Pass)
//Storyboard Layer 3 (Foreground)
//Storyboard Sound Samples

[TimingPoints]
145,384.617850114424,4,2,1,60,1,0
245,-50,4,2,1,60,0,0
3606,-50,4,2,3,60,0,0
7068,-200,4,2,1,60,0,0
8125,-100,4,1,2,60,0,0
8798,-100,4,1,2,5,0,0
9375,-100,4,2,3,60,0,0
14375,-100,4,1,2,100,0,0
14952,-100,4,2,3,60,0,0
25914,-100,4,1,0,60,0,0
26587,-100,4,2,3,60,0,0
55241,-66.6666666666667,4,2,1,60,0,0
55818,-50,4,2,1,60,0,0
56876,-66.6666666666667,4,2,1,60,0,0
59472,-133.333333333333,4,2,1,60,0,0
62453,-66.6666666666667,4,2,1,60,0,0
63606,-66.6666666666667,4,2,1,60,0,1
75145,-50,4,2,1,60,0,1
75722,-66.6666666666667,4,2,1,60,0,1
83222,-50,4,2,1,60,0,1
86107,-66.6666666666667,4,2,1,60,0,1
89568,-100,4,2,3,60,0,0
99664,-50,4,2,1,60,0,0
100530,-66.6666666666667,4,2,1,60,0,0
102837,-100,4,2,1,60,0,0
111107,-66.6666666666667,4,2,1,60,0,0
112261,-100,4,2,1,60,0,0
118607,-50,4,2,1,60,0,0
119184,-66.6666666666667,4,2,1,60,0,0
122068,-133.333333333333,4,2,1,60,0,0
122741,-100,4,2,1,60,0,0
125530,-66.6666666666667,4,2,1,60,0,1
144472,-50,4,2,1,60,0,1
149761,-200,4,2,1,60,0,1
152069,-100,4,2,1,60,0,0
177838,-66.6666666666667,4,2,1,60,0,0
188223,-66.6666666666667,4,2,1,60,0,1
190338,-50,4,2,1,60,0,1
192838,-66.6666666666667,4,2,1,60,0,1
193223,-50,4,2,1,60,0,1
199280,-66.6666666666667,4,2,1,60,0,1
202742,-50,4,2,1,60,0,1
209761,-100,4,2,3,60,0,0

[Colours]
Combo1 : 255,255,255
Combo2 : 241,1,7
Combo3 : 5,5,240

[HitObjects]
132,132,2645,5,0,0:0:0:0:
72,276,2837,6,0,B|120:256|164:276|164:276|244:240,1,140
440,108,3221,6,0,B|392:128|348:108|348:108|268:144,1,140
436,288,3606,2,4,B|396:332|348:332|320:276|272:324|272:324|212:308|220:236,1,280,4|0,0:0|0:0,0:0:0:0:
76,60,4183,5,0,0:0:0:0:
196,104,4375,1,0,0:0:0:0:
436,324,4696,5,0,0:0:0:0:
316,280,4888,1,0,0:0:0:0:
340,152,5721,5,0,0:0:0:0:
196,224,5914,2,0,P|160:160|196:96,1,140
316,224,6298,2,0,P|352:160|316:96,1,140
172,216,6683,2,4,B|104:224|104:224|132:264|184:292|268:324|336:308,1,280,4|0,0:0|0:0,0:0:0:0:
244,280,7260,1,0,0:0:0:0:
368,192,7452,1,0,0:0:0:0:
248,68,7645,1,0,0:0:0:0:
244,280,7837,1,0,0:0:0:0:
148,160,8029,1,0,0:0:0:0:
108,320,8221,2,2,B|176:324|192:284|192:284|256:336|268:284|320:324|320:324|392:300,1,280,4|4,0:0|0:0,0:0:0:0:
244,96,9568,5,0,0:0:0:0:
384,280,9760,5,8,0:0:0:0:
416,180,9952,1,0,0:0:0:0:
416,180,10048,1,0,0:0:0:0:
416,180,10145,1,0,0:0:0:0:
264,260,10337,1,8,0:0:0:0:
268,144,10529,1,0,0:0:0:0:
340,168,10721,2,0,L|267:147|267:147,1,70
344,344,11106,1,8,0:0:0:0:
248,260,11298,1,0,0:0:0:0:
351,187,11491,2,0,L|403:251,1,70,2|0,0:0|0:0,0:0:0:0:
392,272,11779,1,0,0:0:0:0:
372,296,11875,1,8,0:0:0:0:
208,204,12068,6,0,P|232:164|276:164,1,70
300,320,12452,1,8,0:0:0:0:
380,172,12645,1,8,0:0:0:0:
220,120,12837,1,2,0:0:0:0:
220,120,12933,1,2,0:0:0:0:
220,120,13029,1,2,0:0:0:0:
216,332,13222,1,0,0:0:0:0:
56,216,13414,1,8,0:0:0:0:
208,148,13606,2,0,P|228:188|264:200,1,70
292,200,13895,1,0,0:0:0:0:
320,168,13991,2,0,L|404:144,1,70
468,208,14375,2,0,B|416:228|412:300|412:300|296:284|184:360|148:272|148:272|104:256|72:344,1,490,4|0,0:0|0:0,0:0:0:0:
264,164,17452,5,4,0:0:0:0:
264,164,17645,1,4,0:0:0:0:
123,41,19952,5,0,0:0:0:0:
123,41,20145,2,0,P|104:68|95:98,2,35
77,132,20529,5,0,0:0:0:0:
59,200,20722,5,0,0:0:0:0:
56,241,20818,1,0,0:0:0:0:
78,276,20914,2,0,L|121:252,1,35
133,379,21106,1,0,0:0:0:0:
170,357,21202,1,0,0:0:0:0:
210,341,21298,2,0,L|249:343,1,35
316,302,21491,2,0,L|359:302,1,35
452,246,21683,1,0,0:0:0:0:
451,364,21875,1,0,0:0:0:0:
376,103,22068,5,0,0:0:0:0:
372,221,22260,1,0,0:0:0:0:
337,245,22356,1,0,0:0:0:0:
298,260,22452,2,0,P|242:255|240:254,1,35
290,142,22645,1,0,0:0:0:0:
330,152,22741,1,0,0:0:0:0:
363,177,22837,1,0,0:0:0:0:
385,212,22933,1,0,0:0:0:0:
393,253,23030,1,0,0:0:0:0:
384,293,23126,1,0,0:0:0:0:
362,328,23222,2,0,L|323:353,1,35
91,217,23414,2,0,L|138:194,1,35
248,149,23606,1,0,0:0:0:0:
86,98,23798,1,0,0:0:0:0:
123,79,23895,1,0,0:0:0:0:
160,59,23991,1,0,0:0:0:0:
184,202,24183,1,0,0:0:0:0:
98,285,24375,1,0,0:0:0:0:
131,310,24472,1,0,0:0:0:0:
169,325,24568,1,0,0:0:0:0:
210,329,24664,1,0,0:0:0:0:
251,322,24760,2,0,L|282:278,1,35
472,210,24952,2,0,L|439:270,1,35
390,33,25145,1,0,0:0:0:0:
464,133,25337,5,0,0:0:0:0:
423,142,25433,1,0,0:0:0:0:
381,149,25529,2,0,L|333:105,1,35
241,302,25722,1,0,0:0:0:0:
212,128,25914,1,2,0:0:0:0:
60,196,26106,1,2,0:0:0:0:
212,272,26299,1,0,0:0:0:0:
360,196,26491,1,0,0:0:0:0:
496,264,26683,6,0,P|450:333|378:361,1,140
358,174,27260,5,2,0:0:0:0:
379,299,27452,2,0,P|315:319|263:287,1,105
243,135,27837,5,2,0:0:0:0:
212,258,28029,1,0,0:0:0:0:
382,228,28222,2,0,P|407:232|445:267,1,70
508,240,28606,2,0,P|497:300|474:321,1,70
325,243,28991,2,0,B|236:235|211:272|211:272|240:261,1,140
191,151,29568,5,2,0:0:0:0:
86,90,29760,2,0,P|33:102|12:124,1,70
72,286,30145,1,0,0:0:0:0:
77,171,30337,5,2,0:0:0:0:
275,147,30529,2,0,P|260:209|214:237,1,105
157,180,30914,5,2,0:0:0:0:
333,94,31106,1,2,0:0:0:0:
344,298,31299,2,0,P|394:279|438:237,1,105
274,185,31683,2,0,P|324:145|341:100,1,105
159,15,32068,2,0,P|137:51|136:88,1,70
183,251,32452,1,2,0:0:0:0:
274,185,32645,1,2,0:0:0:0:
304,77,32837,2,0,P|337:137|300:222,1,140
240,286,33414,5,2,0:0:0:0:
428,234,33606,2,0,P|407:178|427:133,1,105
482,183,33991,5,0,0:0:0:0:
338,259,34183,1,0,0:0:0:0:
332,178,34375,2,0,L|246:219,1,70
238,134,34760,2,0,L|166:170,1,70
151,91,35145,2,0,L|52:139,1,105
173,238,35529,5,8,0:0:0:0:
164,343,35722,1,8,0:0:0:0:
288,221,35914,2,0,L|299:303,1,70
173,238,36299,2,0,L|126:292,1,70
261,146,36683,2,0,L|251:227,1,70
378,175,37068,2,0,L|433:247,1,70
263,38,37452,2,0,P|328:18|257:28,1,210
263,38,38222,2,0,L|323:190,1,140,8|0,0:0|0:0,0:0:0:0:
270,271,38799,1,0,0:0:0:0:
171,324,38991,2,8,B|112:299|94:258,1,70,8|0,0:0|0:0,0:0:0:0:
104,270,39279,1,0,0:0:0:0:
97,249,39376,1,0,0:0:0:0:
272,226,39568,1,8,0:0:0:0:
414,146,39760,1,0,0:0:0:0:
378,129,39856,1,0,0:0:0:0:
323,125,39952,1,0,0:0:0:0:
270,140,40049,1,0,0:0:0:0:
229,176,40145,1,8,0:0:0:0:
172,291,40337,5,10,0:0:0:0:
165,86,40530,2,0,L|219:39,1,70,8|0,0:0|0:0,0:0:0:0:
349,244,40818,1,0,0:0:0:0:
349,244,40914,2,0,L|322:318,1,70
175,350,41202,1,0,0:0:0:0:
175,350,41299,2,8,P|155:292|159:224,1,105,8|0,0:0|0:0,0:0:0:0:
195,171,41683,1,2,0:0:0:0:
359,250,41876,5,8,0:0:0:0:
402,73,42068,2,0,P|381:141|331:170,1,105
247,341,42452,2,0,P|221:290|218:249,1,70
145,310,42741,1,0,0:0:0:0:
145,310,42837,2,8,P|140:266|163:215,1,70,8|0,0:0|0:0,0:0:0:0:
308,140,43222,1,8,0:0:0:0:
363,339,43414,1,8,0:0:0:0:
363,339,43606,2,0,L|336:254,1,70
419,60,43991,2,0,L|461:185,1,105
226,265,44376,2,0,L|178:200,1,70
322,240,44760,1,8,0:0:0:0:
267,114,44953,1,8,0:0:0:0:
152,290,45145,2,0,P|75:313|16:285,1,140,2|0,0:0|0:0,0:0:0:0:
193,113,45722,5,0,0:0:0:0:
86,211,45914,1,8,0:0:0:0:
91,252,46010,1,0,0:0:0:0:
111,288,46106,1,0,0:0:0:0:
144,127,46299,1,0,0:0:0:0:
192,231,46491,1,8,0:0:0:0:
344,168,46683,2,0,P|310:213|323:281,1,105,8|0,0:0|0:0,0:0:0:0:
411,149,47068,2,0,P|383:109|339:103,1,70
386,234,47356,1,0,0:0:0:0:
386,234,47452,2,2,L|353:319,1,70,8|2,0:0|0:0,0:0:0:0:
256,115,47837,5,8,0:0:0:0:
255,265,48030,1,8,0:0:0:0:
144,193,48222,2,0,P|136:260|106:288,1,105
256,115,48606,2,0,L|307:178,1,70,8|0,0:0|0:0,0:0:0:0:
326,293,48991,1,8,0:0:0:0:
326,293,49087,1,0,0:0:0:0:
326,293,49183,1,0,0:0:0:0:
204,334,49376,1,0,0:0:0:0:
111,222,49568,2,0,B|251:214|299:258|267:318|267:318|211:374|211:374|199:310,1,350,2|0,0:0|0:0,0:0:0:0:
184,84,50722,1,8,0:0:0:0:
428,164,50914,1,8,0:0:0:0:
248,332,51106,1,8,0:0:0:0:
184,84,51299,6,4,P|172:192|204:152,1,315,4|0,0:0|0:0,0:0:0:0:
368,152,52260,1,8,0:0:0:0:
192,152,52453,1,2,0:0:0:0:
328,188,52837,6,4,B|388:216|420:208|472:180|464:132|424:68|500:136|516:212|516:212|500:252,1,280,4|0,0:0|0:0,0:0:0:0:
216,340,53991,5,8,0:0:0:0:
288,280,54376,2,0,B|268:244|268:244|204:248|184:204|184:204|224:176|224:176|248:80,1,280
400,84,55337,1,8,0:0:0:0:
420,120,55433,1,0,0:0:0:0:
440,156,55529,2,8,B|444:184|444:184|396:248,1,105.000004005432,0|0,0:0|0:0,0:0:0:0:
229,86,55914,2,0,P|167:137|187:266,1,210
196,276,56299,2,0,B|212:310|246:311|246:311|341:233,1,140
281,131,56683,1,8,0:0:0:0:
309,331,57068,5,2,0:0:0:0:
118,234,57260,1,2,0:0:0:0:
214,165,57453,1,8,0:0:0:0:
230,191,57549,1,0,0:0:0:0:
252,212,57645,1,0,0:0:0:0:
279,226,57741,1,0,0:0:0:0:
309,232,57837,1,0,0:0:0:0:
384,132,58029,1,0,0:0:0:0:
234,84,58222,1,0,0:0:0:0:
206,264,58414,1,0,0:0:0:0:
168,153,58606,1,0,0:0:0:0:
324,180,58799,5,0,0:0:0:0:
256,346,58991,1,8,0:0:0:0:
256,346,59087,1,8,0:0:0:0:
256,346,59183,1,8,0:0:0:0:
245,189,59376,1,0,0:0:0:0:
389,246,59568,1,0,0:0:0:0:
397,221,59664,1,0,0:0:0:0:
404,195,59760,1,0,0:0:0:0:
410,169,59856,1,0,0:0:0:0:
414,142,59953,1,0,0:0:0:0:
244,301,60145,1,0,0:0:0:0:
261,88,60337,5,0,0:0:0:0:
350,340,60530,2,0,L|402:308,1,52.5000020027161
412,81,60914,2,0,L|350:118,1,52.5000020027161
192,244,61299,1,0,0:0:0:0:
373,307,61587,1,0,0:0:0:0:
373,307,61683,1,0,0:0:0:0:
269,182,61876,1,0,0:0:0:0:
330,113,62068,2,0,P|357:158|357:203,1,78.7500030040742
99,208,62453,2,0,B|143:200|179:220|179:220|203:188,1,105.000004005432
302,32,62837,1,0,0:0:0:0:
233,284,63030,1,0,0:0:0:0:
317,110,63222,1,0,0:0:0:0:
164,313,63414,1,0,0:0:0:0:
345,184,63606,1,0,0:0:0:0:
363,227,63799,5,0,0:0:0:0:
376,273,63991,1,0,0:0:0:0:
387,318,64183,2,0,P|335:347|326:351,1,52.5000020027161
292,280,64376,2,0,P|237:294|225:293,1,52.5000020027161
234,216,64568,2,0,P|181:207|152:192,1,52.5000020027161
101,229,64760,2,0,P|133:276|168:288,1,52.5000020027161
164,342,64953,2,0,P|194:359|244:366,1,52.5000020027161
210,141,65145,2,0,P|269:186|367:202,1,157.500006008148
429,190,65530,2,0,L|421:269,1,52.5000020027161
500,248,65722,2,0,L|491:325,1,52.5000020027161
302,234,65914,2,0,P|297:293|273:338,1,105.000004005432
162,247,66203,1,0,0:0:0:0:
162,247,66299,2,0,P|150:214|163:181,1,52.5000020027161
302,85,66491,2,0,L|357:69,1,52.5000020027161
357,113,66683,2,0,L|408:99,1,52.5000020027161
412,141,66876,2,0,L|479:120,1,52.5000020027161
244,233,67068,5,0,0:0:0:0:
327,130,67260,1,0,0:0:0:0:
327,130,67356,1,0,0:0:0:0:
327,130,67453,1,0,0:0:0:0:
328,279,67645,1,0,0:0:0:0:
165,191,67837,1,0,0:0:0:0:
203,337,68030,1,0,0:0:0:0:
431,230,68222,2,0,P|445:288|429:341,1,105.000004005432
244,230,68606,1,0,0:0:0:0:
275,128,68799,1,0,0:0:0:0:
275,128,68895,1,0,0:0:0:0:
275,128,68991,1,0,0:0:0:0:
340,212,69183,1,0,0:0:0:0:
179,295,69376,1,0,0:0:0:0:
180,107,69568,1,0,0:0:0:0:
179,267,69760,1,0,0:0:0:0:
219,58,69953,1,0,0:0:0:0:
99,127,70145,2,0,P|52:82|48:42,1,105.000004005432
0,162,70433,1,0,0:0:0:0:
0,162,70530,1,0,0:0:0:0:
0,162,70626,1,0,0:0:0:0:
78,223,70722,2,0,P|140:205|173:212,1,52.5000020027161
222,200,70914,2,0,P|253:204|287:229,1,52.5000020027161
348,265,71106,2,0,P|364:290|369:338,1,52.5000020027161
126,205,71299,6,0,P|174:141|139:77,1,157.500006008148
125,126,71683,1,0,0:0:0:0:
296,88,71876,1,0,0:0:0:0:
400,209,72068,2,0,B|448:185|456:149|456:149|416:161,1,105.000004005432
180,272,72453,1,0,0:0:0:0:
152,256,72549,5,0,0:0:0:0:
132,232,72645,1,0,0:0:0:0:
286,275,72837,2,0,P|252:344|177:362,1,157.500006008148
224,201,73222,1,0,0:0:0:0:
383,275,73414,1,0,0:0:0:0:
356,291,73510,1,0,0:0:0:0:
323,293,73607,2,0,P|265:236|291:160,1,157.500006008148
230,334,73991,5,0,0:0:0:0:
342,217,74183,1,0,0:0:0:0:
174,86,74376,2,0,L|164:149,1,52.5000020027161
405,330,74568,2,0,L|416:264,1,52.5000020027161
80,35,74760,2,0,L|70:98,1,52.5000020027161
320,277,74952,2,0,L|331:211,1,52.5000020027161
144,128,75145,6,0,B|156:184|168:168|168:168|252:144|276:216,1,140
268,195,75433,1,0,0:0:0:0:
280,220,75530,1,0,0:0:0:0:
274,247,75626,1,0,0:0:0:0:
226,341,75722,2,0,L|193:372,4,26.2500010013581
208,90,76107,1,0,0:0:0:0:
302,283,76299,1,0,0:0:0:0:
295,38,76491,1,0,0:0:0:0:
233,323,76683,1,0,0:0:0:0:
44,186,76876,1,0,0:0:0:0:
265,118,77068,1,0,0:0:0:0:
191,227,77260,1,0,0:0:0:0:
191,227,77453,2,0,B|219:323|159:348|159:348|181:311,1,157.500006008148
276,289,77837,2,0,P|344:270|396:284,1,105.000004005432
279,197,78126,1,0,0:0:0:0:
279,197,78222,2,0,P|169:158|154:108,1,157.500006008148
187,112,78607,1,0,0:0:0:0:
196,268,78799,1,0,0:0:0:0:
196,268,78895,1,0,0:0:0:0:
196,268,78991,2,0,P|132:280|82:265,1,105.000004005432
226,153,79376,1,0,0:0:0:0:
255,349,79568,5,0,0:0:0:0:
328,201,79760,1,0,0:0:0:0:
347,312,79953,1,0,0:0:0:0:
486,282,80145,1,0,0:0:0:0:
226,153,80337,1,0,0:0:0:0:
299,103,80530,2,0,B|320:164|382:148|382:148|463:177,1,157.500006008148
512,197,80914,5,0,0:0:0:0:
363,224,81107,1,0,0:0:0:0:
506,107,81299,2,0,L|380:61,1,105.000004005432
273,210,81683,1,0,0:0:0:0:
291,69,81876,1,0,0:0:0:0:
424,252,82068,2,0,L|399:149,1,105.000004005432
200,302,82453,1,0,0:0:0:0:
230,189,82645,1,0,0:0:0:0:
255,207,82741,1,0,0:0:0:0:
272,232,82837,1,0,0:0:0:0:
283,261,82933,1,0,0:0:0:0:
289,292,83030,5,0,0:0:0:0:
284,323,83126,1,0,0:0:0:0:
266,360,83222,2,0,P|186:385|118:333,1,140
322,136,83607,1,0,0:0:0:0:
322,136,83703,1,0,0:0:0:0:
322,136,83799,1,0,0:0:0:0:
236,248,83991,2,0,P|329:288|385:247,1,140
169,128,84376,2,0,L|124:197,3,70
268,209,84760,1,0,0:0:0:0:
390,54,84953,1,0,0:0:0:0:
453,154,85145,2,0,L|394:290,1,140
184,214,85530,2,0,P|220:140|290:126,1,140
322,271,85818,1,0,0:0:0:0:
322,271,85914,2,0,L|199:387,1,140
240,236,86299,5,0,0:0:0:0:
375,203,86491,1,0,0:0:0:0:
170,128,86684,2,0,L|95:30,1,105.000004005432
283,117,86972,1,0,0:0:0:0:
283,117,87068,2,0,L|252:193,1,52.5000020027161
199,51,87260,2,0,L|229:-21,1,52.5000020027161
348,72,87453,2,0,L|368:137,1,52.5000020027161
454,110,87645,2,0,L|478:180,1,52.5000020027161
394,209,87837,1,0,0:0:0:0:
401,233,87934,1,0,0:0:0:0:
409,258,88030,1,0,0:0:0:0:
418,281,88126,1,0,0:0:0:0:
428,305,88222,1,0,0:0:0:0:
428,305,88414,1,0,0:0:0:0:
272,192,91299,5,4,0:0:0:0:
272,192,91491,1,4,0:0:0:0:
123,41,93799,5,0,0:0:0:0:
123,41,93992,2,0,P|104:68|95:98,2,35
77,132,94376,5,0,0:0:0:0:
59,200,94569,5,0,0:0:0:0:
56,241,94665,1,0,0:0:0:0:
66,279,94760,1,0,0:0:0:0:
186,325,94953,1,0,0:0:0:0:
207,289,95049,1,0,0:0:0:0:
243,268,95145,1,0,0:0:0:0:
284,274,95241,1,0,0:0:0:0:
318,297,95337,2,0,L|340:350,1,35
453,345,95530,1,0,0:0:0:0:
396,211,95722,1,0,0:0:0:0:
476,128,95915,5,0,0:0:0:0:
299,201,96107,1,0,0:0:0:0:
257,208,96203,1,0,0:0:0:0:
215,208,96299,2,0,P|181:187|171:172,1,35
290,142,96492,1,0,0:0:0:0:
330,152,96588,1,0,0:0:0:0:
363,177,96684,1,0,0:0:0:0:
385,212,96780,1,0,0:0:0:0:
393,253,96877,1,0,0:0:0:0:
384,293,96973,1,0,0:0:0:0:
362,328,97069,2,0,L|323:353,1,35
91,217,97261,2,0,L|138:194,1,35
248,149,97453,1,0,0:0:0:0:
86,98,97645,1,0,0:0:0:0:
123,79,97742,1,0,0:0:0:0:
160,59,97838,1,0,0:0:0:0:
184,202,98030,1,0,0:0:0:0:
98,285,98222,1,0,0:0:0:0:
131,310,98319,1,0,0:0:0:0:
169,325,98415,1,0,0:0:0:0:
210,329,98511,1,0,0:0:0:0:
251,322,98607,2,0,L|282:278,1,35
472,210,98799,2,0,L|439:270,1,35
390,33,98992,1,0,0:0:0:0:
374,71,99087,1,0,0:0:0:0:
359,110,99184,1,0,0:0:0:0:
343,149,99280,1,0,0:0:0:0:
325,186,99376,2,0,L|304:236,1,35
88,152,99569,5,0,0:0:0:0:
128,156,99664,1,0,0:0:0:0:
159,185,99761,2,0,L|165:231,1,35
204,197,99857,2,0,L|242:229,1,35
247,181,99953,2,0,L|290:175,1,35
263,145,100049,2,0,L|285:112,1,35
251,108,100145,2,0,L|242:62,1,35
220,83,100241,2,0,L|188:57,1,35
118,225,100337,1,0,0:0:0:0:
131,265,100434,1,0,0:0:0:0:
155,298,100530,2,0,P|196:329|284:304,1,105.000004005432
223,248,100914,2,0,P|191:182|202:142,1,105.000004005432
269,182,101203,1,0,0:0:0:0:
311,106,101299,6,0,P|347:142|351:174,1,52.5000020027161
447,190,101491,2,0,P|419:158|411:122,1,52.5000020027161
439,20,101684,6,0,P|484:63|494:126,1,105.000004005432
394,329,102068,2,0,P|310:353|270:340,1,105.000004005432
279,326,102453,2,0,P|223:298|207:234,1,105.000004005432
285,90,102837,1,0,0:0:0:0:
323,198,103030,1,0,0:0:0:0:
363,188,103126,1,0,0:0:0:0:
396,162,103222,6,0,P|428:205|416:243,1,70
415,241,103511,1,0,0:0:0:0:
399,262,103607,2,0,L|344:338,2,70
165,162,104184,1,0,0:0:0:0:
116,169,104280,1,0,0:0:0:0:
75,197,104376,2,0,P|110:231|151:244,1,70
236,284,104761,2,0,P|198:335|166:355,1,70
196,112,105145,6,0,B|196:52|196:52,2,35
330,191,105530,5,0,0:0:0:0:
330,191,105626,1,0,0:0:0:0:
330,191,105722,1,0,0:0:0:0:
236,284,105914,2,0,P|201:240|196:201,1,70
392,184,106299,5,0,0:0:0:0:
352,148,106395,1,0,0:0:0:0:
304,128,106491,1,0,0:0:0:0:
352,296,106684,2,0,P|312:332|268:340,1,70
200,128,107068,6,0,P|228:144|252:184,1,70
143,286,107453,1,0,0:0:0:0:
184,340,107645,2,0,P|156:318|146:259,1,70
256,217,108030,5,0,0:0:0:0:
370,153,108222,1,0,0:0:0:0:
338,117,108318,1,0,0:0:0:0:
294,101,108414,1,0,0:0:0:0:
362,271,108607,2,0,B|413:275|452:243,1,70
294,200,108991,1,0,0:0:0:0:
439,109,109184,1,0,0:0:0:0:
492,240,109376,6,0,P|486:288|455:314,1,70
259,339,109761,1,0,0:0:0:0:
296,123,109953,1,0,0:0:0:0:
208,163,110145,2,0,L|148:243,1,70
166,219,110434,1,0,0:0:0:0:
166,219,110530,1,0,0:0:0:0:
232,331,110722,5,0,0:0:0:0:
336,158,110914,1,0,0:0:0:0:
173,153,111107,2,0,B|121:217|121:217|81:152|81:152|129:84|129:84|283:123|283:123|205:237,1,525.000020027161
207,36,112261,5,0,0:0:0:0:
333,163,112453,1,0,0:0:0:0:
246,340,112645,1,0,0:0:0:0:
239,294,112838,6,0,P|275:321|327:322,1,70
382,153,113222,2,0,L|316:183,1,70
298,325,113607,1,0,0:0:0:0:
187,232,113799,2,0,L|247:206,1,35
230,176,113991,2,0,L|194:183,1,35
190,150,114184,2,0,L|229:121,1,35
187,105,114376,2,0,B|80:139|93:241|93:241|69:287|132:333|132:333,1,280
332,172,115338,5,0,0:0:0:0:
373,180,115434,1,0,0:0:0:0:
398,212,115530,2,0,P|408:248|394:276,1,70
284,292,115914,2,0,L|211:253,1,70
153,335,116299,1,0,0:0:0:0:
148,221,116491,2,0,P|187:182|218:176,1,70
370,313,116876,1,0,0:0:0:0:
172,311,117068,1,0,0:0:0:0:
248,146,117261,1,0,0:0:0:0:
284,268,117453,6,0,L|228:268,1,35
304,100,117645,2,0,L|344:100,1,35
200,172,117838,2,0,L|156:128,1,35
380,232,118030,2,0,L|412:280,1,35
212,288,118222,1,0,0:0:0:0:
176,212,118607,2,0,P|132:231|104:219,1,70
132,147,118799,2,0,P|164:87|188:83,1,70
212,143,118991,2,0,P|252:171|260:231,1,70
300,356,119184,2,0,B|344:344|320:328|308:304|308:248,1,105.000004005432
287,148,119568,1,0,0:0:0:0:
279,106,119664,1,0,0:0:0:0:
292,65,119761,2,0,B|324:37|324:37|376:84|346:146,1,157.500006008148
267,212,120145,5,0,0:0:0:0:
386,72,120338,2,0,P|438:107|454:141,2,52.5000020027161
461,128,120626,1,0,0:0:0:0:
476,166,120722,1,0,0:0:0:0:
476,207,120818,1,0,0:0:0:0:
457,245,120915,2,0,P|417:281|328:285,1,105.000004005432
314,228,121299,1,0,0:0:0:0:
136,251,121491,1,0,0:0:0:0:
224,201,121684,1,0,0:0:0:0:
86,338,121876,1,0,0:0:0:0:
66,186,122068,2,0,P|46:217|43:252,1,52.5000020027161
196,266,122453,2,0,P|175:296|170:324,1,52.5000020027161
321,326,122838,2,0,L|306:388,2,35
345,308,123126,1,0,0:0:0:0:
370,289,123222,2,0,L|389:199,1,70
224,240,123607,1,0,0:0:0:0:
224,240,123703,1,0,0:0:0:0:
224,240,123799,1,0,0:0:0:0:
194,155,123991,1,0,0:0:0:0:
259,328,124184,1,0,0:0:0:0:
372,192,124376,2,0,P|372:168|332:132,1,70
324,132,124665,1,0,0:0:0:0:
276,132,124761,1,0,0:0:0:0:
304,132,124857,1,0,0:0:0:0:
256,132,124953,1,0,0:0:0:0:
276,132,125049,1,0,0:0:0:0:
232,132,125145,1,0,0:0:0:0:
260,300,125338,5,0,0:0:0:0:
324,48,125530,1,0,0:0:0:0:
176,236,125722,1,0,0:0:0:0:
420,168,125915,1,0,0:0:0:0:
387,142,126011,1,0,0:0:0:0:
345,134,126107,1,0,0:0:0:0:
183,298,126299,2,0,P|199:342|296:368,1,105.000004005432
197,163,126684,6,0,L|125:199,1,52.5000020027161
264,295,126876,2,0,L|292:230,1,52.5000020027161
253,117,127068,2,0,L|197:91,1,52.5000020027161
110,239,127261,1,0,0:0:0:0:
132,274,127357,1,0,0:0:0:0:
167,295,127453,2,0,P|218:313|282:294,1,105.000004005432
259,137,127838,2,0,L|213:167,1,52.5000020027161
349,219,128030,2,0,L|344:152,1,52.5000020027161
163,216,128222,5,0,0:0:0:0:
352,293,128415,1,0,0:0:0:0:
225,349,128607,1,0,0:0:0:0:
225,349,128703,1,0,0:0:0:0:
222,344,128799,1,0,0:0:0:0:
256,185,128992,1,0,0:0:0:0:
81,162,129184,1,0,0:0:0:0:
132,277,129376,1,0,0:0:0:0:
333,124,129568,1,0,0:0:0:0:
132,277,129761,2,0,B|133:308|133:308|181:269|198:180,1,157.500006008148
183,77,130145,1,0,0:0:0:0:
276,145,130338,1,0,0:0:0:0:
276,145,130434,1,0,0:0:0:0:
276,145,130530,6,0,P|376:154|460:162,1,157.500006008148
329,250,130915,1,0,0:0:0:0:
508,170,131107,1,0,0:0:0:0:
382,321,131299,1,0,0:0:0:0:
272,167,131491,1,0,0:0:0:0:
379,188,131684,2,0,P|415:259|384:312,1,105.000004005432
409,279,131972,1,0,0:0:0:0:
409,279,132069,1,0,0:0:0:0:
262,315,132261,1,0,0:0:0:0:
136,227,132453,2,0,P|145:158|183:117,1,105.000004005432
361,133,132838,2,0,P|329:181|225:205,1,157.500006008148
317,45,133222,2,0,L|454:46,1,105.000004005432
361,133,133511,1,0,0:0:0:0:
361,133,133607,2,0,P|300:177|292:231,1,105.000004005432
112,216,133992,1,0,0:0:0:0:
189,56,134184,1,0,0:0:0:0:
312,160,134376,6,0,P|322:258|266:324,1,157.500006008148
122,224,134761,1,0,0:0:0:0:
164,363,134953,1,0,0:0:0:0:
209,227,135145,2,0,L|298:338,1,105.000004005432
285,321,135434,1,0,0:0:0:0:
299,338,135530,5,0,0:0:0:0:
349,94,135722,1,0,0:0:0:0:
331,106,135818,1,0,0:0:0:0:
314,116,135915,2,0,L|294:183,1,52.5000020027161
214,147,136107,2,0,L|192:213,1,52.5000020027161
104,186,136299,2,0,L|81:251,1,52.5000020027161
158,298,136492,2,0,L|135:367,1,52.5000020027161
329,312,136684,2,0,P|332:266|281:195,2,105.000004005432
231,228,137261,1,0,0:0:0:0:
112,261,137453,1,0,0:0:0:0:
236,112,137646,2,0,L|193:166,1,52.5000020027161
285,291,137838,2,0,L|330:238,1,52.5000020027161
266,181,138030,1,0,0:0:0:0:
373,76,138222,1,0,0:0:0:0:
379,358,138415,1,0,0:0:0:0:
141,237,138607,1,0,0:0:0:0:
157,263,138703,1,0,0:0:0:0:
178,286,138799,1,0,0:0:0:0:
203,304,138895,1,0,0:0:0:0:
232,316,138992,2,0,P|315:317|373:245,1,157.500006008148
444,309,139376,5,0,0:0:0:0:
334,113,139569,1,0,0:0:0:0:
274,219,139761,2,0,P|223:153|227:61,1,157.500006008148
107,151,140145,2,0,P|121:216|161:272,1,105.000004005432
207,312,140530,2,0,P|132:335|87:312,2,105.000004005432
336,36,141107,5,0,0:0:0:0:
485,282,141299,1,0,0:0:0:0:
155,198,141492,1,0,0:0:0:0:
252,365,141684,1,0,0:0:0:0:
419,128,141876,1,0,0:0:0:0:
346,60,142069,2,0,P|232:95|203:157,1,157.500006008148
213,121,142453,1,0,0:0:0:0:
232,228,142646,5,0,0:0:0:0:
396,96,142838,2,0,L|348:60,1,52.5000020027161
408,280,143030,2,0,L|464:300,1,52.5000020027161
232,228,143222,2,0,L|210:287,1,52.5000020027161
193,262,143415,2,0,L|150:316,1,52.5000020027161
277,203,143607,2,0,B|277:283|303:293|303:293|363:270|405:309|405:309|470:315|560:223|411:57|366:214,1,525.000020027161
110,152,144761,1,0,0:0:0:0:
255,61,144953,1,0,0:0:0:0:
226,299,145145,2,0,B|308:300|331:248|331:248|312:214,1,140
115,237,145434,1,0,0:0:0:0:
115,237,145530,2,0,P|106:333|133:384,1,140
277,172,145915,1,0,0:0:0:0:
221,344,146107,5,0,0:0:0:0:
165,118,146299,1,0,0:0:0:0:
388,221,146492,1,0,0:0:0:0:
388,221,146684,5,0,0:0:0:0:
356,248,146780,1,0,0:0:0:0:
318,266,146877,1,0,0:0:0:0:
152,180,147069,2,0,L|328:144,1,140
492,240,147453,2,0,L|356:272,1,140
152,180,147838,5,0,0:0:0:0:
341,133,148030,1,0,0:0:0:0:
282,315,148222,2,0,P|210:327|103:298,1,140
122,299,148511,1,0,0:0:0:0:
102,278,148607,1,0,0:0:0:0:
228,69,148799,1,0,0:0:0:0:
259,237,148992,1,0,0:0:0:0:
420,144,149184,1,0,0:0:0:0:
400,148,149280,1,0,0:0:0:0:
380,152,149376,1,0,0:0:0:0:
360,156,149472,1,0,0:0:0:0:
388,176,149569,1,0,0:0:0:0:
404,208,149665,1,0,0:0:0:0:
408,240,149761,2,0,P|304:300|260:124,1,350
216,100,160530,6,0,P|300:84|320:56,1,105
329,52,160915,6,0,P|348:50|372:102,1,70
268,288,161299,1,0,0:0:0:0:
277,261,161396,1,0,0:0:0:0:
278,234,161492,1,0,0:0:0:0:
270,207,161588,1,0,0:0:0:0:
262,179,161684,2,0,P|268:138|296:118,1,70
416,228,162069,2,0,P|413:269|377:301,1,70
303,323,162453,2,0,P|255:335|211:331,1,70
235,335,162742,1,0,0:0:0:0:
235,335,162838,5,0,0:0:0:0:
124,280,163030,1,0,0:0:0:0:
210,95,163222,1,0,0:0:0:0:
236,228,163415,1,0,0:0:0:0:
66,152,163607,6,0,P|106:197|73:238,1,105
306,157,163992,2,0,P|295:107|309:78,1,70
504,179,164376,1,0,0:0:0:0:
484,143,164472,1,0,0:0:0:0:
456,115,164569,1,0,0:0:0:0:
266,197,164761,1,0,0:0:0:0:
428,216,164953,1,0,0:0:0:0:
231,93,165146,2,0,L|211:147,2,35
157,251,165530,1,0,0:0:0:0:
186,269,165626,1,0,0:0:0:0:
220,269,165722,1,0,0:0:0:0:
320,220,165915,2,0,L|362:301,1,70
126,141,166299,6,0,L|91:217,1,70
180,336,166684,2,0,L|140:355,2,35
371,320,167069,1,0,0:0:0:0:
235,228,167261,1,0,0:0:0:0:
318,104,167453,5,0,0:0:0:0:
341,233,167646,1,0,0:0:0:0:
331,266,167742,1,0,0:0:0:0:
313,295,167838,2,0,P|271:327|235:333,1,70
213,132,168126,1,0,0:0:0:0:
246,122,168223,5,0,0:0:0:0:
279,112,168319,1,0,0:0:0:0:
313,112,168415,1,0,0:0:0:0:
346,121,168511,1,0,0:0:0:0:
374,140,168607,2,0,B|399:179|434:192,1,70
299,271,168992,2,0,P|253:239|190:252,1,105
352,328,169376,1,0,0:0:0:0:
412,165,169569,1,0,0:0:0:0:
359,172,169665,1,0,0:0:0:0:
315,153,169761,2,0,P|294:132|288:119,2,35
207,64,170146,2,0,P|167:97|158:138,1,70
245,147,170530,2,0,P|247:188|269:222,2,70
312,64,171107,1,0,0:0:0:0:
91,95,171299,2,0,B|79:166|127:207|127:207|144:264|144:264|191:335|288:330|288:330|376:355,1,420
304,296,176492,5,0,0:0:0:0:
464,204,176684,1,0,0:0:0:0:
382,343,176876,1,0,0:0:0:0:
382,157,177069,1,0,0:0:0:0:
464,296,177261,1,0,0:0:0:0:
301,204,177453,1,0,0:0:0:0:
72,252,178030,5,0,0:0:0:0:
72,144,178223,1,0,0:0:0:0:
376,64,178607,1,0,0:0:0:0:
440,144,178799,2,0,P|424:208|384:248,1,105.000004005432
198,134,179568,5,0,0:0:0:0:
180,318,179760,1,0,0:0:0:0:
325,201,179953,1,0,0:0:0:0:
108,258,180145,1,0,0:0:0:0:
279,127,180337,1,0,0:0:0:0:
263,325,180530,1,0,0:0:0:0:
105,178,180722,1,0,0:0:0:0:
348,182,180914,1,0,0:0:0:0:
172,372,181107,5,0,0:0:0:0:
163,99,181299,1,0,0:0:0:0:
337,330,181491,1,0,0:0:0:0:
85,341,181684,1,0,0:0:0:0:
256,108,181876,1,0,0:0:0:0:
199,383,182068,1,0,0:0:0:0:
199,383,182260,1,0,0:0:0:0:
80,223,182453,1,0,0:0:0:0:
272,185,182645,1,0,0:0:0:0:
334,242,182838,6,0,L|418:322,1,105.000004005432
394,163,183223,6,0,L|306:79,1,105.000004005432
44,206,183607,2,0,B|38:251|62:281|62:281|62:304|62:304|120:328|165:274,1,210.000008010865
93,226,184184,1,0,0:0:0:0:
172,378,184376,2,0,P|268:285|281:204,1,210.000008010865
56,135,185146,2,0,B|53:82|80:48|80:48|94:71|94:71|140:42|221:70,1,210.000008010865
151,160,185723,1,0,0:0:0:0:
115,61,185915,2,0,P|207:64|311:152,1,210.000008010865
176,300,186492,2,0,L|248:304,1,52.5000020027161
325,299,186684,2,0,L|392:292,1,52.5000020027161
428,281,186876,1,0,0:0:0:0:
464,242,186973,1,0,0:0:0:0:
483,187,187069,1,0,0:0:0:0:
470,130,187165,1,0,0:0:0:0:
423,87,187261,1,0,0:0:0:0:
361,72,187357,1,0,0:0:0:0:
305,101,187453,2,0,L|269:205,1,105.000004005432
227,153,187742,6,0,L|268:39,1,105.000004005432
356,212,188030,2,0,L|326:306,1,52.5000020027161
147,237,188223,1,0,0:0:0:0:
207,219,188319,1,0,0:0:0:0:
241,272,188415,1,0,0:0:0:0:
201,321,188511,1,0,0:0:0:0:
141,303,188607,1,0,0:0:0:0:
147,237,188800,5,0,0:0:0:0:
168,72,188993,1,0,0:0:0:0:
230,64,189089,1,0,0:0:0:0:
284,95,189185,1,0,0:0:0:0:
267,220,189377,2,0,P|330:221|377:166,1,105.000004005432
297,144,189665,1,0,0:0:0:0:
297,144,189761,6,0,L|183:193,1,105.000004005432
305,233,190146,1,0,0:0:0:0:
160,283,190338,1,0,0:0:0:0:
383,307,190530,2,0,P|409:238|387:163,1,140
311,41,190915,5,0,0:0:0:0:
491,244,191107,1,0,0:0:0:0:
263,299,191300,1,0,0:0:0:0:
391,127,191493,1,0,0:0:0:0:
196,173,191685,1,0,0:0:0:0:
322,354,191876,5,0,0:0:0:0:
265,346,191973,1,0,0:0:0:0:
211,326,192070,1,0,0:0:0:0:
129,250,192261,1,0,0:0:0:0:
99,85,192453,1,0,0:0:0:0:
293,168,192646,1,0,0:0:0:0:
161,185,192839,6,0,P|216:122|210:29,1,157.500006008148
193,88,193223,1,0,0:0:0:0:
356,64,193415,1,0,0:0:0:0:
356,64,193607,2,0,B|368:120|400:144|400:144|336:180,1,140
324,184,193895,1,0,0:0:0:0:
284,176,193992,2,0,B|252:224|308:252|384:244,1,140
115,161,194377,2,0,P|152:90|114:34,1,140
114,73,194761,1,0,0:0:0:0:
194,178,194953,1,0,0:0:0:0:
247,196,195050,1,0,0:0:0:0:
298,219,195147,1,0,0:0:0:0:
419,169,195339,2,0,L|280:99,1,140
211,161,195723,5,0,0:0:0:0:
408,260,195915,2,0,P|472:188|392:112,1,210
364,320,196300,1,0,0:0:0:0:
164,215,196493,1,0,0:0:0:0:
176,272,196588,1,0,0:0:0:0:
208,317,196684,2,0,P|270:265|246:194,1,140
408,180,197069,1,0,0:0:0:0:
351,58,197261,1,0,0:0:0:0:
310,169,197453,2,0,L|310:313,1,140
318,333,197742,1,0,0:0:0:0:
334,349,197838,2,0,P|422:337|442:277,1,140
172,348,198223,6,0,P|84:336|64:276,1,140
200,256,198608,5,0,0:0:0:0:
244,132,198800,1,0,0:0:0:0:
116,60,198992,2,0,P|104:148|176:188,1,140
184,188,199280,1,0,0:0:0:0:
424,196,199377,2,0,L|464:156,1,52.5000020027161
316,80,199569,2,0,L|264:48,1,52.5000020027161
304,316,199762,6,0,L|232:312,1,52.5000020027161
144,188,199954,2,0,L|208:188,1,52.5000020027161
340,92,200146,1,0,0:0:0:0:
304,96,200242,1,0,0:0:0:0:
268,100,200339,1,0,0:0:0:0:
231,107,200434,1,0,0:0:0:0:
360,264,200530,6,0,P|448:232|464:184,1,105.000004005432
151,219,200915,2,0,L|148:324,1,105.000004005432
392,68,201300,2,0,P|392:144|356:176,1,105.000004005432
104,104,201685,5,0,0:0:0:0:
100,256,201877,1,0,0:0:0:0:
348,296,202069,2,0,P|424:316|452:356,1,105.000004005432
348,88,202453,2,0,P|424:68|452:28,1,105.000004005432
108,120,202838,1,0,0:0:0:0:
292,340,203030,1,0,0:0:0:0:
296,188,203223,2,0,P|360:180|408:252,1,140
416,220,203511,1,0,0:0:0:0:
432,208,203607,6,0,P|416:304|304:360,1,210
144,356,203992,1,0,0:0:0:0:
304,352,204184,1,0,0:0:0:0:
136,332,204377,2,0,B|112:180|112:180|144:136|196:148|248:212,1,280
375,276,204954,5,0,0:0:0:0:
448,20,205146,2,0,P|384:132|288:136,1,210
256,132,205530,5,0,0:0:0:0:
56,80,205723,1,0,0:0:0:0:
56,80,205915,2,0,L|56:288,1,140
448,351,206300,6,0,L|445:199,1,140
100,160,206684,2,0,P|116:256|144:264,1,140
240,236,206973,1,0,0:0:0:0:
280,148,207069,1,0,0:0:0:0:
157,80,207261,5,0,0:0:0:0:
157,80,207357,1,0,0:0:0:0:
157,80,207454,2,0,L|289:152,1,140
436,33,207838,1,0,0:0:0:0:
340,364,208030,1,0,0:0:0:0:
100,116,208223,2,0,L|248:12,1,140
252,192,211300,5,4,0:0:0:0:
252,192,211492,1,4,0:0:0:0:
120,44,214377,6,4,L|76:12,4,35
104,76,214858,1,0,0:0:0:0:
88,108,214954,1,0,0:0:0:0:
76,140,215050,1,0,0:0:0:0:
72,176,215147,1,0,0:0:0:0:
72,212,215243,1,0,0:0:0:0:
80,248,215339,1,0,0:0:0:0:
100,276,215435,1,0,0:0:0:0:
128,300,215531,1,0,0:0:0:0:
160,316,215627,1,0,0:0:0:0:
196,316,215723,1,0,0:0:0:0:
228,300,215820,1,0,0:0:0:0:
240,268,215916,1,0,0:0:0:0:
224,236,216012,1,0,0:0:0:0:
188,228,216108,1,0,0:0:0:0:
160,248,216204,1,0,0:0:0:0:
152,284,216300,1,0,0:0:0:0:
176,312,216397,6,0,L|220:344,3,35
236,344,216781,1,0,0:0:0:0:
272,352,216877,1,0,0:0:0:0:
308,352,216973,1,0,0:0:0:0:
344,348,217069,1,0,0:0:0:0:
372,336,217166,1,0,0:0:0:0:
404,328,217262,1,0,0:0:0:0:
432,308,217358,1,0,0:0:0:0:
448,276,217455,1,0,0:0:0:0:
436,244,217551,1,0,0:0:0:0:
404,228,217647,1,0,0:0:0:0:
368,228,217743,1,0,0:0:0:0:
336,240,217839,1,0,0:0:0:0:
300,248,217935,1,0,0:0:0:0:
264,252,218031,1,0,0:0:0:0:
228,244,218127,1,0,0:0:0:0:
196,228,218223,6,0,P|176:216|160:184,3,35
144,180,218608,1,0,0:0:0:0:
132,148,218704,1,0,0:0:0:0:
144,116,218800,1,0,0:0:0:0:
172,96,218897,1,0,0:0:0:0:
208,96,218993,1,0,0:0:0:0:
244,104,219089,1,0,0:0:0:0:
280,108,219185,1,0,0:0:0:0:
312,96,219281,1,0,0:0:0:0:
340,76,219377,1,0,0:0:0:0:
372,64,219474,1,0,0:0:0:0:
408,60,219570,1,0,0:0:0:0:
440,76,219666,1,0,0:0:0:0:
448,116,219761,2,0,P|456:160|436:196,1,70
92,196,220146,6,0,P|116:128|136:120,1,70
160,120,220435,1,0,0:0:0:0:
208,144,220531,1,0,0:0:0:0:
244,184,220627,1,0,0:0:0:0:
260,236,220723,1,0,0:0:0:0:
240,284,220819,1,0,0:0:0:0:
200,316,220916,1,0,0:0:0:0:
148,304,221012,1,0,0:0:0:0:
116,264,221108,1,0,0:0:0:0:
116,212,221204,1,0,0:0:0:0:
160,180,221300,1,0,0:0:0:0:
208,196,221396,1,0,0:0:0:0:
248,232,221493,6,0,L|244:284,4,35
124,300,222069,2,0,P|72:288|40:252,1,70
28,240,222358,1,0,0:0:0:0:
24,188,222454,1,0,0:0:0:0:
44,140,222551,1,0,0:0:0:0:
76,100,222647,1,0,0:0:0:0:
120,72,222743,1,0,0:0:0:0:
164,48,222839,1,0,0:0:0:0:
212,32,222935,1,0,0:0:0:0:
264,20,223031,1,0,0:0:0:0:
312,20,223127,1,0,0:0:0:0:
364,32,223223,1,0,0:0:0:0:
416,48,223319,6,0,P|432:52|456:64,3,35
476,104,223704,1,0,0:0:0:0:
488,156,223800,1,0,0:0:0:0:
484,208,223896,1,0,0:0:0:0:
452,248,223993,1,0,0:0:0:0:
408,276,224089,1,0,0:0:0:0:
356,284,224185,1,0,0:0:0:0:
304,280,224281,1,0,0:0:0:0:
260,248,224377,1,0,0:0:0:0:
252,196,224473,1,0,0:0:0:0:
244,144,224570,1,0,0:0:0:0:
204,108,224666,1,0,0:0:0:0:
152,100,224762,1,0,0:0:0:0:
100,104,224858,6,0,L|44:104,3,35
88,152,225243,1,0,0:0:0:0:
128,156,225338,1,0,0:0:0:0:
176,176,225434,1,0,0:0:0:0:
224,196,225531,1,0,0:0:0:0:
264,228,225627,1,0,0:0:0:0:
296,264,225723,1,0,0:0:0:0:
324,304,225819,1,0,0:0:0:0:
340,40,225915,6,0,L|324:84,1,35
208,364,226107,1,0,0:0:0:0:
136,252,226300,2,0,L|80:260,2,35
160,312,226588,5,0,0:0:0:0:
216,348,226684,1,0,0:0:0:0:
280,368,226781,1,0,0:0:0:0:
344,384,226877,1,0,0:0:0:0:
412,376,226973,1,0,0:0:0:0:
468,344,227069,1,0,0:0:0:0:
500,284,227165,1,0,0:0:0:0:
488,220,227261,1,0,0:0:0:0:
440,172,227357,1,0,0:0:0:0:
380,200,227454,1,0,0:0:0:0:
328,240,227550,1,0,0:0:0:0:
276,280,227646,1,0,0:0:0:0:
224,320,227742,1,0,0:0:0:0:
164,352,227838,1,0,0:0:0:0:
100,360,227934,1,0,0:0:0:0:
40,332,228031,1,0,0:0:0:0:
12,272,228127,5,0,0:0:0:0:
24,208,228223,1,0,0:0:0:0:
80,168,228319,1,0,0:0:0:0:
144,156,228415,1,0,0:0:0:0:
204,176,228511,1,0,0:0:0:0:
232,236,228608,1,0,0:0:0:0:
196,292,228704,1,0,0:0:0:0:
140,328,228800,1,0,0:0:0:0:
196,360,228896,1,0,0:0:0:0:
264,364,228992,1,0,0:0:0:0:
328,352,229088,1,0,0:0:0:0:
388,320,229184,1,0,0:0:0:0:
428,264,229281,1,0,0:0:0:0:
448,200,229377,2,0,L|404:164,3,35
152,60,229761,6,0,L|236:108,1,70
243,124,230050,1,0,0:0:0:0:
260,160,230146,1,0,0:0:0:0:
220,176,230242,1,0,0:0:0:0:
184,196,230338,1,0,0:0:0:0:
148,216,230434,1,0,0:0:0:0:
184,236,230531,1,0,0:0:0:0:
220,256,230627,1,0,0:0:0:0:
252,284,230723,1,0,0:0:0:0:
272,320,230819,1,0,0:0:0:0:
102,302,230915,2,0,B|94:226|106:210,1,70
120,140,231300,6,0,L|136:116,1,17.5
184,96,231396,2,0,L|208:80,1,17.5
260,96,231492,2,0,L|288:88,1,17.5
320,148,231588,2,0,L|347:163,1,17.5
344,220,231684,2,0,L|367:243,1,17.5
316,292,231781,2,0,L|320:320,1,17.5
248,328,231877,2,0,L|232:344,1,17.5
248,172,232069,5,0,0:0:0:0:
256,192,232261,12,0,234953,0:0:0:0:
