osu file format v14

[General]
AudioFilename: audio.mp3
AudioLeadIn: 0
PreviewTime: 80149
Countdown: 0
SampleSet: Soft
StackLeniency: 0.3
Mode: 0
LetterboxInBreaks: 0
WidescreenStoryboard: 0

[Editor]
DistanceSpacing: 1
BeatDivisor: 4
GridSize: 32
TimelineZoom: 7.399998

[Metadata]
Title:Tenmei no Marionette
TitleUnicode:天命の傀儡
Artist:Suara
ArtistUnicode:Suara
Creator:Xahlt
Version:Insane
Source:うたわれるもの ロストフラグ
Tags:hakashii Utawarerumono lost flag マリオネット kairai kugutsu Japanese Pop j-pop Female Vocal jpop Cut Edit Short Version Ver Video Game Theme Song ost Original Soundtrack sound track 須谷尚子 naoko sudani 衣笠道雄 michio kinugasa 有村健一 kenichi arimura aquaplus aqua plus leaf マリオネット folk rosuto furagu すあら 巽明子 Akiko Tatsumi lantis
BeatmapID:2719802
BeatmapSetID:1312298

[Difficulty]
HPDrainRate:6
CircleSize:3.5
OverallDifficulty:8
ApproachRate:9
SliderMultiplier:1.39999368421053
SliderTickRate:1

[Events]
//Background and Video events
0,0,"bg.jpg",0,0
//Break Periods
//Storyboard Layer 0 (Background)
//Storyboard Layer 1 (Fail)
//Storyboard Layer 2 (Pass)
//Storyboard Layer 3 (Foreground)
//Storyboard Layer 4 (Overlay)
//Storyboard Sound Samples

[TimingPoints]
27492,315.789473684211,3,2,1,50,1,0
27492,-111.111111111111,3,2,1,50,0,0
29386,315.789473684211,3,2,1,50,1,0
29386,-90.9090909090909,3,2,1,60,0,0
43359,-90.9090909090909,3,2,1,5,0,0
43438,-90.9090909090909,3,2,1,60,0,0
43833,-90.9090909090909,3,2,1,5,0,0
43912,-111.111111111111,3,2,1,60,0,0
44228,-111.111111111111,3,2,1,5,0,0
44543,-111.111111111111,3,2,1,50,0,0
47622,-111.111111111111,3,2,1,5,0,0
47701,-111.111111111111,3,2,1,50,0,0
49517,-111.111111111111,3,2,1,5,0,0
49596,-111.111111111111,3,2,1,50,0,0
55201,-111.111111111111,3,2,1,5,0,0
55280,-111.111111111111,3,2,1,50,0,0
57096,-111.111111111111,3,2,1,5,0,0
57175,-111.111111111111,3,2,1,50,0,0
59701,-142.857142857143,3,2,1,50,0,0
60649,-125,3,2,1,50,0,0
60964,-99.9999999999999,3,2,1,50,0,0
61280,-83.3333333333333,3,2,1,50,0,0
61596,-142.857142857143,3,2,1,50,0,0
61991,-142.857142857143,3,2,1,5,0,0
62070,-142.857142857143,3,2,1,50,0,0
62543,-125,3,2,1,50,0,0
62859,-99.9999999999999,3,2,1,50,0,0
63175,-83.3333333333333,3,2,1,50,0,0
63491,-142.857142857143,3,2,1,50,0,0
63728,-142.857142857143,3,2,1,5,0,0
63807,-142.857142857143,3,2,1,50,0,0
64438,-125,3,2,1,50,0,0
64754,-99.9999999999999,3,2,1,50,0,0
65070,-83.3333333333333,3,2,1,50,0,0
65386,-111.111111111111,3,2,1,50,0,0
65938,-111.111111111111,3,2,1,5,0,0
66017,-99.9999999999999,3,2,1,50,0,0
66333,-111.111111111111,3,2,1,50,0,0
66649,-125,3,2,1,50,0,0
66886,-125,3,2,1,5,0,0
66964,-99.9999999999999,3,2,1,60,0,0
68149,-99.9999999999999,3,2,1,5,0,0
68228,-99.9999999999999,3,2,1,60,0,0
70359,-99.9999999999999,3,2,1,5,0,0
70438,-99.9999999999999,3,2,1,60,0,0
72886,-99.9999999999999,3,2,1,5,0,0
72964,-99.9999999999999,3,2,1,60,0,0
75570,-99.9999999999999,3,2,1,5,0,0
75649,-99.9999999999999,3,2,1,60,0,0
80228,-71.4285714285714,3,2,1,70,0,0
80464,-71.4285714285714,3,2,1,5,0,0
80543,-83.3333333333333,3,2,1,80,0,1
81412,-83.3333333333333,3,2,1,5,0,1
81491,-83.3333333333333,3,2,1,80,0,1
81728,-83.3333333333333,3,2,1,5,0,1
81807,-83.3333333333333,3,2,1,80,0,1
82833,-83.3333333333333,3,2,1,5,0,1
82912,-83.3333333333333,3,2,1,80,0,1
83622,-83.3333333333333,3,2,1,5,0,1
83701,-83.3333333333333,3,2,1,80,0,1
85833,-83.3333333333333,3,2,1,5,0,1
85912,-83.3333333333333,3,2,1,80,0,1
87412,-83.3333333333333,3,2,1,5,0,1
87491,-83.3333333333333,3,2,1,80,0,1
88043,-83.3333333333333,3,2,1,5,0,1
88122,-83.3333333333333,3,2,1,80,0,1
93096,-83.3333333333333,3,2,1,5,0,1
93175,-83.3333333333333,3,2,1,80,0,1
93412,-83.3333333333333,3,2,1,5,0,1
93491,-83.3333333333333,3,2,1,80,0,1
95386,-83.3333333333333,3,2,1,80,0,0
95701,-83.3333333333333,3,2,1,80,0,1
95938,-83.3333333333333,3,2,1,5,0,1
96017,-83.3333333333333,3,2,1,80,0,1
96412,-83.3333333333333,3,2,1,5,0,1
96491,-83.3333333333333,3,2,1,80,0,1
96886,-83.3333333333333,3,2,1,5,0,1
96964,-83.3333333333333,3,2,1,80,0,1
97991,-83.3333333333333,3,2,1,5,0,1
98070,-83.3333333333333,3,2,1,80,0,1
98780,-83.3333333333333,3,2,1,5,0,1
98859,-83.3333333333333,3,2,1,80,0,1
100991,-83.3333333333333,3,2,1,5,0,1
101070,-83.3333333333333,3,2,1,80,0,1
101622,-83.3333333333333,3,2,1,5,0,1
101701,-83.3333333333333,3,2,1,80,0,1
103201,-83.3333333333333,3,2,1,5,0,1
103280,-83.3333333333333,3,2,1,80,0,1
108254,-83.3333333333333,3,2,1,5,0,1
108333,-83.3333333333333,3,2,1,80,0,1
108570,-83.3333333333333,3,2,1,5,0,1
108649,-83.3333333333333,3,2,1,80,0,1
110149,-83.3333333333333,3,2,1,5,0,1
110228,-83.3333333333333,3,2,1,80,0,1
110464,-83.3333333333333,3,2,1,5,0,1
110543,-83.3333333333333,3,2,1,80,0,1
112043,-83.3333333333333,3,2,1,5,0,1
112122,-83.3333333333333,3,2,1,80,0,1
118438,-90.9090909090909,3,2,1,70,0,0
130991,-90.9090909090909,3,2,1,5,0,0
131070,-90.9090909090909,3,2,1,70,0,0
132886,-90.9090909090909,3,2,1,5,0,0
132964,-90.9090909090909,3,2,1,70,0,0
133201,-90.9090909090909,3,2,1,5,0,0
133280,-90.9090909090909,3,2,1,70,0,0
134780,-90.9090909090909,3,2,1,5,0,0
134859,-90.9090909090909,3,2,1,70,0,0

[Colours]
Combo1 : 219,146,201
Combo2 : 181,68,172
Combo3 : 235,155,166

[HitObjects]
116,8,27492,6,0,P|127:66|141:134,1,125.99942773375,4|0,3:0|3:0,0:0:0:0:
211,209,27965,1,0,3:0:0:0:
257,96,28123,1,0,3:0:0:0:
246,93,28439,5,2,1:2:0:0:
201,206,28597,1,2,3:2:0:0:
330,225,28755,2,0,L|318:193,1,31.4998569334376,2|0,1:2|1:0,0:0:0:0:
427,133,28913,2,0,L|415:165,1,31.4998569334376,2|0,1:2|1:0,0:0:0:0:
319,231,29070,2,0,L|303:201,1,31.4998569334376,2|0,3:2|3:0,0:0:0:0:
441,139,29228,2,0,L|424:181,1,31.4998569334376,2|0,3:2|3:0,0:0:0:0:
473,344,29386,6,0,P|402:332|312:320,1,153.999309962844,4|0,3:1|3:2,0:0:0:0:
138,316,29859,1,0,3:2:0:0:
213,370,30017,2,0,P|228:334|226:294,1,76.9996549814221,0|0,3:2|0:0,0:0:0:0:
8,240,30333,6,0,B|80:227|80:227|90:231|90:231|160:218,1,153.999309962844,0|2,1:2|3:2,0:0:0:0:
285,225,30807,1,0,1:2:0:0:
233,112,30964,2,0,L|142:96,1,76.9996549814221,2|0,3:2|0:0,0:0:0:0:
351,10,31280,6,0,B|387:53|387:53|354:160,1,153.999309962844,4|2,3:0|3:2,0:0:0:0:
285,225,31754,1,0,3:0:0:0:
454,280,31912,2,0,P|446:242|435:205,1,76.9996549814221,2|0,3:2|0:0,0:0:0:0:
332,326,32228,6,0,P|257:345|199:293,1,153.999309962844,2|0,1:3|3:0,0:0:0:0:
198,164,32701,1,0,3:0:0:0:
285,225,32859,1,8,3:0:0:0:
188,267,33017,1,4,3:0:0:0:
72,195,33175,6,0,P|125:145|199:165,1,153.999309962844,4|2,3:1|3:2,0:0:0:0:
302,122,33649,1,0,3:0:0:0:
236,0,33807,2,0,P|225:38|224:79,1,76.9996549814221,2|0,3:2|0:0,0:0:0:0:
430,151,34122,6,0,P|374:103|300:123,1,153.999309962844,6|2,1:2|3:2,0:0:0:0:
285,220,34596,1,0,1:0:0:0:
332,308,34754,2,0,P|361:289|381:252,1,76.9996549814221,2|0,3:2|0:0,0:0:0:0:
268,384,35070,6,0,B|222:376|192:344|220:322|194:295|134:281,1,153.999309962844,4|2,3:0|3:2,0:0:0:0:
13,218,35543,1,0,3:0:0:0:
53,367,35701,2,0,L|67:287,1,76.9996549814221,2|0,3:2|0:0,0:0:0:0:
162,123,36017,5,2,1:3:0:0:
185,205,36175,1,0,0:0:0:0:
104,185,36333,1,0,3:0:0:0:
79,105,36491,1,0,3:0:0:0:
136,42,36649,5,0,3:0:0:0:
150,42,36728,1,0,3:0:0:0:
164,42,36807,1,0,3:0:0:0:
178,42,36886,1,0,3:0:0:0:
192,43,36964,6,0,B|230:13|230:13|353:45,1,153.999309962844,4|2,3:1|3:2,0:0:0:0:
402,108,37438,1,0,3:2:0:0:
260,173,37596,2,0,L|178:183,1,76.9996549814221,2|0,3:2|0:0,0:0:0:0:
83,362,37912,6,0,P|113:300|192:285,1,153.999309962844,0|2,1:2|3:2,0:0:0:0:
355,325,38386,1,0,1:2:0:0:
270,365,38543,2,0,P|261:331|274:291,1,76.9996549814221,2|0,3:2|0:0,0:0:0:0:
382,123,38859,6,0,P|428:177|403:253,1,153.999309962844,4|2,3:0|3:2,0:0:0:0:
355,325,39333,1,0,3:2:0:0:
234,180,39491,2,0,P|272:191|316:197,1,76.9996549814221,2|0,3:2|0:0,0:0:0:0:
511,113,39807,6,0,B|478:111|439:69|475:54|443:16|385:11,1,153.999309962844,2|0,1:3|3:2,0:0:0:0:
273,8,40280,1,0,1:2:0:0:
309,99,40438,1,0,3:0:0:0:
371,20,40596,1,0,3:0:0:0:
148,32,40754,6,0,B|196:50|196:50|220:88|220:88|297:115,1,153.999309962844,4|2,3:1|3:2,0:0:0:0:
349,192,41228,1,0,1:2:0:0:
220,288,41386,2,0,L|239:203,1,76.9996549814221,2|0,3:2|0:0,0:0:0:0:
146,360,41701,6,0,P|78:371|35:290,1,153.999309962844,4|2,1:2|3:2,0:0:0:0:
32,204,42175,1,0,3:2:0:0:
139,205,42333,2,0,P|134:245|113:278,1,76.9996549814221,2|0,1:2|0:0,0:0:0:0:
9,81,42649,6,0,B|57:70|57:70|104:90|104:90|180:72,1,153.999309962844,4|2,3:1|3:2,0:0:0:0:
276,17,43122,2,0,P|242:52|271:124,1,115.499482472133,2|0,1:2|0:0,0:0:0:0:
267,121,43438,1,0,3:2:0:0:
442,85,43596,6,0,B|427:66|427:66|373:47|328:92,1,115.499482472133,2|0,1:2|0:0,0:0:0:0:
343,161,43912,2,0,B|356:181|356:181|409:203|458:157,1,125.99942773375,2|0,1:2|0:0,0:0:0:0:
122,356,44543,6,0,P|168:314|165:250,1,125.99942773375,6|2,3:2|3:2,0:0:0:0:
71,159,45017,2,0,P|65:190|79:218,1,62.9997138668752,2|0,3:2|0:0,0:0:0:0:
167,255,45333,1,2,3:2:0:0:
166,135,45491,1,2,1:2:0:0:
166,135,45807,6,0,P|149:108|146:77,1,62.9997138668752,2|0,3:2|0:0,0:0:0:0:
256,108,46122,2,0,P|252:76|238:49,1,62.9997138668752,4|0,3:0|0:0,0:0:0:0:
239,198,46438,6,0,P|289:232|347:215,1,125.99942773375,6|2,1:2|3:2,0:0:0:0:
412,131,46912,1,2,1:2:0:0:
512,234,47070,2,0,L|496:157,1,62.9997138668752,2|0,3:2|0:0,0:0:0:0:
412,131,47386,2,0,L|432:240,1,94.4995708003127,2|0,1:2|0:0,0:0:0:0:
431,238,47701,5,0,3:2:0:0:
434,253,47780,1,0,3:2:0:0:
437,268,47859,1,0,3:2:0:0:
440,283,47938,1,0,3:2:0:0:
443,298,48017,1,0,1:2:0:0:
364,373,48175,1,0,3:2:0:0:
271,312,48333,6,0,B|231:290|231:290|213:254|213:254|164:225,1,125.99942773375,6|2,1:2|1:2,0:0:0:0:
42,299,48807,2,0,L|105:279,1,62.9997138668752,2|0,3:2|0:0,0:0:0:0:
162,217,49122,1,2,3:2:0:0:
10,124,49280,6,0,L|112:141,1,94.4995708003127,0|0,1:2|0:0,0:0:0:0:
117,128,49596,2,0,P|129:98|139:68,1,62.9997138668752,0|0,3:2|0:0,0:0:0:0:
279,60,49912,2,0,P|266:32|257:2,1,62.9997138668752,2|0,1:2|0:0,0:0:0:0:
224,142,50228,6,0,P|281:166|343:180,1,125.99942773375,4|2,3:0|3:2,0:0:0:0:
443,144,50701,1,2,1:2:0:0:
422,268,50859,2,0,L|340:283,1,62.9997138668752,2|0,3:2|0:0,0:0:0:0:
265,373,51175,1,2,1:2:0:0:
271,356,51491,5,0,3:2:0:0:
360,279,51649,1,0,1:2:0:0:
264,241,51807,1,4,3:0:0:0:
277,339,51964,1,4,3:0:0:0:
391,369,52122,6,0,B|437:345|437:345|446:319|446:319|503:282,1,125.99942773375,6|2,3:2|1:2,0:0:0:0:
499,194,52596,2,0,L|434:226,1,62.9997138668752,2|0,3:2|0:0,0:0:0:0:
361,266,52912,1,2,3:2:0:0:
424,125,53070,1,2,1:2:0:0:
433,112,53386,5,2,3:2:0:0:
499,194,53543,1,0,1:2:0:0:
337,164,53701,2,0,L|336:83,1,62.9997138668752,2|0,3:2|0:0,0:0:0:0:
153,252,54017,6,0,P|213:242|247:191,1,125.99942773375,6|2,3:2|3:2,0:0:0:0:
133,165,54491,1,2,1:2:0:0:
68,224,54649,2,0,P|61:252|69:284,1,62.9997138668752,2|0,3:2|0:0,0:0:0:0:
133,164,54964,2,0,P|142:121|124:74,1,94.4995708003127,4|0,3:0|0:0,0:0:0:0:
110,70,55280,5,0,3:2:0:0:
93,66,55359,1,0,3:2:0:0:
78,62,55438,1,0,3:2:0:0:
62,60,55517,1,0,3:2:0:0:
46,56,55596,1,2,1:2:0:0:
205,17,55754,5,0,3:2:0:0:
221,21,55833,1,0,3:2:0:0:
236,25,55912,6,0,B|287:58|258:85|330:131,1,125.99942773375,6|0,1:2|3:2,0:0:0:0:
397,176,56386,1,2,1:2:0:0:
464,60,56543,2,0,P|436:67|404:79,1,62.9997138668752,2|0,3:2|0:0,0:0:0:0:
217,199,56859,6,0,P|264:207|310:222,1,94.4995708003127,2|0,1:2|0:0,0:0:0:0:
324,228,57175,2,0,P|336:257|345:287,1,62.9997138668752,0|0,3:2|0:0,0:0:0:0:
184,358,57491,2,0,P|190:326|203:295,1,62.9997138668752,2|0,3:2|0:0,0:0:0:0:
320,368,57807,6,0,P|381:365|421:319,1,125.99942773375,4|0,3:0|3:2,0:0:0:0:
393,177,58280,1,0,1:2:0:0:
510,258,58438,2,0,L|424:241,1,62.9997138668752,0|0,3:2|0:0,0:0:0:0:
316,225,58754,1,2,1:2:0:0:
308,217,59070,5,4,3:0:0:0:
385,171,59228,1,4,3:0:0:0:
394,80,59386,1,0,1:2:0:0:
325,19,59543,1,0,3:2:0:0:
309,133,59701,6,0,B|222:86|266:48|162:-3,1,195.999109808056,4|2,3:2|3:2,0:0:0:0:
169,0,60649,6,0,P|142:8|122:29,1,55.9997473684212,2|0,1:2|0:0,0:0:0:0:
40,14,60964,2,0,P|34:45|59:83,1,69.9996842105265,2|0,3:2|0:0,0:0:0:0:
1,151,61280,2,0,P|29:172|89:160,1,83.9996184891669,4|0,3:0|0:0,0:0:0:0:
232,199,61596,6,0,B|218:189|204:165|204:165|209:219|162:248,1,122.499443630035,6|0,3:2|0:0,0:0:0:0:
166,244,62070,2,0,P|152:276|146:302,1,48.999777452014,4|2,3:0|3:2,0:0:0:0:
305,333,62543,6,0,L|295:262,1,55.9997473684212,2|0,1:2|0:0,0:0:0:0:
398,374,62859,2,0,L|410:302,1,69.9996842105265,4|0,3:0|0:0,0:0:0:0:
512,329,63175,2,0,L|496:238,1,83.9996184891669,2|0,1:2|0:0,0:0:0:0:
354,168,63491,6,0,P|380:192|417:195,1,73.499666178021,6|0,3:2|0:0,0:0:0:0:
424,186,63807,1,0,3:2:0:0:
465,91,63964,2,0,L|396:103,1,48.999777452014,0|2,1:2|3:2,0:0:0:0:
217,48,64438,6,0,P|231:71|236:99,1,55.9997473684212,2|0,1:2|0:0,0:0:0:0:
88,73,64754,2,0,P|102:42|137:23,1,69.9996842105265,4|0,3:0|0:0,0:0:0:0:
184,169,65070,2,0,P|146:174|102:144,1,83.9996184891669,2|0,1:2|0:0,0:0:0:0:
127,324,65386,6,0,P|229:290|281:196,1,220.498998534063,6|0,3:2|0:0,0:0:0:0:
284,184,66017,2,0,P|316:169|351:160,1,69.9996842105265,2|0,3:2|0:0,0:0:0:0:
423,297,66333,2,0,P|393:283|362:275,1,62.9997138668752,2|0,1:2|0:0,0:0:0:0:
500,228,66649,2,0,P|490:188|471:147,1,83.9996210526318,2|0,3:2|0:0,0:0:0:0:
459,140,66964,1,4,3:0:0:0:
266,352,67280,6,0,B|222:325|222:325|202:291|202:291|142:255,1,139.999368421053,4|2,3:1|3:2,0:0:0:0:
48,304,67754,1,0,1:2:0:0:
3,194,67912,2,0,L|120:155,1,104.99952631579,2|0,3:2|0:0,0:0:0:0:
114,152,68228,6,0,P|128:119|131:81,1,69.9996842105265,2|0,1:2|0:0,0:0:0:0:
211,5,68543,2,0,P|230:35|241:71,1,69.9996842105265,2|0,3:2|0:0,0:0:0:0:
270,197,68859,2,0,P|240:176|207:167,1,69.9996842105265,4|0,3:0|0:0,0:0:0:0:
316,283,69175,6,0,B|377:242|344:220|414:175,2,139.999368421053,6|2|2,3:2|3:2|3:2,0:0:0:0:
220,265,69964,1,2,3:2:0:0:
245,352,70122,2,0,P|293:376|347:374,1,104.99952631579,0|0,1:2|0:0,0:0:0:0:
357,363,70438,5,0,1:2:0:0:
316,283,70596,1,0,1:2:0:0:
373,350,70754,1,0,3:2:0:0:
329,274,70912,1,4,3:0:0:0:
467,222,71070,6,0,P|446:195|416:178,1,69.9996842105265,4|0,3:2|0:0,0:0:0:0:
294,116,71386,2,0,P|317:85|348:68,1,69.9996842105265,2|0,3:2|3:2,0:0:0:0:
436,89,71701,1,2,1:2:0:0:
313,200,71859,2,0,P|244:189|210:126,1,139.999368421053,2|0,3:2|1:2,0:0:0:0:
237,38,72333,5,0,3:2:0:0:
294,116,72491,1,0,3:2:0:0:
141,63,72649,2,0,B|117:63|117:63|95:79|95:79|71:73|71:73|35:93,1,104.99952631579,0|0,1:2|0:0,0:0:0:0:
34,99,72964,6,0,P|24:132|33:165,1,69.9996842105265,4|0,3:0|0:0,0:0:0:0:
139,263,73280,2,0,P|142:229|130:197,1,69.9996842105265,2|0,3:2|3:2,0:0:0:0:
35,181,73596,1,2,1:2:0:0:
18,306,73754,2,0,B|58:328|58:328|83:359|83:359|153:388,1,139.999368421053,2|0,3:2|1:2,0:0:0:0:
237,298,74228,5,2,3:2:0:0:
148,369,74386,1,0,1:2:0:0:
303,382,74543,1,8,3:0:0:0:
167,355,74701,1,4,3:0:0:0:
304,156,74859,6,0,L|335:293,1,139.999368421053,6|0,3:2|1:2,0:0:0:0:
425,371,75333,2,0,L|443:253,1,104.99952631579,0|0,3:2|0:0,0:0:0:0:
432,252,75649,1,0,3:2:0:0:
511,148,75807,1,0,1:2:0:0:
511,148,76122,6,0,P|479:162|445:159,1,69.9996842105265,2|0,3:2|0:0,0:0:0:0:
495,49,76438,2,0,P|461:44|428:61,1,69.9996842105265,4|0,3:0|0:0,0:0:0:0:
352,197,76754,6,0,B|293:177|302:132|221:110,1,139.999368421053,4|0,3:1|1:2,0:0:0:0:
136,88,77228,1,0,3:2:0:0:
145,78,77701,1,0,1:2:0:0:
224,212,78017,5,0,3:2:0:0:
82,202,78175,1,0,3:2:0:0:
42,349,78333,1,0,1:2:0:0:
146,290,78491,1,4,3:0:0:0:
275,374,78649,5,0,1:2:0:0:
158,303,78807,1,0,3:2:0:0:
261,368,78964,1,0,3:2:0:0:
339,203,79122,5,0,1:2:0:0:
245,359,79280,1,0,1:2:0:0:
142,48,79596,5,4,3:2:0:0:
142,48,80228,2,0,B|93:78|39:48|39:48|54:70|61:91,1,146.999332356042,2|0,3:2|0:0,0:0:0:0:
222,117,80543,6,0,P|234:75|242:33,1,83.9996184891669,4|0,3:1|0:0,0:0:0:0:
395,190,80859,2,0,P|382:147|374:104,1,83.9996184891669,2|0,3:2|3:0,0:0:0:0:
224,218,81175,2,0,P|283:239|293:299,1,125.99942773375,2|0,1:2|0:0,0:0:0:0:
287,306,81491,6,0,B|241:326|241:326|221:344|221:344|165:367,1,125.99942773375,4|0,3:2|0:0,0:0:0:0:
161,354,81807,1,0,3:2:0:0:
23,384,81964,1,0,3:2:0:0:
147,345,82122,1,2,1:2:0:0:
24,158,82438,6,0,B|123:111|59:71|199:14,1,209.999046222917,4|0,3:0|0:0,0:0:0:0:
191,30,82912,1,2,3:2:0:0:
302,92,83070,1,2,1:2:0:0:
204,167,83228,1,2,3:2:0:0:
423,275,83386,6,0,P|370:225|312:194,1,125.99942773375,6|0,1:2|0:0,0:0:0:0:
308,209,83701,1,0,3:2:0:0:
200,291,83859,1,0,3:2:0:0:
291,218,84017,1,2,1:2:0:0:
185,153,84175,1,4,3:0:0:0:
429,127,84333,6,0,B|465:176|465:176|416:289,1,167.999236978334,4|0,3:1|3:2,0:0:0:0:
306,384,84807,1,0,1:2:0:0:
306,384,84886,1,0,3:2:0:0:
306,384,84964,2,0,L|283:278,1,83.9996184891669,2|0,3:2|0:0,0:0:0:0:
46,259,85280,6,0,B|188:237|115:130|288:108,1,293.998664712084,6|0,1:2|0:0,0:0:0:0:
297,110,85912,2,0,P|324:140|321:181,1,83.9996184891669,2|0,3:2|0:0,0:0:0:0:
449,74,86228,6,0,B|390:55|390:55|363:25|363:25|280:-4,1,167.999236978334,4|0,3:0|3:0,0:0:0:0:
99,71,86701,1,0,1:2:0:0:
201,91,86859,2,0,P|205:52|182:11,1,83.9996184891669,0|0,3:2|0:0,0:0:0:0:
119,191,87175,6,0,P|51:193|9:155,1,125.99942773375,2|0,1:2|0:0,0:0:0:0:
1,144,87491,2,0,P|11:190|-1:235,1,83.9996184891669,0|0,3:2|3:0,0:0:0:0:
13,361,87807,2,0,P|56:311|128:309,1,125.99942773375,4|0,3:0|0:0,0:0:0:0:
124,311,88122,6,0,P|162:295|203:285,1,83.9996184891669,4|0,3:1|0:0,0:0:0:0:
368,384,88438,2,0,P|327:363|278:353,1,83.9996184891669,2|0,3:2|0:0,0:0:0:0:
477,258,88754,2,0,P|452:220|419:183,1,83.9996184891669,4|0,3:0|0:0,0:0:0:0:
319,0,89070,6,0,L|302:93,1,83.9996184891669,2|0,1:2|0:0,0:0:0:0:
136,69,89386,2,0,L|161:152,1,83.9996184891669,2|0,3:2|1:2,0:0:0:0:
468,117,89701,2,0,L|424:195,1,83.9996184891669,2|0,3:2|0:0,0:0:0:0:
192,333,90017,6,0,P|122:355|64:282,1,167.999236978334,4|0,3:0|3:2,0:0:0:0:
7,199,90491,1,0,1:2:0:0:
160,149,90649,2,0,P|167:193|144:248,1,83.9996184891669,2|0,3:2|0:0,0:0:0:0:
17,87,90964,6,0,B|98:66|58:19|180:-4,1,167.999236978334,6|0,1:2|3:2,0:0:0:0:
251,53,91438,1,0,1:2:0:0:
285,176,91596,1,8,3:0:0:0:
390,29,91754,1,12,3:0:0:0:
422,212,91912,6,0,P|343:230|284:175,1,167.999236978334,4|2,3:1|1:2,0:0:0:0:
118,347,92386,2,0,P|198:352|249:290,1,167.999236978334,2|2,3:2|3:2,0:0:0:0:
123,167,92859,6,0,B|79:153|79:153|57:130|57:130|-1:110,1,125.99942773375,2|0,1:2|0:0,0:0:0:0:
11,131,93175,2,0,B|49:146|49:146|71:170|71:170|126:187,1,125.99942773375,2|0,3:2|0:0,0:0:0:0:
127,196,93491,2,0,P|152:227|159:271,1,83.9996184891669,4|0,3:0|0:0,0:0:0:0:
138,21,93807,6,0,P|210:-8|281:39,1,167.999236978334,6|0,3:2|3:2,0:0:0:0:
348,186,94280,1,0,1:2:0:0:
208,144,94438,2,0,L|314:116,1,83.9996184891669,2|0,3:2|0:0,0:0:0:0:
471,211,94754,2,0,L|321:180,1,125.99942773375,2|0,1:2|0:0,0:0:0:0:
345,188,95070,5,0,3:2:0:0:
341,190,95149,1,0,3:2:0:0:
337,193,95228,1,0,3:2:0:0:
333,196,95307,1,0,3:2:0:0:
301,226,95386,5,2,1:2:0:0:
284,266,95464,1,0,1:2:0:0:
296,308,95543,1,4,3:0:0:0:
330,335,95622,1,12,3:0:0:0:
359,341,95701,6,0,B|318:351|318:351|297:373|297:373|229:388,1,125.99942773375,4|0,3:1|0:0,0:0:0:0:
234,376,96017,1,2,3:2:0:0:
55,276,96175,2,0,P|110:292|178:303,1,125.99942773375,0|0,1:2|0:0,0:0:0:0:
188,294,96491,1,2,1:2:0:0:
335,165,96649,6,0,P|276:183|211:194,1,125.99942773375,6|0,3:2|0:0,0:0:0:0:
202,185,96964,1,0,3:2:0:0:
90,95,97122,1,0,1:2:0:0:
191,174,97280,1,2,3:2:0:0:
491,57,97596,6,0,B|474:130|474:130|486:172|486:172|454:281,1,209.999046222917,4|0,3:0|0:0,0:0:0:0:
447,265,98070,1,2,3:2:0:0:
487,379,98228,1,2,1:2:0:0:
310,313,98386,1,2,3:2:0:0:
284,127,98543,6,0,P|334:120|383:171,1,125.99942773375,6|0,1:2|0:0,0:0:0:0:
381,186,98859,1,0,3:2:0:0:
310,313,99017,1,0,1:2:0:0:
447,265,99175,1,8,3:0:0:0:
254,214,99333,1,4,3:0:0:0:
162,384,99491,6,0,L|131:197,1,167.999236978334,4|0,3:1|3:2,0:0:0:0:
38,115,99964,1,0,1:2:0:0:
38,115,100043,1,0,3:2:0:0:
38,115,100122,2,0,L|19:223,1,83.9996184891669,2|0,3:2|0:0,0:0:0:0:
0,0,100438,6,0,B|144:-17|101:105|274:81,1,293.998664712084,6|0,1:2|0:0,0:0:0:0:
273,70,101070,2,0,P|308:50|358:45,1,83.9996184891669,4|0,3:0|0:0,0:0:0:0:
446,206,101386,6,0,B|402:186|402:186|383:164|383:164|317:137,1,125.99942773375,2|0,3:2|0:0,0:0:0:0:
326,143,101701,2,0,P|293:172|291:215,1,83.9996184891669,0|0,3:2|1:2,0:0:0:0:
190,236,102017,2,0,P|202:276|238:298,1,83.9996184891669,0|0,3:2|0:0,0:0:0:0:
363,378,102333,6,0,L|345:280,1,83.9996184891669,4|0,1:2|0:0,0:0:0:0:
491,220,102649,2,0,L|473:303,1,83.9996184891669,0|0,3:2|0:0,0:0:0:0:
426,106,102964,2,0,P|401:154|336:144,1,125.99942773375,4|0,3:0|0:0,0:0:0:0:
326,139,103280,6,0,P|288:127|245:118,1,83.9996184891669,4|0,3:1|0:0,0:0:0:0:
51,30,103596,2,0,P|86:13|131:0,1,83.9996184891669,2|0,3:2|0:0,0:0:0:0:
0,187,103912,2,0,P|35:202|79:215,1,83.9996184891669,4|0,3:0|0:0,0:0:0:0:
268,302,104228,6,0,L|244:221,1,83.9996184891669,6|0,1:2|0:0,0:0:0:0:
96,381,104543,2,0,L|121:300,1,83.9996184891669,2|0,3:2|1:2,0:0:0:0:
447,292,104859,2,0,L|393:225,1,83.9996184891669,2|0,3:2|0:0,0:0:0:0:
157,132,105175,6,0,B|233:101|205:55|286:26,1,167.999236978334,4|0,3:0|3:2,0:0:0:0:
489,1,105649,1,0,1:2:0:0:
384,93,105807,2,0,P|372:50|381:12,1,83.9996184891669,2|0,3:2|0:0,0:0:0:0:
472,236,106122,6,0,B|420:220|420:220|384:181|384:181|317:163,1,167.999236978334,4|0,1:2|3:2,0:0:0:0:
220,225,106596,1,4,3:0:0:0:
365,333,106754,1,2,1:2:0:0:
314,251,106912,1,2,1:2:0:0:
178,366,107070,6,0,P|104:368|61:291,1,167.999236978334,4|2,3:1|1:2,0:0:0:0:
0,90,107543,2,0,P|75:109|163:134,1,167.999236978334,2|2,3:2|3:2,0:0:0:0:
407,37,108017,6,0,P|350:51|282:70,1,125.99942773375,2|0,1:2|0:0,0:0:0:0:
294,83,108333,2,0,P|349:65|420:50,1,125.99942773375,2|0,3:2|0:0,0:0:0:0:
427,59,108649,2,0,P|461:83|469:130,1,83.9996184891669,4|0,3:0|0:0,0:0:0:0:
286,273,108964,6,0,P|292:194|371:182,1,167.999236978334,4|2,3:1|1:2,0:0:0:0:
502,234,109438,1,2,3:2:0:0:
412,314,109596,1,0,3:2:0:0:
369,194,109754,1,4,3:0:0:0:
203,290,109912,6,0,P|150:298|148:365,1,125.99942773375,4|0,1:2|0:0,0:0:0:0:
155,377,110228,2,0,P|95:349|28:340,1,125.99942773375,0|0,3:2|0:0,0:0:0:0:
23,340,110543,2,0,P|11:299|45:251,1,83.9996184891669,4|0,3:0|0:0,0:0:0:0:
9,101,110859,6,0,B|61:85|61:85|94:54|94:54|174:32,2,167.999236978334,4|2|0,3:1|3:2|1:2,0:0:0:0:
174,32,111807,6,0,P|238:40|264:101,1,125.99942773375,4|0,3:0|0:0,0:0:0:0:
259,106,112122,1,2,3:2:0:0:
383,181,112280,1,0,1:2:0:0:
367,75,112438,1,4,3:0:0:0:
276,219,112596,1,4,3:0:0:0:
470,270,112754,6,0,P|506:203|482:117,1,167.999236978334,6|0,1:2|1:2,0:0:0:0:
333,358,113228,2,0,P|277:305|276:216,1,167.999236978334,4|4,3:0|3:0,0:0:0:0:
68,109,113701,6,0,B|130:90|130:90|163:59|163:59|218:43,1,167.999236978334,6|0,1:2|3:2,0:0:0:0:
321,132,114175,1,2,1:2:0:0:
462,37,114333,2,0,L|354:10,1,83.9996184891669,0|0,3:2|0:0,0:0:0:0:
193,174,114649,5,4,1:1:0:0:
256,192,114728,12,0,117175,3:2:0:0:
56,325,117491,5,0,1:2:0:0:
152,125,117649,1,4,3:0:0:0:
156,116,117964,5,0,1:2:0:0:
1,168,118122,1,0,3:2:0:0:
56,325,118280,1,0,1:0:0:0:
208,270,118438,6,0,P|279:277|361:292,1,153.999309962844,4|0,3:1|3:2,0:0:0:0:
501,236,118912,1,0,3:2:0:0:
392,131,119070,2,0,L|405:210,1,76.9996549814221,0|0,3:2|0:0,0:0:0:0:
444,43,119386,6,0,P|377:24|308:68,1,153.999309962844,0|2,1:2|3:2,0:0:0:0:
274,172,119859,1,0,1:2:0:0:
137,74,120017,2,0,P|172:78|215:84,1,76.9996549814221,2|0,3:2|0:0,0:0:0:0:
47,4,120333,6,0,B|3:44|3:44|46:146,1,153.999309962844,4|2,3:0|3:2,0:0:0:0:
4,237,120807,1,0,3:0:0:0:
153,273,120964,2,0,L|130:171,1,76.9996549814221,2|0,3:2|0:0,0:0:0:0:
50,374,121280,6,0,B|103:361|103:361|139:376|139:376|201:364,1,153.999309962844,2|0,1:3|3:0,0:0:0:0:
266,268,121754,1,0,3:0:0:0:
323,350,121912,1,8,3:0:0:0:
224,358,122070,1,4,3:0:0:0:
364,259,122228,6,0,P|351:179|337:100,1,153.999309962844,4|2,3:1|3:2,0:0:0:0:
266,34,122701,1,0,3:0:0:0:
442,0,122859,2,0,P|437:35|431:78,1,76.9996549814221,2|0,3:2|0:0,0:0:0:0:
242,127,123175,6,0,B|155:110|201:55|97:44,1,153.999309962844,6|2,1:2|3:2,0:0:0:0:
7,8,123649,1,0,1:0:0:0:
9,162,123807,2,0,P|47:155|88:142,1,76.9996549814221,2|0,3:2|0:0,0:0:0:0:
308,262,124122,6,0,P|239:241|150:225,1,153.999309962844,4|2,3:0|3:2,0:0:0:0:
22,269,124596,1,0,3:0:0:0:
85,383,124754,2,0,P|119:372|163:363,1,76.9996549814221,2|0,3:2|0:0,0:0:0:0:
308,262,125070,5,2,1:3:0:0:
273,357,125228,1,0,0:0:0:0:
211,282,125386,1,0,3:0:0:0:
243,186,125543,1,0,3:0:0:0:
341,168,125701,5,0,3:0:0:0:
346,154,125780,1,0,3:0:0:0:
350,140,125859,1,0,3:0:0:0:
355,126,125938,1,0,3:0:0:0:
359,112,126017,6,0,P|426:105|472:190,1,153.999309962844,4|2,3:1|3:2,0:0:0:0:
512,263,126491,1,0,3:2:0:0:
376,280,126649,2,0,P|342:269|301:260,1,76.9996549814221,2|0,3:2|0:0,0:0:0:0:
164,364,126964,6,0,B|152:314|152:314|167:279|167:279|151:213,1,153.999309962844,0|2,1:2|3:2,0:0:0:0:
208,121,127438,1,0,1:2:0:0:
67,87,127596,2,0,L|56:165,1,76.9996549814221,2|0,3:2|0:0,0:0:0:0:
9,14,127912,6,0,P|82:-5|148:42,1,153.999309962844,4|2,3:0|3:2,0:0:0:0:
208,121,128386,1,0,3:2:0:0:
321,15,128543,2,0,P|285:21|242:29,1,76.9996549814221,2|0,3:2|0:0,0:0:0:0:
104,194,128859,6,0,P|174:206|259:227,1,153.999309962844,6|2,1:2|3:2,0:0:0:0:
360,285,129333,1,0,1:2:0:0:
344,167,129491,1,4,3:0:0:0:
256,240,129649,1,0,3:0:0:0:
435,360,129807,6,0,B|476:324|476:324|440:212,1,153.999309962844,4|2,3:1|3:2,0:0:0:0:
495,144,130280,1,0,1:2:0:0:
351,90,130438,2,0,L|341:195,1,76.9996549814221,2|0,3:2|0:0,0:0:0:0:
278,348,130754,6,0,P|217:334|135:322,1,115.499482472133,4|0,1:2|0:0,0:0:0:0:
152,336,131070,1,2,3:2:0:0:
50,384,131228,1,0,3:2:0:0:
58,270,131386,1,2,1:2:0:0:
160,222,131543,1,0,3:2:0:0:
61,70,131701,6,0,P|115:124|192:107,1,153.999309962844,4|2,3:1|3:2,0:0:0:0:
286,39,132175,1,2,1:2:0:0:
182,0,132333,1,2,3:2:0:0:
198,114,132491,1,0,3:2:0:0:
323,155,132649,6,0,P|332:208|342:271,1,115.499482472133,2|0,1:2|0:0,0:0:0:0:
431,323,132964,2,0,P|438:269|450:203,1,115.499482472133,2|0,1:3|0:0,0:0:0:0:
470,105,133280,1,4,3:0:0:0:
459,93,133596,6,0,B|372:83|415:27|313:23,1,153.999309962844,4|2,3:1|3:2,0:0:0:0:
241,126,134070,1,0,1:2:0:0:
106,18,134228,1,2,3:2:0:0:
154,55,134333,1,0,3:0:0:0:
147,116,134438,1,0,3:0:0:0:
91,143,134543,6,0,P|101:202|112:260,1,115.499482472133,2|0,1:2|0:0,0:0:0:0:
120,266,134859,1,2,1:3:0:0:
220,225,135017,1,0,3:0:0:0:
313,286,135175,1,0,3:2:0:0:
418,310,135333,1,0,1:0:0:0:
333,152,135491,5,4,3:0:0:0:
202,352,135649,1,4,3:0:0:0:
191,344,135964,5,4,3:0:0:0:
0,222,136122,1,4,3:0:0:0:
138,22,136438,5,2,1:3:0:0:
151,32,136754,5,4,3:0:0:0:
247,188,136912,1,0,3:0:0:0:
164,41,137070,2,0,L|178:137,1,76.9996549814221,8|4,3:0|3:0,0:0:0:0:
324,258,137386,5,4,3:1:0:0:
