osu file format v14

[General]
AudioFilename: audio.mp3
AudioLeadIn: 0
PreviewTime: 80149
Countdown: 0
SampleSet: Soft
StackLeniency: 0.3
Mode: 0
LetterboxInBreaks: 0
WidescreenStoryboard: 1

[Editor]
DistanceSpacing: 1.4
BeatDivisor: 4
GridSize: 32
TimelineZoom: 2

[Metadata]
Title:Tenmei no Marionette
TitleUnicode:天命の傀儡
Artist:Suara
ArtistUnicode:Suara
Creator:Xahlt
Version:Hard
Source:うたわれるもの ロストフラグ
Tags:hakashii Utawarerumono lost flag マリオネット kairai kugutsu Japanese Pop j-pop Female Vocal jpop Cut Edit Short Version Ver Video Game Theme Song ost Original Soundtrack sound track 須谷尚子 naoko sudani 衣笠道雄 michio kinugasa 有村健一 kenichi arimura aquaplus aqua plus leaf マリオネット folk rosuto furagu すあら 巽明子 Akiko Tatsumi lantis
BeatmapID:2723913
BeatmapSetID:1312298

[Difficulty]
HPDrainRate:5
CircleSize:3
OverallDifficulty:6
ApproachRate:8
SliderMultiplier:1.29999473684211
SliderTickRate:1

[Events]
//Background and Video events
0,0,"bg.jpg",0,0
//Break Periods
//Storyboard Layer 0 (Background)
//Storyboard Layer 1 (Fail)
//Storyboard Layer 2 (Pass)
//Storyboard Layer 3 (Foreground)
//Storyboard Layer 4 (Overlay)
//Storyboard Sound Samples

[TimingPoints]
27492,315.789473684211,3,2,1,50,1,0
28439,-111.111111111111,3,2,1,50,0,0
29386,315.789473684211,3,2,1,50,1,0
29386,-100,3,2,1,60,0,0
44543,-111.111111111111,3,2,1,50,0,0
59701,-125,3,2,1,50,0,0
67280,-111.111111111111,3,2,1,60,0,0
80229,-111.111111111111,3,2,1,70,0,0
80543,-90.9090909090909,3,2,1,80,0,1
95386,-90.9090909090909,3,2,1,80,0,0
95701,-90.9090909090909,3,2,1,80,0,1
118438,-100,3,2,1,80,0,0

[Colours]
Combo1 : 219,146,201
Combo2 : 181,68,172
Combo3 : 235,155,166

[HitObjects]
66,204,28439,6,0,L|49:138,2,58.4997613726239,2|2|2,1:2|3:2|1:2,0:0:0:0:
21,280,28913,1,2,1:2:0:0:
89,333,29070,2,0,L|155:323,1,58.4997613726239,2|2,3:2|3:2,0:0:0:0:
217,245,29386,6,0,B|265:255|265:255|290:276|290:276|346:289,1,129.999473684211,4|0,3:1|3:2,0:0:0:0:
416,344,29859,1,0,3:2:0:0:
486,276,30017,2,0,L|472:207,1,64.9997368421055,0|0,3:2|0:0,0:0:0:0:
503,118,30333,2,0,B|432:117|458:67|366:62,1,129.999473684211,0|2,1:2|3:2,0:0:0:0:
295,35,30807,1,0,1:2:0:0:
261,126,30964,1,2,3:2:0:0:
275,140,31280,6,0,B|265:199|265:199|269:207|269:207|257:274,1,129.999473684211,4|2,3:0|3:2,0:0:0:0:
209,352,31754,1,0,3:0:0:0:
122,306,31912,2,0,L|41:292,1,64.9997368421055,2|0,3:2|0:0,0:0:0:0:
8,210,32228,2,0,P|64:196|87:130,1,129.999473684211,2|0,1:3|3:0,0:0:0:0:
27,55,32701,1,0,3:0:0:0:
118,20,32859,2,0,L|191:30,1,64.9997368421055,8|4,3:0|3:0,0:0:0:0:
270,96,33175,6,0,B|328:89|328:89|339:78|339:78|403:70,1,129.999473684211,4|2,3:1|3:2,0:0:0:0:
481,114,33649,1,0,3:0:0:0:
447,205,33807,2,0,L|378:191,1,64.9997368421055,2|0,3:2|0:0,0:0:0:0:
307,254,34122,2,0,B|242:240|256:196|182:185,1,129.999473684211,6|2,1:2|3:2,0:0:0:0:
100,175,34596,1,0,1:0:0:0:
64,265,34754,1,2,3:2:0:0:
68,287,35070,6,0,B|120:284|120:284|142:296|142:296|218:292,1,129.999473684211,4|2,3:0|3:2,0:0:0:0:
268,358,35543,1,0,3:0:0:0:
363,335,35701,2,0,L|372:263,1,64.9997368421055,2|0,3:2|0:0,0:0:0:0:
444,205,36017,2,0,P|461:144|421:93,1,129.999473684211,2|0,1:3|3:0,0:0:0:0:
364,15,36491,1,0,3:0:0:0:
268,30,36649,2,0,L|230:41,3,32.4998684210528,0|0|0|0,3:0|3:0|3:0|3:0,0:0:0:0:
192,60,36964,6,0,B|132:52|132:52|120:57|120:57|41:48,1,129.999473684211,4|2,3:1|3:2,0:0:0:0:
0,125,37438,1,0,3:2:0:0:
66,195,37596,2,0,L|132:183,1,64.9997368421055,2|0,3:2|0:0,0:0:0:0:
221,148,37912,2,0,B|285:159|256:212|346:214,1,129.999473684211,0|2,1:2|3:2,0:0:0:0:
415,169,38386,1,0,1:2:0:0:
465,252,38543,1,2,3:2:0:0:
473,269,38859,6,0,B|425:294|425:294|418:310|418:310|345:342,1,129.999473684211,4|2,3:0|3:2,0:0:0:0:
273,296,39333,1,0,3:2:0:0:
195,354,39491,2,0,L|110:342,1,64.9997368421055,2|0,3:2|0:0,0:0:0:0:
53,284,39807,2,0,P|101:252|101:180,1,129.999473684211,2|0,1:3|3:2,0:0:0:0:
38,110,40280,1,0,1:2:0:0:
97,32,40438,2,0,L|168:46,1,64.9997368421055,0|0,3:0|3:0,0:0:0:0:
256,21,40754,6,0,B|268:70|268:70|254:97|254:97|268:168,1,129.999473684211,4|2,3:1|3:2,0:0:0:0:
204,223,41228,1,0,1:2:0:0:
282,276,41386,2,0,L|364:259,1,64.9997368421055,2|0,3:2|0:0,0:0:0:0:
392,176,41701,2,0,B|452:184|434:238|513:244,1,129.999473684211,4|2,1:2|3:2,0:0:0:0:
500,340,42175,1,0,3:2:0:0:
404,358,42333,1,2,1:2:0:0:
388,370,42649,6,0,B|327:362|327:362|315:366|315:366|241:355,1,129.999473684211,4|2,3:1|3:2,0:0:0:0:
161,349,43122,1,2,1:2:0:0:
213,266,43280,2,0,L|204:192,1,64.9997368421055,2|0,3:2|3:2,0:0:0:0:
133,134,43596,1,2,1:2:0:0:
308,218,43912,1,2,1:3:0:0:
497,30,44543,6,0,P|444:21|404:63,1,116.999522745248,6|2,3:2|3:2,0:0:0:0:
384,149,45017,2,0,L|404:276,1,116.999522745248,2|2,3:2|3:2,0:0:0:0:
357,340,45491,1,2,1:2:0:0:
343,356,45807,2,0,P|316:363|288:355,1,58.4997613726239,2|0,3:2|0:0,0:0:0:0:
200,351,46122,2,0,P|179:330|171:303,1,58.4997613726239,4|0,3:0|0:0,0:0:0:0:
204,221,46438,6,0,B|222:181|222:181|198:111,1,116.999522745248,6|2,1:2|3:2,0:0:0:0:
150,37,46912,1,2,1:2:0:0:
63,50,47070,2,0,L|56:110,1,58.4997613726239,2|0,3:2|0:0,0:0:0:0:
6,180,47386,2,0,P|48:219|48:276,1,116.999522745248,2|0,1:2|3:2,0:0:0:0:
94,352,47859,1,0,3:2:0:0:
176,323,48017,1,0,1:2:0:0:
192,312,48333,6,0,L|311:334,1,116.999522745248,6|2,1:2|1:2,0:0:0:0:
390,362,48807,2,0,P|425:334|425:257,1,116.999522745248,2|2,3:2|3:2,0:0:0:0:
379,192,49280,1,0,1:2:0:0:
392,173,49596,2,0,L|409:99,1,58.4997613726239,0|0,3:2|0:0,0:0:0:0:
482,74,49912,2,0,L|469:4,1,58.4997613726239,2|0,1:2|0:0,0:0:0:0:
383,8,50228,6,0,P|348:53|292:51,1,116.999522745248,4|2,3:0|3:2,0:0:0:0:
208,22,50701,1,2,1:2:0:0:
163,97,50859,2,0,L|185:169,1,58.4997613726239,2|0,3:2|0:0,0:0:0:0:
240,217,51175,2,0,B|233:267|233:267|240:288|240:288|234:345,1,116.999522745248,2|0,1:2|3:2,0:0:0:0:
159,377,51649,1,0,1:2:0:0:
75,350,51807,2,0,L|53:269,1,58.4997613726239,4|4,3:0|3:0,0:0:0:0:
5,223,52122,6,0,P|43:200|40:120,1,116.999522745248,6|2,3:2|1:2,0:0:0:0:
14,51,52596,2,0,L|141:30,1,116.999522745248,2|2,3:2|3:2,0:0:0:0:
215,13,53070,1,2,1:2:0:0:
230,13,53386,2,0,P|245:37|250:67,1,58.4997613726239,2|0,3:2|1:2,0:0:0:0:
294,142,53701,2,0,P|277:168|252:185,1,58.4997613726239,2|0,3:2|0:0,0:0:0:0:
177,225,54017,6,0,P|170:284|224:324,1,116.999522745248,6|2,3:2|3:2,0:0:0:0:
290,354,54491,1,2,1:2:0:0:
360,301,54649,2,0,L|419:289,1,58.4997613726239,2|0,3:2|0:0,0:0:0:0:
473,222,54964,2,0,B|488:179|488:179|464:104,1,116.999522745248,4|0,3:0|3:2,0:0:0:0:
425,32,55438,1,0,3:2:0:0:
340,54,55596,2,0,L|330:123,1,58.4997613726239,2|0,1:2|3:2,0:0:0:0:
276,181,55912,6,0,B|229:154|229:154|219:141|219:141|178:117,1,116.999522745248,6|0,1:2|3:2,0:0:0:0:
108,64,56386,1,2,1:2:0:0:
35,114,56543,2,0,L|49:194,1,58.4997613726239,2|0,3:2|0:0,0:0:0:0:
29,258,56859,2,0,P|87:259|125:310,1,116.999522745248,2|0,1:2|3:2,0:0:0:0:
282,375,57491,2,0,L|341:361,1,58.4997613726239,2|0,3:2|0:0,0:0:0:0:
374,281,57807,6,0,P|360:199|279:180,1,175.499284117872,4|0,3:0|1:2,0:0:0:0:
193,199,58438,1,0,3:2:0:0:
177,189,58754,2,0,L|198:60,1,116.999522745248,2|4,1:2|3:0,0:0:0:0:
264,18,59228,1,4,3:0:0:0:
336,66,59386,2,0,L|411:55,1,58.4997613726239,0|0,1:2|3:2,0:0:0:0:
470,7,59701,6,0,B|504:48|504:48|461:146|461:146|504:201,1,207.999157894738,4|2,3:2|3:2,0:0:0:0:
471,349,60649,2,0,L|445:298,1,51.9997894736844,2|0,1:2|0:0,0:0:0:0:
368,277,60964,2,0,L|360:341,1,51.9997894736844,2|0,3:2|0:0,0:0:0:0:
293,377,61280,1,4,3:0:0:0:
277,375,61596,6,0,B|169:371|217:284|99:275,1,207.999157894738,6|2,3:2|3:2,0:0:0:0:
11,137,62543,2,0,P|34:125|62:120,1,51.9997894736844,2|0,1:2|0:0,0:0:0:0:
126,69,62859,2,0,P|150:77|173:92,1,51.9997894736844,4|0,3:0|0:0,0:0:0:0:
224,156,63175,1,2,1:2:0:0:
235,170,63491,6,0,B|331:180|331:180|341:178|341:178|460:186,1,207.999157894738,6|2,3:2|3:2,0:0:0:0:
501,29,64438,2,0,L|431:44,1,51.9997894736844,2|0,1:2|0:0,0:0:0:0:
375,78,64754,2,0,L|313:69,1,51.9997894736844,4|0,3:0|0:0,0:0:0:0:
255,22,65070,2,0,L|192:37,1,51.9997894736844,2|0,1:2|0:0,0:0:0:0:
102,17,65386,6,0,P|11:51|16:149,1,207.999157894738,6|2,3:2|3:2,0:0:0:0:
109,286,66333,2,0,L|125:213,1,51.9997894736844,2|0,1:2|0:0,0:0:0:0:
164,164,66649,2,0,P|212:147|258:170,1,103.999578947369,2|4,3:2|3:0,0:0:0:0:
402,71,67280,6,0,L|421:207,1,116.999522745248,4|2,3:1|3:2,0:0:0:0:
492,234,67754,1,0,1:2:0:0:
452,312,67912,2,0,L|378:303,1,58.4997613726239,2|0,3:2|0:0,0:0:0:0:
315,346,68228,1,2,1:2:0:0:
286,341,68543,2,0,L|272:266,1,58.4997613726239,2|0,3:2|0:0,0:0:0:0:
197,240,68859,2,0,L|186:301,1,58.4997613726239,4|0,3:0|0:0,0:0:0:0:
111,363,69175,6,0,P|50:364|19:314,1,116.999522745248,6|2,3:2|3:2,0:0:0:0:
10,234,69649,1,0,3:0:0:0:
96,221,69807,2,0,L|88:155,1,58.4997613726239,2|2,3:2|3:2,0:0:0:0:
10,124,70122,1,0,1:2:0:0:
16,106,70438,2,0,L|30:42,1,58.4997613726239,0|0,1:2|1:2,0:0:0:0:
109,12,70754,2,0,L|126:70,1,58.4997613726239,0|4,3:2|3:0,0:0:0:0:
172,156,71070,6,0,B|223:146|223:146|235:133|235:133|291:121,1,116.999522745248,4|2,3:2|3:2,0:0:0:0:
423,19,71701,1,2,1:2:0:0:
423,19,71859,2,0,P|385:62|392:119,1,116.999522745248,2|0,3:2|1:2,0:0:0:0:
440,191,72333,2,0,L|501:174,2,58.4997613726239,0|0|0,3:2|3:2|1:2,0:0:0:0:
349,341,72964,6,0,L|214:325,1,116.999522745248,4|2,3:0|3:2,0:0:0:0:
66,375,73596,1,2,1:2:0:0:
66,375,73754,2,0,B|34:319|34:319|72:208,1,175.499284117872,2|2,3:2|3:2,0:0:0:0:
236,156,74543,2,0,L|214:79,1,58.4997613726239,8|4,3:0|3:0,0:0:0:0:
153,41,74859,6,0,P|97:28|53:64,1,116.999522745248,6|0,3:2|1:2,0:0:0:0:
8,140,75333,2,0,L|29:259,1,116.999522745248,0|0,3:2|3:2,0:0:0:0:
49,341,75807,1,0,1:2:0:0:
59,354,76122,2,0,L|130:363,1,58.4997613726239,2|0,3:2|0:0,0:0:0:0:
203,377,76438,2,0,L|271:362,1,58.4997613726239,4|0,3:0|0:0,0:0:0:0:
323,286,76754,6,0,P|270:266|256:207,1,116.999522745248,4|0,3:1|1:2,0:0:0:0:
298,134,77228,1,0,3:2:0:0:
307,122,77701,1,0,1:2:0:0:
140,67,78017,2,0,L|146:4,2,58.4997613726239,0|0|0,3:2|3:2|1:2,0:0:0:0:
177,147,78491,1,4,3:0:0:0:
101,192,78649,6,0,P|69:239|87:296,1,116.999522745248,0|0,1:2|3:2,0:0:0:0:
152,348,79122,1,0,1:2:0:0:
218,291,79280,1,0,1:2:0:0:
373,372,79596,1,4,3:2:0:0:
373,372,80543,6,0,B|401:335|401:335|376:235,1,142.999425416628,4|2,3:1|3:2,0:0:0:0:
302,173,81017,1,0,3:0:0:0:
387,121,81175,2,0,L|467:103,1,71.4997127083141,2|0,1:2|0:0,0:0:0:0:
476,6,81491,2,0,L|337:37,1,142.999425416628,4|0,3:2|3:2,0:0:0:0:
240,8,81964,1,0,3:2:0:0:
188,93,82122,1,2,1:2:0:0:
201,108,82438,6,0,B|177:180|226:181|195:260,1,142.999425416628,4|0,3:0|3:0,0:0:0:0:
185,348,82912,2,0,P|219:338|254:337,2,71.4997127083141,2|2|2,3:2|1:2|3:2,0:0:0:0:
72,374,83386,2,0,P|8:349|4:277,1,142.999425416628,6|0,1:2|3:2,0:0:0:0:
75,214,83859,1,0,3:2:0:0:
1,146,84017,1,2,1:2:0:0:
76,79,84175,1,4,3:0:0:0:
177,13,84333,6,0,B|259:24|259:24|294:45|294:45|390:57,1,214.499138124942,4|0,3:1|1:2,0:0:0:0:
442,137,84964,2,0,L|358:162,1,71.4997127083141,2|0,3:2|0:0,0:0:0:0:
258,143,85280,2,0,P|205:243|269:299,1,214.499138124942,6|0,1:2|0:0,0:0:0:0:
362,261,85912,2,0,L|394:330,1,71.4997127083141,2|0,3:2|0:0,0:0:0:0:
484,366,86228,6,0,B|515:329|515:329|489:210,1,142.999425416628,4|0,3:0|3:0,0:0:0:0:
443,150,86701,1,0,1:2:0:0:
498,66,86859,1,0,3:2:0:0:
494,45,87175,2,0,P|436:7|371:28,1,142.999425416628,2|0,1:2|3:2,0:0:0:0:
293,93,87649,1,0,3:0:0:0:
213,31,87807,2,0,L|131:50,1,71.4997127083141,4|0,3:0|0:0,0:0:0:0:
63,129,88122,6,0,B|20:97|20:97|41:-1,2,142.999425416628,4|2|4,3:1|3:2|3:0,0:0:0:0:
218,256,89070,2,0,P|251:256|288:236,1,71.4997127083141,2|0,1:2|0:0,0:0:0:0:
327,147,89386,2,0,P|361:138|398:148,1,71.4997127083141,2|0,3:2|1:2,0:0:0:0:
474,208,89701,1,2,3:2:0:0:
492,219,90017,6,0,P|514:308|414:345,1,214.499138124942,4|0,3:0|1:2,0:0:0:0:
325,303,90649,2,0,L|236:325,1,71.4997127083141,2|0,3:2|0:0,0:0:0:0:
169,373,90964,2,0,B|104:362|104:362|97:357|97:357|4:338,1,142.999425416628,6|0,1:2|3:2,0:0:0:0:
3,246,91438,1,0,1:2:0:0:
101,228,91596,1,8,3:0:0:0:
60,136,91754,1,12,3:0:0:0:
36,23,91912,6,0,P|94:65|168:45,1,142.999425416628,4|2,3:1|1:2,0:0:0:0:
233,6,92386,2,0,P|303:2|365:44,1,142.999425416628,2|2,3:2|3:2,0:0:0:0:
432,112,92859,2,0,L|413:189,1,71.4997127083141,2|0,1:2|0:0,0:0:0:0:
327,232,93175,2,0,L|230:251,1,71.4997127083141,2|0,3:2|0:0,0:0:0:0:
198,327,93491,2,0,L|284:346,1,71.4997127083141,4|0,3:0|0:0,0:0:0:0:
384,363,93807,6,0,P|450:347|459:280,1,142.999425416628,6|0,3:2|3:2,0:0:0:0:
394,90,94438,2,0,L|306:110,1,71.4997127083141,2|0,3:2|0:0,0:0:0:0:
239,159,94754,2,0,L|152:137,1,71.4997127083141,2|0,1:2|0:0,0:0:0:0:
78,192,95070,2,0,L|36:202,3,35.7498563541571,0|0|0|0,3:2|3:2|3:2|3:2,0:0:0:0:
9,162,95386,2,0,L|-1:116,3,35.7498563541571,2|0|4|12,1:2|1:2|3:0|3:0,0:0:0:0:
3,78,95701,6,0,P|32:17|100:20,1,142.999425416628,4|2,3:1|3:2,0:0:0:0:
195,53,96175,2,0,B|258:63|258:63|265:69|265:69|347:79,1,142.999425416628,0|2,1:2|1:2,0:0:0:0:
419,23,96649,2,0,B|451:55|451:55|425:151,1,142.999425416628,6|0,3:2|3:2,0:0:0:0:
390,243,97122,1,0,1:2:0:0:
304,191,97280,1,2,3:2:0:0:
286,172,97596,6,0,B|213:175|237:235|143:225,1,142.999425416628,4|0,3:0|3:0,0:0:0:0:
68,270,98070,2,0,L|49:199,2,71.4997127083141,2|2|2,3:2|1:2|3:2,0:0:0:0:
12,371,98543,2,0,P|83:366|154:363,1,142.999425416628,6|0,1:2|3:2,0:0:0:0:
242,315,99017,1,0,1:2:0:0:
329,364,99175,1,8,3:0:0:0:
366,271,99333,1,4,3:0:0:0:
399,161,99491,6,0,B|459:137|506:179|506:179|489:128|506:74,1,214.499138124942,4|0,3:1|1:2,0:0:0:0:
443,0,100122,2,0,P|413:20|377:23,1,71.4997127083141,2|0,3:2|0:0,0:0:0:0:
280,48,100438,2,0,P|185:37|183:133,1,214.499138124942,4|0,1:2|0:0,0:0:0:0:
280,158,101070,2,0,L|265:235,1,71.4997127083141,4|0,3:0|0:0,0:0:0:0:
305,321,101386,6,0,B|240:323|240:323|233:328|233:328|146:330,1,142.999425416628,2|0,3:2|3:2,0:0:0:0:
75,377,101859,1,0,1:2:0:0:
11,299,102017,1,0,3:2:0:0:
78,110,102333,2,0,L|104:204,1,71.4997127083141,4|0,1:2|0:0,0:0:0:0:
187,223,102649,2,0,L|207:146,1,71.4997127083141,0|0,3:2|0:0,0:0:0:0:
257,67,102964,1,4,3:0:0:0:
264,49,103280,6,0,B|232:16|232:16|112:30,2,142.999425416628,4|2|4,3:1|3:2|3:0,0:0:0:0:
463,21,104228,2,0,L|475:98,1,71.4997127083141,6|0,1:2|0:0,0:0:0:0:
507,186,104543,2,0,L|414:185,1,71.4997127083141,2|0,3:2|1:2,0:0:0:0:
350,131,104859,1,2,3:2:0:0:
336,142,105175,6,0,P|343:244|252:289,1,214.499138124942,4|0,3:0|1:2,0:0:0:0:
185,214,105807,2,0,L|165:128,1,71.4997127083141,2|0,3:2|0:0,0:0:0:0:
232,58,106122,2,0,B|169:49|169:49|161:43|161:43|81:30,1,142.999425416628,4|0,1:2|3:2,0:0:0:0:
9,88,106596,1,4,3:0:0:0:
82,155,106754,1,2,1:2:0:0:
42,247,106912,1,2,1:2:0:0:
16,358,107070,6,0,P|78:324|145:341,1,142.999425416628,4|2,3:1|1:2,0:0:0:0:
242,364,107543,2,0,P|311:370|364:325,1,142.999425416628,2|2,3:2|3:2,0:0:0:0:
405,233,108017,2,0,L|392:161,1,71.4997127083141,2|0,1:2|0:0,0:0:0:0:
371,64,108333,2,0,L|299:85,1,71.4997127083141,2|0,3:2|0:0,0:0:0:0:
262,176,108649,2,0,L|191:167,1,71.4997127083141,4|0,3:0|0:0,0:0:0:0:
79,138,108964,6,0,P|50:76|93:22,1,142.999425416628,4|2,3:1|1:2,0:0:0:0:
190,8,109438,2,0,B|256:20|256:20|264:26|264:26|338:38,1,142.999425416628,2|4,3:2|3:0,0:0:0:0:
426,9,109912,2,0,P|460:21|483:47,1,71.4997127083141,4|0,1:2|0:0,0:0:0:0:
510,143,110228,2,0,P|513:178|497:209,1,71.4997127083141,0|0,3:2|0:0,0:0:0:0:
404,249,110543,1,4,3:0:0:0:
390,259,110859,6,0,B|437:307|437:307|418:390,2,142.999425416628,4|2|0,3:1|3:2|1:2,0:0:0:0:
228,370,111807,2,0,B|155:360|179:307|99:295,1,142.999425416628,4|2,3:0|3:2,0:0:0:0:
17,336,112280,1,0,1:2:0:0:
5,236,112438,2,0,L|26:151,1,71.4997127083141,4|4,3:0|3:0,0:0:0:0:
5,52,112754,6,0,P|53:12|127:34,1,142.999425416628,6|0,1:2|1:2,0:0:0:0:
219,98,113228,2,0,P|279:113|338:57,1,142.999425416628,4|4,3:0|3:0,0:0:0:0:
434,5,113701,2,0,B|464:47|464:47|446:141,1,142.999425416628,6|0,1:2|3:2,0:0:0:0:
357,183,114175,2,0,B|372:241|372:241|368:254|368:254|387:333,1,142.999425416628,2|0,1:2|0:0,0:0:0:0:
488,370,114649,5,4,1:1:0:0:
256,192,114807,12,0,117491,1:2:0:0:
482,35,118438,6,0,B|428:43|428:43|415:56|415:56|345:66,1,129.999473684211,4|0,3:1|3:2,0:0:0:0:
274,13,118912,1,0,3:2:0:0:
207,84,119070,2,0,L|227:169,1,64.9997368421055,0|0,3:2|0:0,0:0:0:0:
301,205,119386,2,0,B|276:268|338:268|304:360,1,129.999473684211,0|2,1:2|3:2,0:0:0:0:
228,380,119859,1,0,1:2:0:0:
176,297,120017,1,2,3:2:0:0:
165,282,120333,6,0,B|114:287|114:287|94:298|94:298|21:305,1,129.999473684211,4|2,3:0|3:2,0:0:0:0:
9,209,120807,1,0,3:0:0:0:
68,131,120964,2,0,L|146:150,1,64.9997368421055,2|0,3:2|0:0,0:0:0:0:
218,190,121280,2,0,P|249:142|315:147,1,129.999473684211,2|0,1:3|3:0,0:0:0:0:
374,225,121754,1,0,3:0:0:0:
460,180,121912,2,0,L|449:107,1,64.9997368421055,8|4,3:0|3:0,0:0:0:0:
486,10,122228,6,0,B|430:20|430:20|408:16|408:16|338:32,1,129.999473684211,4|2,3:1|3:2,0:0:0:0:
265,59,122701,1,0,3:0:0:0:
182,8,122859,2,0,L|169:72,1,64.9997368421055,2|0,3:2|0:0,0:0:0:0:
239,157,123175,2,0,B|174:148|176:208|89:179,1,129.999473684211,6|2,1:2|3:2,0:0:0:0:
43,252,123649,1,0,1:0:0:0:
105,327,123807,1,2,3:2:0:0:
123,315,124122,6,0,B|174:310|174:310|194:299|194:299|268:290,1,129.999473684211,4|2,3:0|3:2,0:0:0:0:
323,355,124596,1,0,3:0:0:0:
381,276,124754,2,0,L|463:261,1,64.9997368421055,2|0,3:2|0:0,0:0:0:0:
490,177,125070,2,0,P|437:163|418:81,1,129.999473684211,2|0,1:3|3:0,0:0:0:0:
341,29,125543,1,0,3:0:0:0:
265,85,125701,2,0,L|258:167,1,64.9997368421055,0|0,3:0|3:0,0:0:0:0:
170,216,126017,6,0,B|185:265|185:265|181:287|181:287|195:344,1,129.999473684211,4|2,3:1|3:2,0:0:0:0:
104,381,126491,1,0,3:2:0:0:
27,320,126649,2,0,L|40:238,1,64.9997368421055,2|0,3:2|0:0,0:0:0:0:
84,172,126964,2,0,B|47:107|106:102|57:23,1,129.999473684211,0|2,1:2|3:2,0:0:0:0:
156,2,127438,1,0,1:2:0:0:
211,82,127596,1,2,3:2:0:0:
229,75,127912,6,0,B|281:81|281:81|299:95|299:95|375:101,1,129.999473684211,4|2,3:0|3:2,0:0:0:0:
431,39,128386,1,0,3:2:0:0:
495,111,128543,2,0,L|477:204,1,64.9997368421055,2|0,3:2|0:0,0:0:0:0:
487,285,128859,2,0,P|432:269|381:318,1,129.999473684211,6|2,1:2|3:2,0:0:0:0:
303,372,129333,1,0,1:2:0:0:
234,309,129491,2,0,L|250:227,1,64.9997368421055,4|0,3:0|3:0,0:0:0:0:
311,154,129807,6,0,B|297:102|297:102|301:80|301:80|283:26,1,129.999473684211,4|2,3:1|3:2,0:0:0:0:
187,10,130280,1,0,1:2:0:0:
122,82,130438,2,0,L|43:96,1,64.9997368421055,2|0,3:2|0:0,0:0:0:0:
13,195,130754,2,0,B|74:203|53:259|145:259,1,129.999473684211,4|2,1:2|3:2,0:0:0:0:
208,209,131228,1,0,3:2:0:0:
274,280,131386,2,0,L|297:355,1,64.9997368421055,2|0,1:2|3:2,0:0:0:0:
397,381,131701,6,0,B|403:337|403:337|422:309|422:309|435:234,1,129.999473684211,4|2,3:1|3:2,0:0:0:0:
489,179,132175,1,2,1:2:0:0:
420,113,132333,2,0,L|343:122,1,64.9997368421055,2|0,3:2|3:2,0:0:0:0:
277,180,132649,1,2,1:2:0:0:
378,13,132964,1,2,1:3:0:0:
182,14,133280,1,4,3:0:0:0:
168,26,133596,6,0,B|158:76|158:76|139:98|139:98|131:152,1,129.999473684211,4|2,3:1|3:2,0:0:0:0:
56,210,134070,1,0,1:2:0:0:
126,277,134228,2,0,L|212:267,1,64.9997368421055,2|0,3:2|0:0,0:0:0:0:
263,203,134543,1,2,1:2:0:0:
170,374,134859,1,2,1:3:0:0:
364,360,135175,2,0,L|435:351,1,64.9997368421055,0|0,3:2|1:0,0:0:0:0:
493,278,135491,5,4,3:0:0:0:
422,210,135649,1,4,3:0:0:0:
432,197,135964,5,4,3:0:0:0:
499,126,136122,1,4,3:0:0:0:
512,109,136438,6,0,L|441:94,1,64.9997368421055,2|0,1:3|0:0,0:0:0:0:
365,54,136754,1,4,3:0:0:0:
365,54,136912,1,0,3:0:0:0:
309,134,137070,1,8,3:0:0:0:
136,42,137386,5,4,3:1:0:0:
