osu file format v14

[General]
AudioFilename: audio.mp3
AudioLeadIn: 0
PreviewTime: 193779
Countdown: 0
SampleSet: Soft
StackLeniency: 0.7
Mode: 0
LetterboxInBreaks: 0
WidescreenStoryboard: 1

[Editor]
Bookmarks: 92926,109867,114279
DistanceSpacing: 1.1
BeatDivisor: 4
GridSize: 32
TimelineZoom: 2.599999

[Metadata]
Title:Senjin Genmu
TitleUnicode:戦刃幻夢
Artist:Suara
ArtistUnicode:Suara
Creator:Deca
Version:KoldNoodl's Hard
Source:うたわれるもの斬2
Tags:koldnoodl utawarerumono zan two mask of truth action arpg roleplaying game visual novel japanese pop eurobeat aquaplus the one of whom legends are sung すあら akiko tatsumi 巽 明子 f.i.x. fix records naoko sutani 須谷尚子shinya ishikawa 石川真也 michio igasa 衣笠道雄 kenichi arimura 有村健一co2022 ro32 dt3 corsace open
BeatmapID:3792662
BeatmapSetID:1829362

[Difficulty]
HPDrainRate:5
CircleSize:3.8
OverallDifficulty:6
ApproachRate:6
SliderMultiplier:1.4
SliderTickRate:1

[Events]
//Background and Video events
0,0,"91400392_p0.jpg",0,0
//Break Periods
2,36655,41052
2,96655,101758
2,194773,201993
//Storyboard Layer 0 (Background)
//Storyboard Layer 1 (Fail)
//Storyboard Layer 2 (Pass)
//Storyboard Layer 3 (Foreground)
//Storyboard Layer 4 (Overlay)
//Storyboard Sound Samples

[TimingPoints]
1337,600,4,2,1,60,1,0
1337,-133.333333333333,4,2,1,60,0,0
22338,352.941176470588,4,2,1,80,1,0
22338,-133.333333333333,4,2,1,80,0,0
25161,-100,4,2,1,80,0,0
30366,-100,4,2,1,5,0,0
30455,-100,4,2,1,80,0,0
33190,-100,4,2,1,5,0,0
33279,-100,4,2,1,80,0,0
42102,-133.333333333333,4,2,1,60,0,0
46161,-133.333333333333,4,2,1,80,0,0
47749,-133.333333333333,4,2,1,70,0,0
64867,-133.333333333333,4,2,1,75,0,0
67514,-133.333333333333,4,2,1,80,0,0
70337,-100,4,2,1,80,0,1
93014,-100,4,2,1,80,0,0
104220,-133.333333333333,4,2,1,80,0,0
109867,-133.333333333333,4,2,1,60,0,0
113926,-133.333333333333,4,2,1,80,0,0
115514,-133.333333333333,4,2,1,70,0,0
132632,-133.333333333333,4,2,1,75,0,0
135279,-133.333333333333,4,2,1,80,0,0
138102,-100,4,2,1,80,0,1
160690,-100,4,2,1,65,0,1
161396,-133.333333333333,4,2,1,65,0,0
166337,-133.333333333333,4,2,1,75,0,0
171985,-133.333333333333,4,2,1,65,0,0
181867,-133.333333333333,4,2,1,80,0,0
183279,-100,4,2,1,85,0,0
203043,-100,4,2,1,80,0,0
204367,-100,4,2,1,5,0,0
204455,-100,4,2,1,80,0,0
205867,-100,4,2,1,80,0,1
219985,-133.333333333333,4,2,1,80,0,1
221573,-100,4,2,1,80,0,1
226601,-100,4,2,1,5,0,1
226690,-100,4,2,1,80,0,1
233926,-100,4,2,1,80,0,0

[Colours]
Combo1 : 248,175,109
Combo2 : 248,194,194

[HitObjects]
33,156,1337,6,0,P|79:139|137:132,1,105.000004005432,4|0,0:0|0:0,0:0:0:0:
197,84,2237,2,0,P|183:36|145:64,2,105.000004005432,2|2|2,0:0|0:0|0:0,0:0:0:0:
402,310,5237,2,0,P|420:269|425:239,1,52.5000020027161
467,135,6137,6,0,P|399:134|361:175,1,105.000004005432,2|0,0:0|0:0,0:0:0:0:
311,208,7037,2,0,P|253:200|185:178,2,105.000004005432,2|2|2,0:0|0:0|0:0,0:0:0:0:
53,340,10037,2,0,P|63:304|78:281,1,52.5000020027161,0|2,0:0|0:0,0:0:0:0:
35,156,10937,6,0,P|100:158|145:236,1,157.500006008148,4|0,0:2|0:0,0:0:0:0:
200,288,12137,2,0,P|265:286|310:208,1,157.500006008148,2|0,0:0|0:0,0:0:0:0:
361,151,13337,2,0,P|421:159|477:183,1,105.000004005432,2|0,0:0|0:0,0:0:0:0:
411,236,14237,2,0,P|351:228|295:204,1,105.000004005432,2|0,0:0|0:0,0:0:0:0:
280,138,15137,1,0,0:0:0:0:
280,138,15737,6,0,P|261:90|208:63,1,105.000004005432,2|2,0:0|0:0,0:0:0:0:
183,192,16937,2,0,P|142:159|83:163,1,105.000004005432,2|2,0:0|0:0,0:0:0:0:
139,297,18137,2,0,P|132:289|122:283,2,13.125000500679,2|0|0,0:0|0:0|0:0,0:0:0:0:
256,192,18362,12,0,20537,0:0:0:0:
36,43,22338,6,2,P|20:90|47:133,1,105.000004005432,0|0,0:1|0:0,0:1:0:0:
119,170,22867,2,2,P|179:155|231:143,1,105.000004005432,0|0,0:0|0:0,0:1:0:0:
271,82,23396,1,0,0:1:0:0:
339,124,23573,1,0,0:0:0:0:
400,71,23749,6,2,P|377:24|340:5,1,78.7500030040742,0|0,0:0|0:0,0:1:0:0:
295,191,24279,2,2,P|318:238|355:257,2,78.7500030040742,0|0|2,0:0|0:0|0:1,0:1:0:0:
339,124,24985,1,0,0:0:0:0:
237,129,25161,5,4,1:2:0:0:
188,218,25338,2,0,L|98:203,1,70,2|8,0:1|0:0,0:0:0:0:
114,211,25602,1,0,0:0:0:0:
109,216,25690,1,0,0:0:0:0:
52,153,25867,2,0,P|51:108|92:64,2,105,2|2|2,1:0|0:1|0:1,0:0:0:0:
1,255,26573,5,0,1:0:0:0:
64,305,26749,2,0,L|154:290,1,70,2|8,0:1|0:0,0:0:0:0:
138,298,27013,1,2,0:1:0:0:
143,303,27101,1,2,0:0:0:0:
209,347,27279,2,0,L|331:328,2,105,2|2|2,1:0|0:1|0:1,0:0:0:0:
239,190,28161,6,0,P|226:157|245:100,1,70,2|8,0:1|0:0,0:0:0:0:
235,117,28426,1,0,0:0:0:0:
241,113,28514,1,0,0:0:0:0:
181,60,28690,2,0,L|63:77,2,105,2|2|2,1:0|0:1|0:1,0:0:0:0:
267,0,29396,5,0,1:0:0:0:
333,43,29573,2,0,P|346:76|327:133,1,70,2|8,0:1|0:0,0:0:0:0:
337,116,29838,1,2,0:1:0:0:
331,120,29926,1,2,0:0:0:0:
286,211,30102,2,0,L|417:185,1,105,2|0,1:1|0:0,0:0:0:0:
401,200,30455,2,0,L|389:253,4,35,2|2|10|2|6,1:2|0:2|0:2|0:2|1:2,0:0:0:0:
410,336,30985,6,0,P|359:318|317:326,1,70,2|8,0:1|0:0,0:0:0:0:
338,321,31249,1,2,0:1:0:0:
332,325,31337,1,2,0:0:0:0:
262,367,31514,2,0,P|209:370|164:311,2,105,2|2|2,1:0|0:1|0:1,0:0:0:0:
249,268,32220,5,0,1:0:0:0:
320,231,32396,2,0,P|331:187|325:142,1,70,2|8,0:1|0:0,0:0:0:0:
326,157,32661,1,2,0:1:0:0:
320,152,32749,1,2,0:0:0:0:
358,83,32926,2,0,P|313:50|249:65,1,105,2|0,1:0|0:0,0:0:0:0:
258,68,33279,2,0,L|213:57,4,35,2|2|10|2|4,1:0|0:0|0:0|0:0|1:2,0:0:0:0:
152,3,33808,6,0,P|142:52|134:99,1,70,2|8,0:1|0:0,0:0:0:0:
138,71,34073,1,0,0:0:0:0:
138,71,34161,1,2,0:0:0:0:
87,142,34337,2,0,P|97:191|105:238,1,70,2|0,1:0|0:0,0:0:0:0:
97,215,34602,1,0,0:0:0:0:
95,220,34690,1,10,0:0:0:0:
173,272,34867,1,0,1:1:0:0:
127,353,35043,1,2,1:0:0:0:
256,192,35396,12,0,36455,0:0:0:0:
463,305,42102,6,0,P|413:314|361:276,1,105.000004005432,4|8,1:2|0:0,0:0:0:0:
313,233,42632,2,0,L|243:246,2,52.5000020027161,0|0|0,0:0|0:0|1:0,0:0:0:0:
364,173,43161,1,10,0:0:0:0:
364,173,43337,2,0,P|372:123|209:120,1,262.500010013581,2|0,0:0|0:0,0:0:0:0:
226,181,44396,5,2,1:2:0:0:
226,181,44573,2,0,P|190:174|152:172,1,52.5000020027161,10|0,0:2|0:0,0:0:0:0:
113,131,44926,2,0,P|88:158|68:190,1,52.5000020027161,8|8,0:0|0:0,0:0:0:0:
21,224,45279,2,0,P|32:258|50:292,1,52.5000020027161,8|8,0:0|0:0,0:0:0:0:
44,352,45632,2,0,L|88:339,3,26.2500010013581,8|8|8|8,0:0|0:0|0:0|0:0,0:0:0:0:
94,338,45985,5,8,0:0:0:0:
172,382,46161,2,0,P|191:301|198:257,1,105.000004005432,2|2,1:0|1:0,0:0:0:0:
345,188,46867,2,2,P|326:107|319:63,1,105.000004005432,0|0,1:0|1:0,0:1:0:0:
369,21,47396,1,8,0:0:0:0:
441,70,47573,5,0,1:0:0:0:
441,70,47661,1,0,1:0:0:0:
441,70,47749,2,0,P|486:60|510:48,2,52.5000020027161,4|2|10,1:2|0:0|0:0,0:0:0:0:
385,126,48279,2,0,P|340:111|260:105,1,105.000004005432,2|2,0:0|0:0,0:0:0:0:
182,15,48985,2,0,P|137:30|57:36,1,105.000004005432,2|0,3:2|0:0,0:0:0:0:
32,99,49514,1,8,0:0:0:0:
32,99,49690,2,0,P|20:146|69:197,1,105.000004005432,2|2,0:0|0:0,0:0:0:0:
121,217,50220,1,8,0:0:0:0:
301,137,50573,5,2,1:2:0:0:
301,137,50749,2,0,P|292:180|283:208,1,52.5000020027161,2|8,0:2|0:0,0:0:0:0:
226,235,51102,2,0,P|235:278|244:306,1,52.5000020027161,2|0,0:2|1:0,0:0:0:0:
298,333,51455,2,0,P|289:376|280:404,1,52.5000020027161,2|8,0:0|0:0,0:0:0:0:
207,378,51808,2,0,P|148:377|114:337,1,105.000004005432,2|2,0:0|0:0,0:0:0:0:
90,275,52337,1,10,0:0:0:0:
142,89,52690,1,0,1:0:0:0:
74,131,52866,1,0,0:0:0:0:
132,186,53043,1,10,0:0:0:0:
208,150,53220,5,2,0:0:0:0:
208,150,53308,1,0,0:0:0:0:
208,150,53396,2,0,P|256:129|316:134,1,105.000004005432,2|8,1:2|0:0,0:0:0:0:
446,202,54102,2,0,P|456:173|460:139,2,52.5000020027161,2|2|10,1:2|0:2|0:2,0:0:0:0:
385,257,54632,2,0,P|397:316|417:375,2,105.000004005432,2|0|2,0:0|0:0|0:0,0:0:0:0:
317,218,55514,6,0,P|276:215|234:277,1,105.000004005432,2|10,1:2|0:0,0:0:0:0:
181,314,56043,2,0,P|140:317|98:255,1,105.000004005432,2|0,0:0|0:0,0:0:0:0:
43,218,56573,2,0,P|52:178|59:144,1,52.5000020027161,10|2,0:0|0:2,0:0:0:0:
124,129,56926,2,0,P|133:89|140:55,1,52.5000020027161,2|2,1:2|0:2,0:0:0:0:
197,32,57279,1,10,0:2:0:0:
268,63,57455,2,0,P|325:58|360:2,1,105.000004005432,2|2,0:1|0:1,0:0:0:0:
473,251,58337,5,2,0:1:0:0:
360,188,58690,1,2,1:2:0:0:
298,301,59043,1,2,1:0:0:0:
298,301,59220,2,0,P|238:308|195:282,1,105.000004005432,2|2,0:1|0:0,0:0:0:0:
154,226,59749,2,0,P|130:259|126:290,2,52.5000020027161,2|2|10,1:2|0:0|0:0,0:0:0:0:
232,215,60279,2,0,P|256:182|260:151,1,52.5000020027161,2|0,0:0|1:0,0:0:0:0:
318,117,60632,2,0,P|314:68|260:37,1,105.000004005432
200,74,61161,1,0,1:0:0:0:
58,19,61514,1,8,0:0:0:0:
92,169,61867,5,2,1:0:0:0:
92,169,62043,2,0,L|67:292,1,105.000004005432,2|2,0:1|0:0,0:0:0:0:
124,329,62573,2,0,P|158:322|192:297,1,52.5000020027161,2|0,1:2|0:0,0:0:0:0:
232,259,62926,1,10,0:0:0:0:
360,371,63279,6,0,P|339:333|342:259,1,105.000004005432,2|10,1:0|0:0,0:0:0:0:
397,201,63808,1,2,1:0:0:0:
483,41,64161,2,0,P|448:19|415:16,2,52.5000020027161,2|8|0,1:0|0:0|1:0,0:0:0:0:
512,132,64690,5,2,1:0:0:0:
512,132,64867,2,2,L|386:109,1,105.000004005432,0|0,1:0|1:0,0:1:0:0:
328,48,65396,1,10,0:0:0:0:
246,192,65749,1,0,0:0:0:0:
112,84,66102,5,2,1:0:0:0:
112,84,66279,2,2,P|88:118|99:188,1,105.000004005432,0|2,1:0|1:2,0:1:0:0:
149,233,66808,1,10,0:0:0:0:
167,159,66985,1,0,0:0:0:0:
110,347,67338,5,8,3:3:0:0:
110,347,67514,2,0,L|184:333,1,52.5000020027161,0|8,1:0|0:0,0:0:0:0:
216,281,67867,2,0,L|290:267,1,52.5000020027161,0|8,1:0|0:0,0:0:0:0:
334,310,68220,2,0,L|408:296,1,52.5000020027161,2|2,1:2|0:2,0:0:0:0:
435,242,68573,2,0,L|509:228,1,52.5000020027161,2|2,1:2|0:2,0:0:0:0:
480,325,68926,5,2,1:1:0:0:
431,68,69455,1,2,1:0:0:0:
27,92,70337,6,0,P|76:134|161:108,1,140,6|10,1:1|0:0,0:0:0:0:
202,64,70867,2,0,L|305:75,1,70,2|2,0:1|1:2,0:0:0:0:
326,127,71220,1,2,0:1:0:0:
390,83,71396,1,8,0:0:0:0:
456,171,71573,6,0,P|473:237|434:292,1,140,2|2,1:0|1:0,0:0:0:0:
348,273,72102,1,10,0:1:0:0:
348,273,72279,2,0,P|331:207|370:152,1,140,2|2,0:1|0:0,0:0:0:0:
434,292,72808,2,0,P|413:333|371:354,1,70,10|2,0:0|0:0,0:0:0:0:
317,378,73161,6,0,L|165:353,1,140,2|8,1:0|0:0,0:0:0:0:
130,295,73690,2,0,P|92:280|51:287,1,70,2|0,0:1|1:0,0:0:0:0:
190,245,74043,2,0,P|183:204|157:172,1,70,2|8,0:1|0:0,0:0:0:0:
93,138,74396,6,0,P|174:149|231:93,1,140,2|2,0:1|0:1,0:0:0:0:
218,116,74837,1,2,0:1:0:0:
218,116,74926,1,8,0:0:0:0:
203,28,75102,2,0,P|136:13|77:49,1,140,2|2,0:1|0:0,0:0:0:0:
11,104,75632,1,10,0:0:0:0:
93,138,75808,1,2,0:0:0:0:
36,200,75985,6,0,L|16:348,1,140,2|10,1:0|0:0,0:0:0:0:
83,382,76514,2,0,P|122:357|177:354,1,70,2|0,0:1|1:0,0:0:0:0:
221,384,76866,1,2,0:1:0:0:
252,306,77043,1,10,0:0:0:0:
178,277,77219,1,2,0:0:0:0:
178,277,77396,6,0,P|166:244|169:209,1,70,2|0,1:0|0:0,0:0:0:0:
237,152,77749,1,10,0:0:0:0:
292,221,77926,2,0,P|364:230|435:181,1,140,2|0,0:1|0:0,0:0:0:0:
487,241,78455,2,0,P|498:208|495:173,1,70,8|0,0:0|0:0,0:0:0:0:
430,117,78808,5,2,1:0:0:0:
351,277,79161,1,10,0:1:0:0:
204,183,79514,1,2,1:0:0:0:
204,183,79690,2,0,P|212:145|220:105,1,70,2|8,0:0|0:0,0:0:0:0:
242,37,80043,5,2,0:0:0:0:
242,37,80132,1,0,0:0:0:0:
242,37,80220,1,2,1:0:0:0:
295,164,80396,2,0,P|329:161|362:148,1,70,2|2,0:1|0:0,0:0:0:0:
218,114,80749,2,0,P|152:128|113:203,1,140,2|2,1:0|1:2,0:0:0:0:
184,239,81279,1,10,0:1:0:0:
130,304,81455,1,2,1:0:0:0:
58,256,81632,6,0,P|23:201|56:117,1,140,6|10,1:1|0:0,0:0:0:0:
35,53,82161,2,0,P|83:64|113:99,1,70,2|0,0:1|1:0,0:0:0:0:
164,32,82514,2,0,P|178:79|163:123,1,70,2|8,0:1|0:0,0:0:0:0:
113,184,82867,6,0,L|258:161,1,140,2|2,1:0|1:0,0:0:0:0:
251,162,83308,1,0,0:0:0:0:
251,162,83396,1,10,0:1:0:0:
266,246,83573,2,0,L|121:269,1,140,2|2,3:1|0:0,0:0:0:0:
56,239,84102,2,0,P|35:266|33:301,1,70,10|0,0:0|0:0,0:0:0:0:
87,377,84455,6,0,B|122:351|122:351|248:334,1,140,2|8,1:0|0:0,0:0:0:0:
295,381,84985,2,0,L|382:366,1,70,2|0,0:1|1:0,0:0:0:0:
350,278,85337,2,0,L|263:293,1,70,2|10,0:1|0:0,0:0:0:0:
430,309,85690,6,2,P|438:276|430:242,1,70,0|0,0:0|1:0,0:1:0:0:
301,159,86043,2,0,P|325:183|359:192,1,70,2|10,0:1|0:1,0:0:0:0:
312,75,86396,2,0,P|269:79|225:179,1,140,2|2,0:1|0:0,0:0:0:0:
255,226,86926,2,0,P|263:259|255:293,1,70,10|2,0:0|0:0,0:0:0:0:
313,350,87279,6,0,L|153:325,1,140,2|8,1:1|0:0,0:0:0:0:
111,279,87808,2,0,L|28:293,2,70,2|2|2,0:0|1:2|0:2,0:0:0:0:
159,214,88337,1,8,0:0:0:0:
99,160,88513,1,0,0:0:0:0:
144,90,88690,6,0,P|193:57|287:85,1,140,2|10,1:0|0:0,0:0:0:0:
333,139,89220,2,0,P|399:153|458:118,1,140,2|2,0:1|0:1,0:0:0:0:
504,38,89749,1,10,0:0:0:0:
416,247,90102,6,0,L|327:232,1,70,2|0,1:0|0:0,0:0:0:0:
283,287,90455,2,0,L|194:272,1,70,10|0,0:1|0:0,0:0:0:0:
118,306,90808,2,0,L|133:217,1,70,2|2,1:0|0:0,0:0:0:0:
72,168,91161,2,0,L|87:79,1,70,10|2,0:0|0:0,0:0:0:0:
99,6,91514,5,2,1:0:0:0:
286,163,92043,1,2,3:1:0:0:
286,163,92220,2,2,P|215:85|232:199,1,280,8|6,0:0|1:2,0:1:0:0:
256,192,93014,12,0,96455,0:0:0:0:
256,192,102808,5,2,1:0:0:0:
379,368,103161,2,0,L|395:297,1,70
367,202,103514,6,0,P|418:198|463:224,2,105,2|2|2,0:1|0:1|0:1,0:0:0:0:
302,273,104220,5,2,0:2:0:0:
192,155,104749,1,2,0:2:0:0:
50,230,105279,1,2,0:2:0:0:
163,343,105808,1,2,0:2:0:0:
302,273,106337,6,0,L|313:209,1,52.5000020027161
267,163,106690,2,0,L|278:99,1,52.5000020027161
342,70,107043,5,2,0:2:0:0:
232,188,107572,1,2,0:2:0:0:
90,113,108102,1,2,0:2:0:0:
203,0,108631,1,2,0:2:0:0:
342,70,109161,2,0,L|402:98,2,52.5000020027161
488,171,109867,6,0,P|512:122|511:103,2,52.5000020027161,4|0|8,1:2|0:0|0:0,0:0:0:0:
425,218,110396,2,0,L|306:201,1,105.000004005432,0|0,0:0|1:0,0:0:0:0:
294,277,110926,6,0,P|318:326|317:345,2,52.5000020027161,10|2|0,0:0|0:0|1:0,0:0:0:0:
231,230,111455,2,0,L|112:247,1,105.000004005432
62,290,111985,6,0,L|0:279,2,52.5000020027161,0|2|10,0:0|1:2|0:2,0:0:0:0:
256,192,112690,12,2,113926,1:0:0:0:
256,192,114279,5,2,1:0:0:0:
256,192,114632,6,2,P|313:181|376:162,1,105.000004005432,0|0,1:0|1:0,0:1:0:0:
430,202,115161,1,8,0:0:0:0:
477,129,115337,5,0,1:0:0:0:
477,129,115426,1,0,1:0:0:0:
477,129,115514,2,0,P|432:116|411:115,2,52.5000020027161,4|2|10,1:2|0:0|0:0,0:0:0:0:
442,39,116044,2,0,P|379:50|351:100,1,105.000004005432,2|0,0:0|0:0,0:0:0:0:
263,205,116749,2,0,P|200:194|172:144,1,105.000004005432,2|0,3:2|0:0,0:0:0:0:
109,131,117279,1,8,0:0:0:0:
109,131,117455,2,0,P|118:78|138:16,1,105.000004005432,2|2,0:0|0:0,0:0:0:0:
224,0,117985,1,8,0:0:0:0:
300,43,118161,1,0,0:0:0:0:
310,140,118338,5,2,1:2:0:0:
310,140,118514,2,0,P|301:177|289:206,1,52.5000020027161,2|8,0:2|0:0,0:0:0:0:
252,257,118867,2,0,P|289:266|318:278,1,52.5000020027161,2|0,0:2|1:0,0:0:0:0:
368,316,119220,2,0,P|377:279|389:250,1,52.5000020027161,2|8,0:0|0:0,0:0:0:0:
439,215,119573,2,0,P|426:158|376:137,1,105.000004005432,2|0,0:0|0:0,0:0:0:0:
310,140,120102,1,10,0:0:0:0:
166,248,120455,1,0,1:0:0:0:
103,189,120631,1,0,0:0:0:0:
186,158,120808,1,10,0:0:0:0:
251,226,120985,5,2,0:0:0:0:
251,226,121073,1,0,0:0:0:0:
251,226,121161,2,0,P|272:274|267:334,1,105.000004005432,2|8,1:2|0:0,0:0:0:0:
122,371,121867,2,0,P|97:379|71:384,2,52.5000020027161,2|2|10,1:2|0:2|0:2,0:0:0:0:
191,340,122396,2,0,P|170:292|175:232,2,105.000004005432,2|0|2,0:0|0:0|0:0,0:0:0:0:
274,323,123279,2,0,L|376:298,1,105.000004005432,2|10,1:2|0:0,0:0:0:0:
357,216,123808,2,0,L|254:240,1,105.000004005432,2|0,0:0|0:0,0:0:0:0:
180,283,124338,6,0,P|171:243|164:209,1,52.5000020027161,10|2,0:0|0:2,0:0:0:0:
111,176,124690,2,0,P|123:136|134:103,1,52.5000020027161,2|2,1:2|0:2,0:0:0:0:
159,54,125044,1,10,0:2:0:0:
207,151,125220,2,0,P|258:155|304:127,1,105.000004005432,2|2,0:1|0:1,0:0:0:0:
496,21,126102,5,2,0:1:0:0:
367,59,126455,1,10,0:0:0:0:
415,190,126808,1,2,1:0:0:0:
415,190,126985,2,0,P|422:250|396:293,1,105.000004005432,2|2,0:1|0:0,0:0:0:0:
344,334,127514,2,0,P|377:358|408:362,2,52.5000020027161,2|2|10,1:2|0:0|0:0,0:0:0:0:
328,257,128043,2,0,P|308:239|284:230,1,52.5000020027161,2|0,0:0|1:0,0:0:0:0:
218,177,128396,2,0,L|201:303,1,105.000004005432
189,359,128926,1,0,1:0:0:0:
83,250,129279,1,8,0:0:0:0:
218,177,129632,5,2,1:0:0:0:
218,177,129808,2,0,P|228:118|197:76,1,105.000004005432,2|2,0:1|0:0,0:0:0:0:
164,15,130337,2,0,P|134:47|128:79,1,52.5000020027161,2|0,1:2|0:0,0:0:0:0:
146,131,130691,1,10,0:0:0:0:
271,23,131043,6,0,P|323:16|368:41,1,105.000004005432,2|10,1:0|0:0,0:0:0:0:
414,102,131573,1,2,1:0:0:0:
314,239,131926,2,0,P|304:267|306:309,2,52.5000020027161,2|8|0,1:0|0:0|1:0,0:0:0:0:
384,175,132455,5,2,1:0:0:0:
384,175,132632,2,2,L|258:152,1,105.000004005432,0|0,1:0|1:0,0:1:0:0:
218,87,133161,1,10,0:0:0:0:
135,205,133514,1,0,0:0:0:0:
9,143,133867,5,2,1:0:0:0:
9,143,134044,2,2,P|1:92|27:48,1,105.000004005432,0|0,1:0|1:0,0:1:0:0:
98,18,134573,1,10,0:0:0:0:
89,94,134750,1,0,0:0:0:0:
249,64,135103,5,8,3:3:0:0:
249,64,135279,2,0,L|325:49,1,52.5000020027161,0|8,1:0|0:0,0:0:0:0:
364,103,135632,2,0,L|438:89,1,52.5000020027161,0|8,1:0|0:0,0:0:0:0:
512,172,135985,2,0,L|436:157,1,52.5000020027161,2|2,1:2|0:2,0:0:0:0:
397,211,136338,2,0,L|323:197,1,52.5000020027161,2|2,1:2|0:2,0:0:0:0:
280,151,136691,5,2,1:1:0:0:
137,323,137220,1,2,1:0:0:0:
512,154,138102,6,0,P|463:112|378:138,1,140,6|10,1:1|0:0,0:0:0:0:
326,160,138632,2,0,L|238:147,1,70,2|2,0:1|1:2,0:0:0:0:
205,88,138985,1,2,0:1:0:0:
138,128,139161,1,8,0:0:0:0:
70,49,139337,6,0,P|37:85|60:183,1,140,2|2,1:0|1:0,0:0:0:0:
121,219,139867,1,10,0:1:0:0:
121,219,140043,2,0,P|55:202|0:241,1,140,2|2,0:1|0:0,0:0:0:0:
185,270,140573,2,0,P|201:231|195:176,1,70,10|2,0:0|0:0,0:0:0:0:
120,322,140926,6,0,L|272:297,1,140,2|8,1:0|0:0,0:0:0:0:
315,242,141455,2,0,P|353:227|394:234,1,70,2|0,0:1|1:0,0:0:0:0:
398,309,141808,2,0,P|360:324|319:317,1,70,2|8,0:1|0:0,0:0:0:0:
232,220,142161,6,0,L|263:67,1,140,2|2,0:1|0:1,0:0:0:0:
259,82,142602,1,2,0:1:0:0:
259,82,142691,1,8,0:0:0:0:
363,13,142867,2,0,L|332:166,1,140,2|2,0:1|0:0,0:0:0:0:
392,214,143397,1,10,0:0:0:0:
471,182,143573,1,2,0:0:0:0:
436,289,143749,6,0,P|370:299|311:253,1,140,2|10,1:0|0:0,0:0:0:0:
251,200,144279,2,0,P|235:231|233:266,1,70,2|0,0:1|1:0,0:0:0:0:
277,335,144631,1,2,0:1:0:0:
203,373,144808,1,10,0:0:0:0:
160,305,144984,1,2,0:0:0:0:
160,305,145161,6,0,P|131:284|97:275,1,70,2|0,1:0|0:0,0:0:0:0:
98,362,145514,1,10,0:0:0:0:
18,310,145690,2,0,P|15:248|70:192,1,140,2|0,0:1|0:0,0:0:0:0:
145,202,146220,2,0,P|141:167|122:138,1,70,8|0,0:0|0:0,0:0:0:0:
50,112,146573,5,2,1:0:0:0:
98,275,146926,1,10,0:1:0:0:
258,217,147279,1,2,1:0:0:0:
258,217,147455,2,0,L|343:188,1,70,2|8,0:0|0:0,0:0:0:0:
420,163,147808,5,2,0:0:0:0:
420,163,147897,1,0,0:0:0:0:
420,163,147985,1,2,1:0:0:0:
354,48,148161,2,0,P|335:84|338:127,1,70,2|2,1:1|0:0,0:0:0:0:
380,242,148514,2,0,P|325:203|249:224,1,140,2|2,1:0|1:2,0:0:0:0:
204,291,149044,1,10,0:1:0:0:
124,245,149220,1,2,1:0:0:0:
152,350,149396,6,0,L|177:188,1,140,6|10,1:1|0:0,0:0:0:0:
217,147,149926,2,0,P|211:112|191:84,1,70,2|0,0:1|1:0,0:0:0:0:
110,79,150279,2,0,P|116:113|136:141,1,70,2|8,0:1|0:0,0:0:0:0:
250,225,150632,6,0,P|295:196|386:215,1,140,2|2,1:0|1:0,0:0:0:0:
377,208,151073,1,0,0:0:0:0:
377,208,151161,1,10,0:1:0:0:
393,125,151337,2,0,P|440:149|469:237,1,140,2|2,3:1|0:0,0:0:0:0:
484,309,151867,2,0,P|449:306|418:290,1,70,10|0,0:0|0:0,0:0:0:0:
377,208,152220,6,0,L|355:368,1,140,2|8,1:0|0:0,0:0:0:0:
289,384,152750,2,0,P|252:372|225:331,1,70,2|0,0:1|1:0,0:0:0:0:
159,322,153102,2,0,P|150:283|172:240,1,70,2|10,0:1|0:0,0:0:0:0:
174,171,153455,6,2,P|211:183|238:224,1,70,0|0,0:0|1:0,0:1:0:0:
92,208,153808,2,0,P|54:195|27:155,1,70,2|10,0:1|0:1,0:0:0:0:
77,54,154161,2,0,P|98:81|102:115,1,70,2|0,0:1|1:0,0:0:0:0:
174,171,154514,1,2,0:0:0:0:
174,171,154690,2,0,L|258:157,1,70,10|2,0:0|0:0,0:0:0:0:
305,90,155043,6,0,P|351:126|438:99,1,140,2|8,1:1|0:0,0:0:0:0:
479,0,155573,2,0,L|491:69,1,70,2|2,0:0|1:2,0:0:0:0:
508,159,155926,1,2,0:2:0:0:
442,227,156102,1,8,0:0:0:0:
356,200,156279,1,0,0:0:0:0:
287,269,156455,6,0,L|141:253,1,140,2|10,1:0|0:0,0:0:0:0:
83,293,156985,2,0,P|72:259|78:225,1,70,2|0,0:1|1:0,0:0:0:0:
139,175,157337,1,2,0:1:0:0:
139,175,157514,1,10,0:0:0:0:
22,57,157867,6,0,L|100:43,1,70,2|0,1:0|0:0,0:0:0:0:
162,81,158220,2,0,L|240:67,1,70,10|0,0:1|0:0,0:0:0:0:
311,16,158573,2,0,L|325:94,1,70,2|2,1:0|0:0,0:0:0:0:
276,168,158926,2,0,L|290:246,1,70,10|2,0:0|0:0,0:0:0:0:
305,326,159279,6,0,P|368:311|440:365,1,140,2|8,1:0|0:0,0:0:0:0:
501,323,159808,1,0,0:0:0:0:
501,323,159985,2,0,P|515:256|479:198,1,140,2|10,1:0|0:1,0:0:0:0:
411,162,160514,1,2,0:1:0:0:
451,93,160690,5,4,1:2:0:0:
110,4,161396,6,0,P|48:13|58:149,1,210.000008010865,10|0,0:0|0:0,0:0:0:0:
172,231,162632,2,0,L|351:197,1,157.500006008148,0|2,0:0|1:2,0:0:0:0:
403,125,163337,5,2,1:2:0:0:
403,125,163426,1,2,1:2:0:0:
403,125,163514,2,0,P|467:144|464:233,1,157.500006008148,2|0,1:2|0:0,0:0:0:0:
391,327,164573,2,0,L|271:305,1,105.000004005432,0|2,0:0|1:0,0:0:0:0:
222,270,165102,6,0,P|209:308|214:336,2,52.5000020027161,0|2|0,0:0|0:1|0:0,0:0:0:0:
292,232,165632,2,0,P|305:194|300:166,2,52.5000020027161,2|2|2,0:0|0:0|0:0,0:0:0:0:
222,270,166161,1,2,0:1:0:0:
168,201,166337,6,0,P|144:192|118:190,1,52.5000020027161,6|0,1:1|0:0,0:0:0:0:
132,273,166690,2,0,P|122:297|120:323,1,52.5000020027161,8|2,0:0|0:1,0:0:0:0:
205,308,167043,2,0,P|229:317|255:319,1,52.5000020027161,0|0,1:0|0:0,0:0:0:0:
241,236,167396,2,0,P|250:211|252:185,1,52.5000020027161,10|2,0:0|0:0,0:0:0:0:
328,118,167749,6,0,P|352:108|378:106,1,52.5000020027161,2|0,1:1|0:0,0:0:0:0:
364,189,168102,2,0,P|373:213|375:239,1,52.5000020027161,8|0,0:0|0:0,0:0:0:0:
291,224,168455,2,0,P|266:233|240:235,1,52.5000020027161,0|2,1:1|0:2,0:0:0:0:
255,152,168808,2,0,P|245:127|243:101,1,52.5000020027161,10|2,0:2|0:0,0:0:0:0:
255,15,169161,5,6,1:2:0:0:
256,192,169249,12,4,171985,1:2:0:0:
19,340,172690,6,0,P|107:353|183:266,1,210.000008010865,8|0,0:0|0:0,0:0:0:0:
121,160,173749,1,0,1:0:0:0:
227,67,174102,2,0,P|315:54|391:141,1,210.000008010865,8|0,0:0|1:0,0:0:0:0:
493,340,175514,6,0,P|405:353|329:266,1,210.000008010865,8|0,0:0|0:0,0:0:0:0:
391,160,176573,1,0,1:0:0:0:
285,67,176926,2,0,P|197:54|121:141,1,210.000008010865,8|0,0:0|1:2,0:0:0:0:
41,298,178337,6,0,L|262:262,1,210.000008010865,8|0,0:0|0:0,0:0:0:0:
361,287,179396,1,0,1:0:0:0:
377,174,179749,2,0,L|156:138,1,210.000008010865,8|4,0:0|1:2,0:0:0:0:
256,192,180543,12,0,181514,0:0:0:0:
88,73,181867,6,0,L|79:118,7,26.2500010013581,2|2|2|2|10|2|2|2,1:0|0:0|0:0|0:0|0:1|0:0|0:0|0:0,0:0:0:0:
101,134,182573,2,0,L|92:179,7,26.2500010013581,2|2|2|2|10|2|2|2,1:0|0:0|0:0|0:0|0:1|0:0|0:0|0:0,0:0:0:0:
110,190,183279,6,0,P|165:155|260:170,1,140,6|10,1:1|0:1,0:0:0:0:
305,212,183808,2,2,P|373:216|432:180,1,140,0|2,1:0|3:1,0:1:0:0:
479,99,184337,1,10,0:1:0:0:
394,55,184514,1,2,0:1:0:0:
352,138,184690,6,0,L|371:229,1,70,2|0,1:0|0:0,0:0:0:0:
366,206,184955,1,2,0:1:0:0:
366,206,185043,1,8,0:0:0:0:
327,293,185220,2,0,P|258:297|199:261,1,140,2|2,0:1|0:1,0:0:0:0:
138,203,185749,1,10,0:1:0:0:
184,131,185926,1,2,0:1:0:0:
111,70,186102,6,2,P|38:110|42:188,1,140,0|10,1:0|0:1,0:1:0:0:
86,219,186632,2,0,P|126:292|204:288,1,140,2|2,0:1|0:1,0:0:0:0:
237,248,187161,2,0,P|272:250|318:226,1,70,10|2,0:1|0:1,0:0:0:0:
367,182,187514,5,2,1:1:0:0:
429,320,187779,1,2,0:1:0:0:
512,193,188043,2,0,P|498:120|426:84,1,140,2|0,0:1|0:0,0:0:0:0:
372,108,188573,2,0,L|213:87,1,140,10|4,0:1|1:2,0:0:0:0:
72,22,189279,5,10,0:1:0:0:
7,79,189455,2,2,P|-6:146|26:206,1,140,0|2,1:0|1:0,0:1:0:0:
87,257,189985,1,10,0:1:0:0:
142,197,190161,1,2,0:1:0:0:
214,237,190337,2,0,L|315:216,1,70,2|0,1:0|0:0,0:0:0:0:
282,222,190602,1,2,0:1:0:0:
282,222,190690,1,8,0:0:0:0:
363,263,190867,2,2,P|395:202|381:135,1,140,0|2,1:0|3:1,0:1:0:0:
320,71,191396,1,10,0:1:0:0:
239,96,191573,1,0,0:0:0:0:
216,181,191749,6,0,L|254:338,1,140,6|10,1:0|0:1,0:0:0:0:
175,384,192279,2,0,L|142:247,1,140,2|0,0:1|0:0,0:0:0:0:
68,193,192808,2,2,L|86:112,1,70,8|0,0:0|0:0,0:1:0:0:
110,14,193161,5,6,1:2:0:0:
170,83,193337,1,0,0:0:0:0:
258,95,193514,1,8,0:0:0:0:
334,42,193690,1,2,0:0:0:0:
247,4,193867,5,2,1:0:0:0:
348,144,194220,1,10,0:0:0:0:
195,169,194573,1,4,0:0:0:0:
256,192,203043,12,0,204367,0:0:0:0:
256,192,204455,12,6,205867,1:1:0:0:
58,326,206220,5,10,0:0:0:0:
58,326,206396,2,0,L|141:311,1,70,2|0,0:1|1:0,0:0:0:0:
182,257,206749,1,2,0:1:0:0:
250,297,206926,1,8,0:0:0:0:
309,230,207102,6,0,P|326:164|287:109,1,140,2|2,1:0|1:0,0:0:0:0:
210,126,207631,1,10,0:1:0:0:
210,126,207808,2,0,P|193:192|232:247,1,140,2|2,3:1|0:0,0:0:0:0:
309,230,208337,1,10,0:0:0:0:
360,290,208514,1,0,0:0:0:0:
431,251,208690,6,0,P|470:195|453:129,1,140,2|8,1:0|0:0,0:0:0:0:
501,67,209219,2,0,P|463:52|422:59,1,70,2|0,0:1|1:0,0:0:0:0:
368,9,209573,2,0,P|353:47|360:88,1,70,2|10,0:1|0:0,0:0:0:0:
384,166,209926,6,2,L|245:144,1,140,0|2,0:0|0:1,0:1:0:0:
242,140,210366,1,0,0:0:0:0:
239,137,210455,1,10,0:1:0:0:
198,70,210631,2,0,P|131:55|72:91,1,140,2|2,0:1|0:0,0:0:0:0:
43,178,211161,1,10,0:0:0:0:
118,231,211337,1,2,0:0:0:0:
189,181,211514,6,0,P|219:215|202:321,1,140,2|8,1:1|0:0,0:0:0:0:
274,358,212043,2,0,P|313:333|368:330,1,70,2|2,0:0|1:2,0:0:0:0:
415,364,212395,1,0,0:0:0:0:
455,284,212572,1,8,0:0:0:0:
455,284,212748,1,0,0:0:0:0:
374,247,212925,6,0,P|362:214|365:179,1,70,2|0,1:0|0:0,0:0:0:0:
410,114,213278,1,10,0:0:0:0:
355,57,213455,2,0,P|286:47|225:79,1,140,2|2,0:1|0:1,0:0:0:0:
148,57,213984,2,0,P|145:91|156:124,1,70,10|0,0:0|0:0,0:0:0:0:
232,161,214337,5,2,1:0:0:0:
88,226,214690,1,10,0:1:0:0:
211,331,215043,1,2,1:0:0:0:
355,257,215396,1,10,0:0:0:0:
342,92,215749,1,2,1:0:0:0:
98,333,216279,5,2,3:1:0:0:
98,333,216455,2,2,L|81:248,1,70,8|0,0:0|0:0,0:1:0:0:
93,187,216808,2,0,P|121:198|145:220,4,35,2|0|0|0|6,1:0|0:0|0:0|0:0|1:1,0:0:0:0:
256,192,217249,12,0,219279,1:0:0:0:
198,89,219985,6,0,P|88:75|105:306,1,420.000016021729,4|4,1:2|1:2,0:0:0:0:
165,384,221573,6,0,L|255:369,1,70,2|8,0:1|0:0,0:0:0:0:
239,377,221837,1,0,0:0:0:0:
244,382,221925,1,0,0:0:0:0:
292,315,222102,2,0,P|293:270|252:226,2,105,2|2|2,1:0|0:1|0:1,0:0:0:0:
205,300,222808,5,0,1:0:0:0:
147,248,222984,2,0,L|162:158,1,70,2|8,0:1|0:0,0:0:0:0:
154,174,223248,1,0,0:0:0:0:
149,169,223336,1,2,0:0:0:0:
105,103,223514,2,0,L|124:-19,2,105,2|2|2,1:0|0:1|0:1,0:0:0:0:
233,64,224396,6,0,P|266:77|323:58,1,70,0|8,0:0|0:0,0:0:0:0:
306,68,224661,1,0,0:0:0:0:
310,62,224749,1,0,0:0:0:0:
363,122,224925,2,0,L|346:240,2,105,2|2|2,1:0|0:1|0:1,0:0:0:0:
264,230,225631,5,0,1:0:0:0:
307,296,225808,2,0,P|340:309|397:290,1,70,2|8,0:1|0:0,0:0:0:0:
380,300,226073,1,2,0:1:0:0:
384,294,226161,1,2,0:0:0:0:
475,249,226337,2,0,L|449:380,1,105,2|0,1:1|0:0,0:0:0:0:
435,379,226690,2,0,L|382:367,4,35,2|2|10|2|6,1:2|0:2|0:2|0:2|1:2,0:0:0:0:
307,296,227220,6,0,P|256:278|214:286,1,70,2|8,0:1|0:0,0:0:0:0:
235,281,227484,1,2,0:1:0:0:
229,285,227572,1,2,0:0:0:0:
162,338,227749,2,0,P|109:341|64:282,2,105,2|2|2,1:0|0:1|0:1,0:0:0:0:
136,262,228455,5,0,1:0:0:0:
78,207,228631,2,0,P|67:163|73:118,1,70,2|8,0:1|0:0,0:0:0:0:
72,133,228896,1,2,0:1:0:0:
78,128,228984,1,2,0:0:0:0:
34,64,229161,2,0,P|79:31|143:46,1,105,2|0,1:0|1:0,0:0:0:0:
143,42,229514,2,0,L|188:31,4,35,2|2|10|2|4,1:0|0:0|0:0|0:0|1:2,0:0:0:0:
257,0,230043,6,0,P|267:49|275:96,1,70,2|8,0:1|0:0,0:0:0:0:
271,68,230308,1,0,0:0:0:0:
271,68,230396,1,2,0:0:0:0:
212,136,230572,2,0,P|202:185|194:232,1,70,2|0,1:0|0:0,0:0:0:0:
195,210,230837,1,0,0:0:0:0:
193,215,230925,1,10,0:0:0:0:
274,277,231102,1,0,1:1:0:0:
188,319,231278,1,2,1:0:0:0:
256,192,231631,12,2,232690,1:0:0:0:
256,192,233043,6,0,L|244:243,4,35,2|2|10|2|10,0:0|0:0|0:0|0:0|0:0,0:0:0:0:
274,112,233573,5,2,1:0:0:0:
332,171,233749,1,10,1:0:0:0:
196,140,233926,1,6,1:0:0:0:
