osu file format v14

[General]
AudioFilename: audio.mp3
AudioLeadIn: 0
PreviewTime: 84056
Countdown: 0
SampleSet: Soft
StackLeniency: 0.7
Mode: 0
LetterboxInBreaks: 0
WidescreenStoryboard: 1

[Editor]
DistanceSpacing: 1.2
BeatDivisor: 4
GridSize: 4
TimelineZoom: 2

[Metadata]
Title:Nuedori
TitleUnicode:ヌエドリ
Artist:Suara
ArtistUnicode:Suara
Creator:kusano
Version:Melo's Hard
Source:うたわれるもの 偽りの仮面
Tags:Melophobia Utawarerumono: ITSUWARI NO KAMEN japanese video game eroge vn visual novel pv
BeatmapID:2981462
BeatmapSetID:1447364

[Difficulty]
HPDrainRate:5
CircleSize:4
OverallDifficulty:6
ApproachRate:7.5
SliderMultiplier:1.6
SliderTickRate:1

[Events]
//Background and Video events
0,0,"u.jpg",0,0
Video,0,"suara.flv"
0,0,"u.jpg",0,0
Video,0,"suara.flv"
//Break Periods
//Storyboard Layer 0 (Background)
//Storyboard Layer 1 (Fail)
//Storyboard Layer 2 (Pass)
//Storyboard Layer 3 (Foreground)
//Storyboard Layer 4 (Overlay)
//Storyboard Sound Samples

[TimingPoints]
39978,319.148936170213,4,2,31,65,1,0
50191,319.148936170213,6,2,31,60,1,0
50191,-100,6,2,31,60,0,0
79871,335.195530726257,6,2,31,60,1,0
80206,326.672837153591,6,2,31,60,1,0
80533,367.669587597279,6,2,31,70,1,0
80900,-117.647058823529,6,2,31,70,0,0
81268,319.148936170213,6,2,31,70,1,0
81427,333.333333333333,6,2,31,70,1,0
81427,-117.647058823529,6,2,31,70,0,0
81593,448.196011055502,6,2,31,70,1,0
82041,413.793103448276,6,2,31,70,1,0
82454,505.305709954523,6,2,31,70,1,0
82454,-133.333333333333,6,2,31,50,0,0
82960,618.684264796865,6,2,31,40,1,0
83578,319.148936170213,6,2,31,70,1,0
84216,319.148936170213,6,1,1,70,1,1
118684,-100,6,1,1,80,0,0
122513,319.148936170213,4,2,31,65,1,0

[Colours]
Combo1 : 0,128,128
Combo2 : 255,192,2
Combo3 : 17,64,174
Combo4 : 240,48,0

[HitObjects]
392,144,39978,6,0,P|424:212|420:312,1,160,4|2,1:2|0:0,0:0:0:0:
332,324,40456,2,0,P|300:256|304:156,1,160,2|0,0:0|0:0,0:0:0:0:
320,80,40935,1,8,0:0:0:0:
152,284,41254,6,0,P|68:276|-4:236,1,160,2|8,0:0|0:0,0:0:0:0:
152,26,41892,2,0,P|192:36|236:60,1,80,2|8,0:0|0:0,0:0:0:0:
312,104,42212,2,0,P|354:96|392:77,1,80,2|8,0:0|0:0,0:0:0:0:
472,36,42531,6,0,P|504:100|500:192,1,160,4|2,1:2|0:0,0:0:0:0:
500,284,43009,2,0,P|420:279|349:313,1,160,8|2,0:0|0:0,0:0:0:0:
268,360,43488,1,8,0:0:0:0:
56,268,43807,6,0,P|136:273|207:239,1,160,4|8,0:0|0:3,0:0:0:0:
240,152,44286,1,8,0:3:0:0:
240,152,44446,2,0,P|236:112|232:72,1,80,4|2,0:3|0:2,0:0:0:0:
332,184,44765,2,0,P|328:223|324:263,1,80,8|8,0:3|0:3,0:0:0:0:
424,92,45084,6,0,P|452:152|448:260,1,160,4|2,1:2|0:0,0:0:0:0:
400,324,45563,2,0,L|236:296,1,160,2|0,0:0|0:0,0:0:0:0:
148,276,46041,1,8,0:0:0:0:
24,132,46360,6,0,P|101:121|160:56,1,160,2|8,0:0|0:0,0:0:0:0:
340,128,46999,2,0,P|336:88|331:48,1,80,2|8,0:0|0:0,0:0:0:0:
448,124,47318,2,0,L|439:203,1,80,2|8,0:0|0:0,0:0:0:0:
484,308,47637,6,0,P|412:276|324:275,1,160,4|2,1:2|0:0,0:0:0:0:
248,324,48116,2,0,P|168:322|95:290,1,160,8|2,0:0|0:0,0:0:0:0:
36,216,48595,1,8,0:0:0:0:
332,12,48914,6,0,P|381:73|404:150,1,160,4|8,0:0|0:0,0:0:0:0:
332,212,49392,1,2,0:0:0:0:
247,163,49552,2,0,P|251:124|266:87,1,80,2|8,0:0|0:0,0:0:0:0:
160,204,49871,2,0,P|174:241|178:280,1,80,8|0,0:0|0:0,0:0:0:0:
8,152,50191,6,0,P|96:144|152:76,1,160,4|2,1:2|0:0,0:0:0:0:
216,32,50669,2,0,B|276:20|276:20|316:32|316:32|384:16,1,160,8|2,1:2|0:0,0:0:0:0:
464,40,51148,1,8,0:0:0:0:
260,260,51467,2,0,P|224:188|236:104,1,160,2|8,0:0|0:0,0:0:0:0:
324,84,51946,5,0,0:0:0:0:
324,84,52105,2,0,L|156:40,1,160,2|2,1:2|0:0,0:0:0:0:
88,96,52584,2,0,P|100:136|108:180,1,80,8|0,1:2|0:0,0:0:0:0:
172,356,53063,2,0,P|100:328|-8:328,2,160,8|2|8,0:0|0:0|0:0,0:0:0:0:
248,300,53861,1,0,0:0:0:0:
348,336,54020,6,0,P|420:332|496:280,1,160,2|2,1:2|0:0,0:0:0:0:
496,188,54499,2,0,P|456:120|448:32,1,160,8|2,0:2|0:0,0:0:0:0:
446,40,54978,1,8,0:0:0:0:
304,228,55297,2,0,P|224:224|152:164,1,160,2|8,0:0|0:0,0:0:0:0:
136,84,55776,1,0,0:0:0:0:
44,56,55935,6,0,P|8:120|12:220,1,160,2|2,1:2|0:0,0:0:0:0:
64,284,56414,1,8,1:2:0:0:
140,223,56573,2,0,P|139:184|128:145,1,80,0|0,1:0|0:0,0:0:0:0:
224,272,56893,2,0,P|312:272|372:208,1,160,8|2,1:2|0:0,0:0:0:0:
376,132,57371,1,2,0:0:0:0:
312,60,57531,2,0,P|271:65|216:76,1,80,8|2,0:0|0:0,0:0:0:0:
160,136,57850,6,0,P|80:132|16:84,1,160,2|2,1:2|0:0,0:0:0:0:
108,52,58329,2,0,P|104:132|56:196,1,160,8|2,1:2|0:0,0:0:0:0:
57,194,58807,1,8,0:0:0:0:
248,352,59126,2,0,P|332:356|404:292,1,160,2|8,0:0|0:0,0:0:0:0:
388,216,59605,1,0,0:0:0:0:
300,260,59765,6,0,P|216:264|144:200,1,160,2|2,1:2|0:0,0:0:0:0:
116,136,60243,2,0,P|122:94|132:48,1,80,8|2,1:2|0:0,0:0:0:0:
420,44,60722,2,0,P|442:120|446:200,2,160,8|2|8,0:0|0:0|0:0,0:0:0:0:
328,16,61520,1,0,0:0:0:0:
263,87,61679,6,0,P|233:61|208:30,1,80,2|0,1:2|0:0,0:0:0:0:
296,180,61999,2,0,P|256:179|216:171,1,80,0|8,1:0|1:2,0:0:0:0:
376,232,62318,2,0,P|345:257|309:276,1,80,2|0,0:0|0:0,0:0:0:0:
364,356,62637,2,0,P|292:320|180:316,1,160,8|2,0:0|0:0,0:0:0:0:
24,204,63276,5,8,0:0:0:0:
24,204,63435,1,0,0:0:0:0:
24,204,63594,2,0,P|97:190|188:176,1,160,2|2,1:2|0:0,0:0:0:0:
268,216,64073,1,8,1:2:0:0:
204,288,64233,2,0,P|208:329|216:376,1,80,0|2,1:0|0:0,0:0:0:0:
308,344,64552,2,0,P|392:329|484:316,1,160,8|2,0:0|0:0,0:0:0:0:
500,228,65030,1,0,0:0:0:0:
420,176,65190,2,0,P|413:134|404:80,1,80,8|2,0:0|0:0,0:0:0:0:
316,132,65510,6,0,P|242:107|156:116,1,160,2|2,1:2|0:0,0:0:0:0:
84,60,65988,2,0,P|116:132|112:220,1,160,8|2,0:0|0:0,0:0:0:0:
52,288,66467,1,8,0:0:0:0:
228,360,66786,2,0,P|320:332|364:276,1,160,2|8,0:0|0:0,0:0:0:0:
372,188,67265,1,0,0:0:0:0:
468,200,67424,6,0,P|438:128|444:20,1,160,2|2,1:2|0:0,0:0:0:0:
437,46,67903,2,0,L|353:22,1,80,8|2,0:0|0:0,0:0:0:0:
204,212,68382,2,0,P|288:212|368:168,2,160,8|2|8,0:0|0:0|0:0,0:0:0:0:
132,148,69180,1,0,0:0:0:0:
48,192,69339,6,0,P|48:276|84:352,1,160,2|2,1:2|0:0,0:0:0:0:
172,368,69818,2,0,P|248:332|348:328,1,160,8|2,0:0|0:0,0:0:0:0:
416,348,70297,1,8,0:0:0:0:
468,164,70616,2,0,P|400:120|312:112,1,160,2|8,0:0|0:0,0:0:0:0:
228,120,71095,1,0,0:0:0:0:
140,84,71254,6,0,B|124:180|172:168|160:260,1,160,2|2,1:2|0:0,0:0:0:0:
161,240,71733,1,8,0:0:0:0:
92,304,71892,2,0,P|96:344|108:388,1,80,2|0,0:0|0:0,0:0:0:0:
4,260,72212,2,0,P|29:179|12:84,1,160,8|2,0:0|0:0,0:0:0:0:
52,16,72690,1,0,0:0:0:0:
136,60,72850,2,0,P|176:52|228:40,1,80,8|0,0:0|0:0,0:0:0:0:
296,92,73169,6,0,P|376:48|464:48,1,160,2|2,1:2|0:0,0:0:0:0:
504,120,73647,2,0,P|472:192|476:276,1,160,8|2,0:0|0:0,0:0:0:0:
508,360,74126,1,8,0:0:0:0:
316,352,74445,2,0,P|232:352|160:314,1,160,2|8,0:0|0:0,0:0:0:0:
132,228,74924,1,0,0:0:0:0:
40,204,75083,6,0,P|132:192|188:136,1,160,2|2,1:2|0:0,0:0:0:0:
160,56,75562,2,0,P|119:44|76:40,1,80,8|2,0:0|0:0,0:0:0:0:
264,252,76041,2,0,P|352:244|416:200,2,160,8|2|8,0:0|0:0|0:0,0:0:0:0:
208,172,76839,1,0,0:0:0:0:
116,200,76998,6,0,L|132:384,1,160,2|2,1:2|0:0,0:0:0:0:
24,384,77478,2,0,L|10:224,1,160,8|2,0:0|0:0,0:0:0:0:
0,128,77956,1,8,1:2:0:0:
236,244,78275,2,0,P|320:232|384:172,1,160,2|8,0:0|1:2,0:0:0:0:
400,92,78754,1,0,0:0:0:0:
336,20,78914,6,0,P|252:32|188:92,1,160,4|2,1:2|0:0,0:0:0:0:
124,140,79392,1,8,0:0:0:0:
124,140,79552,2,0,L|140:232,1,80,2|0,0:0|0:0,0:0:0:0:
48,280,79871,2,0,L|16:113,1,160,8|0,0:0|1:0,0:0:0:0:
272,32,80533,2,0,L|252:144,1,80,8|0,0:0|0:0,0:0:0:0:
384,152,80900,6,0,L|364:15,1,136.000002593994,4|2,1:2|0:0,0:0:0:0:
484,48,81427,2,0,L|472:120,1,68.0000012969971,8|8,0:0|0:0,0:0:0:0:
380,320,82041,6,0,L|364:240,1,80,4|0,0:0|0:0,0:0:0:0:
264,208,82454,2,0,L|248:332,1,120.000004577637,8|8,0:0|0:0,0:0:0:0:
248,344,83578,6,0,P|240:304|220:264,1,80,0|0,1:1|1:0,0:0:0:0:
120,280,83897,2,0,P|112:320|76:372,1,80,0|0,1:0|1:0,0:0:0:0:
16,220,84216,6,0,P|95:225|172:184,1,160,6|0,1:0|1:0,0:0:0:0:
260,192,84694,2,0,P|300:260|308:348,1,160,10|0,1:0|1:0,0:0:0:0:
400,368,85173,2,0,P|448:296|452:200,1,160,10|0,1:0|0:0,0:0:0:0:
416,36,85811,1,10,0:0:0:0:
348,104,85971,1,0,0:0:0:0:
272,48,86130,6,0,B|216:44|216:44|180:60|180:60|92:52,1,160,2|0,0:0|0:0,0:0:0:0:
28,88,86609,2,0,P|36:126|44:172,1,80,10|0,0:0|0:0,0:0:0:0:
184,296,87088,2,0,P|100:296|16:344,2,160,10|0|10,0:0|0:0|0:0,0:0:0:0:
264,348,87886,1,0,0:0:0:0:
360,344,88045,6,0,P|444:324|496:264,1,160,2|0,0:0|0:0,0:0:0:0:
504,176,88524,2,0,P|493:134|480:68,1,80,10|0,0:0|0:0,0:0:0:0:
280,200,89003,2,0,P|268:276|232:352,2,160,10|0|10,0:0|0:0|0:0,0:0:0:0:
224,120,89801,1,0,0:0:0:0:
160,192,89960,6,0,L|0:160,1,160,2|0,0:0|0:0,0:0:0:0:
80,68,90439,2,0,P|40:60|0:52,2,80,10|0|2,0:0|0:0|0:0,0:0:0:0:
152,132,90918,2,0,P|135:215|120:300,2,160,8|2|8,0:0|0:0|0:0,0:0:0:0:
228,72,91716,1,0,0:0:0:0:
292,144,91875,6,0,P|360:112|460:116,1,160,6|0,0:0|0:0,0:0:0:0:
504,184,92354,2,0,P|476:256|480:352,1,160,10|2,0:0|0:0,0:0:0:0:
380,288,92833,2,0,P|376:324|360:368,1,80,10|0,0:0|0:0,0:0:0:0:
300,220,93152,2,0,P|292:180|276:140,1,80,0|10,0:0|0:0,0:0:0:0:
212,276,93471,2,0,P|212:316|204:356,1,80,0|10,0:0|0:0,0:0:0:0:
152,200,93790,6,0,P|80:168|-12:176,1,160,6|0,0:0|0:0,0:0:0:0:
0,80,94269,1,10,0:0:0:0:
0,80,94428,2,0,P|8:32|12:-8,1,80
104,96,94747,2,0,P|105:135|120:192,1,80,10|0,0:0|0:0,0:0:0:0:
200,96,95067,2,0,P|208:52|228:-4,1,80,0|10,0:0|0:0,0:0:0:0:
332,20,95386,1,0,0:0:0:0:
332,20,95545,1,10,0:0:0:0:
428,24,95705,6,0,P|432:104|392:184,1,160,6|0,0:0|0:0,0:0:0:0:
316,220,96184,2,0,P|300:184|292:140,2,80,10|0|0,0:0|0:0|0:0,0:0:0:0:
372,296,96662,2,0,P|303:256|224:248,1,160,10|0,0:0|0:0,0:0:0:0:
40,304,97301,1,10,0:0:0:0:
40,304,97460,1,0,0:0:0:0:
20,212,97620,6,0,P|-4:144|0:56,1,160,6|0,0:0|0:0,0:0:0:0:
88,0,98098,2,0,P|104:40|108:92,1,80,10|0,0:0|0:0,0:0:0:0:
216,296,98577,2,0,P|200:256|196:204,1,80,10|0,0:0|0:0,0:0:0:0:
336,292,98896,2,0,P|334:332|328:372,1,80,0|10,0:0|0:0,0:0:0:0:
420,216,99216,2,0,P|456:224|504:252,1,80,0|10,0:0|0:0,0:0:0:0:
420,112,99535,6,0,P|336:112|264:56,1,160,6|0,1:0|1:0,0:0:0:0:
196,20,100013,2,0,L|32:48,1,160,10|0,1:0|1:0,0:0:0:0:
8,172,100492,2,0,L|172:144,1,160,10|0,1:0|1:0,0:0:0:0:
356,32,101130,1,10,0:0:0:0:
356,32,101290,1,0,0:0:0:0:
452,48,101449,6,0,P|483:120|483:200,1,160,2|0,0:0|0:0,0:0:0:0:
416,268,101928,2,0,P|425:311|440:376,1,80,10|0,0:0|0:0,0:0:0:0:
284,224,102407,2,0,P|295:144|304:64,2,160,10|0|10,0:0|0:0|0:0,0:0:0:0:
232,304,103205,1,0,0:0:0:0:
176,228,103364,6,0,L|4:252,1,160,2|0,0:0|0:0,0:0:0:0:
0,144,103843,2,0,L|92:160,1,80,10|0,0:0|0:0,0:0:0:0:
340,276,104322,2,0,P|412:244|508:236,2,160,10|0|10,0:0|0:0|0:0,0:0:0:0:
264,336,105120,1,0,0:0:0:0:
168,336,105279,6,0,P|132:264|128:180,1,160,2|0,0:0|0:0,0:0:0:0:
204,128,105758,2,0,P|196:83|180:20,2,80,10|0|2,0:0|0:0|0:0,0:0:0:0:
292,172,106237,2,0,P|272:253|260:336,2,160,8|2|10,0:0|0:0|0:0,0:0:0:0:
356,100,107035,1,0,0:0:0:0:
444,60,107194,6,0,P|368:60|284:28,1,160,6|0,0:0|0:0,0:0:0:0:
192,28,107673,2,0,P|112:28|34:58,1,160,10|0,0:0|0:0,0:0:0:0:
32,152,108152,2,0,P|16:188|-4:240,1,80,10|0,0:0|0:0,0:0:0:0:
128,216,108471,2,0,P|132:256|132:304,1,80,0|10,0:0|0:0,0:0:0:0:
240,192,108790,2,0,P|252:228|272:272,1,80,0|10,0:0|0:0,0:0:0:0:
344,364,109109,6,0,P|416:324|500:328,1,160,6|0,0:0|0:0,0:0:0:0:
512,216,109588,1,10,0:0:0:0:
512,216,109747,1,0,0:0:0:0:
304,268,110067,2,0,P|288:228|280:172,1,80,10|0,0:0|0:0,0:0:0:0:
200,96,110386,2,0,P|192:132|164:192,1,80,0|10,0:0|0:0,0:0:0:0:
100,272,110705,2,0,P|84:232|76:176,1,80,0|10,0:0|0:0,0:0:0:0:
0,96,111024,6,0,P|72:96|156:44,1,160,6|0,0:0|0:0,0:0:0:0:
240,28,111503,2,0,P|279:37|324:52,1,80,10|0,0:0|0:0,0:0:0:0:
328,144,111822,2,0,P|370:132|420:112,1,80,0|10,0:0|0:0,0:0:0:0:
492,80,112141,1,0,0:0:0:0:
416,24,112301,1,10,0:0:0:0:
340,260,112620,1,2,0:0:0:0:
428,228,112779,1,8,0:0:0:0:
412,324,112939,6,0,P|338:290|242:286,1,160,6|0,0:0|0:0,0:0:0:0:
172,244,113418,1,10,0:0:0:0:
72,320,113577,2,0,P|96:240|80:160,1,160,0|10,0:0|0:0,0:0:0:0:
4,0,114216,2,0,P|8:40|16:100,1,80,0|10,0:0|0:0,0:0:0:0:
120,108,114535,2,0,P|127:63|132:28,1,80,0|10,0:0|0:0,0:0:0:0:
232,0,114854,6,0,P|264:68|260:160,1,160,6|0,0:0|0:0,0:0:0:0:
288,244,115333,2,0,P|212:208|120:204,1,160,10|0,0:0|0:0,0:0:0:0:
112,308,115811,2,0,P|188:344|280:348,1,160,10|0,0:0|0:0,0:0:0:0:
484,256,116450,2,0,P|468:216|460:176,1,80,2|8,0:0|0:0,0:0:0:0:
512,100,116769,6,0,P|428:96|352:56,1,160,6|0,0:0|0:0,0:0:0:0:
276,16,117247,1,10,0:0:0:0:
204,80,117407,2,0,L|40:48,1,160,0|10,0:0|0:0,0:0:0:0:
56,148,117886,1,0,0:0:0:0:
56,148,118045,2,0,P|36:184|28:236,1,80,10|0,0:0|0:0,0:0:0:0:
156,328,118364,2,0,P|176:292|184:240,1,80,2|8,0:0|0:0,0:0:0:0:
156,160,118684,1,4,0:0:0:0:
256,192,118763,12,4,122513,1:2:0:0:
336,256,122991,6,0,P|264:232|176:228,1,160,8|0,0:0|0:0,0:0:0:0:
92,268,123470,1,8,0:0:0:0:
0,112,123789,6,0,P|86:104|156:64,1,160,2|8,0:0|0:0,0:0:0:0:
336,28,124427,2,0,L|344:128,1,80,2|8,0:0|0:0,0:0:0:0:
464,80,124747,2,0,L|450:163,1,80,2|8,0:0|0:0,0:0:0:0:
424,252,125066,6,0,P|352:220|247:219,1,160,4|2,1:2|0:0,0:0:0:0:
184,184,125544,2,0,L|24:212,1,160,8|2,0:0|0:0,0:0:0:0:
4,116,126023,1,8,0:0:0:0:
0,316,126342,6,0,P|80:316|160:276,1,160,4|8,0:0|0:3,0:0:0:0:
220,352,126821,1,8,0:3:0:0:
304,304,126981,2,0,P|320:341|323:381,1,80,4|8,0:3|0:3,0:0:0:0:
408,328,127300,2,0,P|408:292|424:240,1,80,8|0,0:3|0:0,0:0:0:0:
512,204,127619,6,0,P|428:196|348:148,1,160,4|2,1:2|0:0,0:0:0:0:
304,84,128098,2,0,P|224:84|144:116,1,160,8|2,0:0|0:0,0:0:0:0:
92,188,128576,1,8,0:0:0:0:
200,344,128895,2,0,P|280:344|360:312,1,160,2|8,0:0|0:0,0:0:0:0:
451,147,129534,2,0,P|457:99|456:64,1,80,2|8,0:0|0:0,0:0:0:0:
364,100,129853,2,0,P|356:56|336:20,1,80,2|8,0:0|0:0,0:0:0:0:
272,128,130172,6,0,P|196:100|96:96,1,160,4|2,1:2|0:0,0:0:0:0:
48,168,130651,1,8,0:0:0:0:
84,260,130810,2,0,P|88:300|84:344,1,80,4|2,0:0|0:0,0:0:0:0:
184,260,131130,2,0,P|188:221|208:176,1,80,8|8,0:3|0:3,0:0:0:0:
260,320,131449,6,0,P|336:284|440:284,1,160,8|8,0:3|0:3,0:0:0:0:
410,278,131927,1,8,0:3:0:0:
360,192,132087,2,0,P|368:140|388:100,1,80,2|2,0:0|0:0,0:0:0:0:
480,88,132406,2,0,P|468:48|444:12,1,80,2|2,0:0|0:0,0:0:0:0:
