osu file format v14

[General]
AudioFilename: audio.mp3
AudioLeadIn: 0
PreviewTime: 83681
Countdown: 0
SampleSet: Soft
StackLeniency: 0.7
Mode: 0
LetterboxInBreaks: 0
WidescreenStoryboard: 1

[Editor]
DistanceSpacing: 0.2
BeatDivisor: 4
GridSize: 32
TimelineZoom: 2.3

[Metadata]
Title:Nuedori
TitleUnicode:ヌエドリ
Artist:Suara
ArtistUnicode:Suara
Creator:fnayR
Version:Insane
Source:うたわれるもの 偽りの仮面
Tags:Utawarerumono 2 itsuwari no kamen mask of deception video game vn visual novel op opening full version female vocal jpop j-pop japanese pop kuon 二人の白皇 Futari no Hakuoro 3 truth anime
BeatmapID:4263727
BeatmapSetID:2035712

[Difficulty]
HPDrainRate:5
CircleSize:4
OverallDifficulty:7
ApproachRate:8.7
SliderMultiplier:1.4
SliderTickRate:1

[Events]
//Background and Video events
0,0,"bg.jpg",0,0
//Break Periods
//Storyboard Layer 0 (Background)
//Storyboard Layer 1 (Fail)
//Storyboard Layer 2 (Pass)
//Storyboard Layer 3 (Foreground)
//Storyboard Layer 4 (Overlay)
//Storyboard Sound Samples

[TimingPoints]
3066,957.456994223343,4,2,1,40,1,0
3066,-71.4285714285714,4,2,1,40,0,0
39446,319.148936170213,4,2,1,60,1,0
39446,-83.3333333333333,4,2,1,60,0,0
39525,-83.3333333333333,4,2,1,5,0,0
39924,-83.3333333333333,4,2,1,60,0,0
42078,-83.3333333333333,4,2,1,5,0,0
42477,-83.3333333333333,4,2,1,60,0,0
44632,-83.3333333333333,4,2,1,5,0,0
45031,-83.3333333333333,4,2,1,60,0,0
47185,-83.3333333333333,4,2,1,5,0,0
47584,-83.3333333333333,4,2,1,60,0,0
49658,319.148936170213,6,2,1,50,1,0
49658,-125,6,2,1,50,0,0
64977,-125,6,2,1,55,0,0
78381,-83.3333333333333,6,2,1,60,0,0
79338,335.195530726257,6,2,1,60,1,0
79673,326.672837153591,6,2,1,60,1,0
79673,-125,6,2,1,60,0,0
79999,367.669587597279,6,2,1,60,1,0
80366,-83.3333333333333,6,2,1,60,0,0
80734,319.148936170213,6,2,1,50,1,0
80893,333.333333333333,6,2,1,45,1,0
81059,448.196011055502,6,2,1,40,1,0
81507,413.793103448276,6,2,1,40,1,0
81920,505.305709954523,6,2,1,40,1,0
81920,-166.666666666667,6,2,1,40,0,0
82425,618.684264796865,6,2,1,40,1,0
82425,-250.000000000001,6,2,1,40,0,0
83043,319.148936170213,6,2,1,50,1,0
83122,-100,6,2,1,5,0,0
83202,-100,6,2,1,55,0,0
83282,-100,6,2,1,5,0,0
83362,-100,6,2,1,60,0,0
83441,-100,6,2,1,5,0,0
83521,-100,6,2,1,65,0,0
83601,-100,6,2,1,5,0,0
83681,319.148936170213,6,2,1,70,1,0
83681,-83.3333333333333,6,2,1,70,0,0
84319,-90.9090909090909,6,2,1,70,0,0
99000,-83.3333333333333,6,2,1,70,0,0
99638,-90.9090909090909,6,2,1,70,0,0
118149,-111.111111111111,6,2,1,50,0,0
121978,319.148936170213,4,2,1,60,1,0
121978,-83.3333333333333,4,2,1,60,0,0
122057,-83.3333333333333,4,2,1,5,0,0
122456,-83.3333333333333,4,2,1,60,0,0
124610,-83.3333333333333,4,2,1,5,0,0
125009,-83.3333333333333,4,2,1,60,0,0
127164,-83.3333333333333,4,2,1,5,0,0
127563,-83.3333333333333,4,2,1,60,0,0
129717,-83.3333333333333,4,2,1,5,0,0
130116,-83.3333333333333,4,2,1,60,0,0
132190,319.148936170213,6,2,1,50,1,0
132190,-142.857142857143,6,2,1,50,0,0
147509,-125,6,2,1,55,0,0
160913,-83.3333333333333,6,2,1,60,0,0
161870,335.195530726257,6,2,1,50,1,0
161870,-125,6,2,1,50,0,0
162205,326.672837153591,6,2,1,50,1,0
162531,367.669587597279,6,2,1,50,1,0
162898,-83.3333333333333,6,2,1,50,0,0
163246,319.148936170213,6,2,1,50,1,0
163429,333.333333333333,6,2,1,45,1,0
163619,448.196011055502,6,2,1,40,1,0
164029,413.793103448276,6,2,1,40,1,0
164452,505.305709954523,6,2,1,40,1,0
164452,-166.666666666667,6,2,1,40,0,0
164957,618.684264796865,6,2,1,40,1,0
164957,-250.000000000001,6,2,1,40,0,0
165575,319.148936170213,6,2,1,50,1,0
165654,-100,6,2,1,5,0,0
165734,-100,6,2,1,55,0,0
165814,-100,6,2,1,5,0,0
165894,-100,6,2,1,60,0,0
165973,-100,6,2,1,5,0,0
166053,-100,6,2,1,65,0,0
166133,-100,6,2,1,5,0,0
166213,319.148936170213,6,2,1,70,1,0
166213,-83.3333333333333,6,2,1,70,0,0
166851,-90.9090909090909,6,2,1,70,0,0
181532,-83.3333333333333,6,2,1,70,0,0
182170,-90.9090909090909,6,2,1,70,0,0
200681,-111.111111111111,6,2,1,50,0,0
204510,-100,6,2,1,55,0,0
212170,-100,6,2,1,60,0,0
220468,-100,6,2,1,65,0,0
221744,-90.9090909090909,6,2,1,60,0,0
229404,-83.3333333333333,6,2,1,70,0,0
243766,-83.3333333333333,6,2,1,50,0,0
245681,-83.3333333333333,6,2,1,5,0,0
246000,-100,6,2,1,50,0,0
246079,-100,6,2,1,5,0,0
246159,-100,6,2,1,55,0,0
246239,-100,6,2,1,5,0,0
246319,-100,6,2,1,60,0,0
246478,-100,6,2,1,65,0,0
246638,-83.3333333333333,6,2,1,70,0,0
247276,-90.9090909090909,6,2,1,70,0,0
261957,-83.3333333333333,6,2,1,70,0,0
262595,-90.9090909090909,6,2,1,70,0,0
281106,-111.111111111111,6,2,1,50,0,0
284935,319.148936170213,4,2,1,60,1,0
284935,-83.3333333333333,4,2,1,60,0,0
285014,-83.3333333333333,4,2,1,5,0,0
285413,-83.3333333333333,4,2,1,60,0,0
287567,-83.3333333333333,4,2,1,5,0,0
287966,-83.3333333333333,4,2,1,60,0,0
290121,-83.3333333333333,4,2,1,5,0,0
290520,-83.3333333333333,4,2,1,60,0,0
292674,-83.3333333333333,4,2,1,5,0,0
293073,-83.3333333333333,4,2,1,60,0,0

[Colours]
Combo1 : 212,212,212
Combo2 : 0,55,111
Combo3 : 255,159,113

[HitObjects]
0,32,6895,6,0,B|100:23|97:102|193:112,1,195.999994018555,2|2,0:0|0:0,0:0:0:0:
174,108,8172,2,0,P|220:99|271:70,1,97.9999970092775,2|0,0:0|0:0,0:0:0:0:
394,0,8810,2,0,P|425:42|327:141,1,195.999994018555,2|2,0:0|0:0,0:0:0:0:
354,144,10087,1,0,0:0:0:0:
448,384,10725,6,0,B|511:345|492:270|492:270|459:252|452:207,1,195.999994018555,2|2,0:0|0:0,0:0:0:0:
454,220,12002,2,0,P|428:249|396:257,1,65.3333313395183,2|2,0:0|0:0,0:0:0:0:
256,320,12640,2,0,P|186:297|126:268,1,130.666662679037,2|2,0:0|0:0,0:0:0:0:
0,190,13598,2,0,P|0:151|75:119,1,130.666662679037,2|2,0:0|0:0,0:0:0:0:
248,1,14555,2,0,B|247:101|167:68|144:172,1,195.999994018555,2|2,0:0|0:0,0:0:0:0:
14,29,15832,2,0,P|10:16|-3:-3,2,32.6666656697591,2|0|2,0:0|0:0|0:0,0:0:0:0:
196,140,16470,2,0,B|250:200|316:169|316:169|333:136|373:126,1,195.999994018555,2|2,0:0|0:0,0:0:0:0:
498,29,17746,2,0,P|502:16|515:-3,2,32.6666656697591,2|0|2,0:0|0:0|0:0,0:0:0:0:
376,116,18385,6,0,P|395:167|410:243,1,130.666662679037,2|2,0:0|0:0,0:0:0:0:
457,376,19342,2,0,P|523:328|508:287,1,130.666662679037,2|2,0:0|0:0,0:0:0:0:
317,200,20300,2,0,B|217:195|247:287|128:286,1,195.999994018555,2|2,0:0|0:0,0:0:0:0:
12,384,21576,1,2,0:0:0:0:
12,384,21895,1,2,0:0:0:0:
148,285,22215,6,0,P|183:244|105:142,1,195.999994018555,2|2,0:0|0:0,0:0:0:0:
116,142,23491,2,0,P|135:95|164:57,1,97.9999970092775,2|0,0:0|0:0,0:0:0:0:
309,0,24129,2,0,B|369:54|338:120|338:120|305:137|295:177,1,195.999994018555,2|2,0:0|0:0,0:0:0:0:
298,165,25406,1,2,0:0:0:0:
510,221,26044,6,0,B|402:221|447:298|339:304,1,195.999994018555,2|2,0:0|0:0,0:0:0:0:
341,304,27321,2,0,P|308:299|277:277,1,65.3333313395183,2|2,0:0|0:0,0:0:0:0:
130,180,27959,2,0,P|53:200|37:257,1,130.666662679037,2|2,0:0|0:0,0:0:0:0:
178,384,28917,2,0,P|161:322|135:260,1,130.666662679037,2|2,0:0|0:0,0:0:0:0:
201,91,29874,2,0,B|255:58|300:98|300:98|324:148|372:151,1,195.999994018555,2|2,0:0|0:0,0:0:0:0:
498,38,31151,2,0,P|504:22|512:8,2,32.6666656697591,2|0|2,0:0|0:0|0:0,0:0:0:0:
366,150,31789,2,0,P|271:189|174:210,1,195.999994018555,2|2,0:0|0:0,0:0:0:0:
14,94,33066,2,0,P|7:78|-1:64,2,32.6666656697591,2|0|2,0:0|0:0|0:0,0:0:0:0:
160,0,33704,6,0,P|186:57|118:110,1,130.666662679037,2|2,0:0|0:0,0:0:0:0:
0,178,34661,2,0,P|22:243|55:302,1,130.666662679037,2|2,0:0|0:0,0:0:0:0:
192,384,35619,2,0,B|188:317|241:293|252:314|299:275|294:220,2,195.999994018555,2|2|2,0:0|0:0|0:0,0:0:0:0:
512,32,39446,6,0,B|444:-1|390:53|390:53|360:120|277:112,1,251.999992309571,4|8,3:2|0:0,0:0:0:0:
296,112,40084,1,8,0:1:0:0:
113,59,40403,1,8,0:0:0:0:
256,0,40722,1,10,0:1:0:0:
146,190,41041,1,10,0:0:0:0:
146,190,41360,6,0,P|105:178|71:153,1,83.9999974365235,10|10,0:1|0:0,0:0:0:0:
0,298,41680,1,10,0:0:0:0:
224,224,41999,6,0,B|302:279|281:364|199:416|132:311|212:276,1,251.999992309571,4|8,3:2|0:0,0:0:0:0:
186,296,42637,1,8,0:1:0:0:
334,245,42956,1,8,0:0:0:0:
491,325,43275,1,14,0:1:0:0:
491,325,43594,6,0,P|450:314|414:293,1,83.9999974365235,2|0,3:2|3:2,0:0:0:0:
314,233,43914,1,2,3:2:0:0:
314,233,44073,1,2,3:2:0:0:
365,130,44233,1,2,3:2:0:0:
365,130,44392,1,0,3:2:0:0:
512,107,44552,6,0,B|368:96|427:203|271:208,1,251.999992309571,6|8,3:2|0:0,0:0:0:0:
292,206,45190,1,8,0:1:0:0:
160,320,45509,1,8,0:0:0:0:
320,384,45828,1,10,0:1:0:0:
160,224,46148,1,10,0:0:0:0:
160,224,46467,6,0,P|181:178|192:140,1,83.9999974365235,10|10,0:1|0:0,0:0:0:0:
63,10,46786,1,10,0:0:0:0:
226,73,47105,6,0,B|299:134|375:91|404:0|286:-38|273:47,1,251.999992309571,4|8,3:2|0:0,0:0:0:0:
286,18,47743,1,8,0:1:0:0:
188,142,48063,1,8,0:0:0:0:
22,49,48382,1,14,0:1:0:0:
22,49,48701,6,0,P|33:87|49:131,1,83.9999974365235,10|10,0:0|0:0,0:0:0:0:
108,273,49020,1,10,0:1:0:0:
68,239,49180,1,8,0:0:0:0:
115,167,49339,1,10,0:0:0:0:
288,336,49658,6,0,P|328:278|292:247,1,112,6|10,0:2|0:1,0:0:0:0:
254,157,50136,2,0,P|265:131|272:104,1,56,10|10,0:0|0:1,0:0:0:0:
464,74,50615,6,0,P|488:100|475:138,1,56,10|0,0:1|0:0,0:0:0:0:
416,0,50934,2,0,P|377:39|373:93,1,112,10|8,0:1|0:1,0:0:0:0:
373,93,51413,1,8,0:1:0:0:
288,0,51572,6,0,B|240:8|232:48|171:51,1,112,10|10,0:0|0:1,0:0:0:0:
65,112,52051,2,0,P|92:117|118:127,1,56,8|10,0:0|0:1,0:0:0:0:
256,256,52530,6,0,P|300:221|277:172,1,112,2|10,3:2|0:1,0:0:0:0:
282,175,53009,1,10,0:1:0:0:
170,255,53168,2,0,P|175:282|189:306,1,56,10|8,0:0|0:1,0:0:0:0:
352,384,53487,6,0,P|382:330|399:263,1,112,10|10,0:0|0:1,0:0:0:0:
480,192,53966,2,0,P|484:171|456:140,1,56,8|10,0:0|0:1,0:0:0:0:
253,82,54445,6,0,P|225:98|191:111,1,56,10|0,0:0|0:0,0:0:0:0:
369,49,54764,2,0,P|312:25|260:-6,1,112,10|8,0:1|0:1,0:0:0:0:
268,0,55243,1,0,0:0:0:0:
127,89,55402,6,0,P|115:129|174:175,1,112,10|10,0:0|0:1,0:0:0:0:
288,224,55881,2,0,P|273:251|258:291,1,56,8|10,0:0|0:1,0:0:0:0:
64,384,56360,6,0,P|36:345|58:309,1,84,10|0,0:1|0:0,0:0:0:0:
69,304,56679,2,0,P|98:313|129:323,1,56,10|0,0:1|0:0,0:0:0:0:
24,238,56998,1,10,0:0:0:0:
192,384,57317,6,0,B|202:326|236:342|246:274,1,112,10|10,0:0|0:1,0:0:0:0:
160,192,57796,2,0,P|152:164|135:134,1,56,8|10,0:0|0:1,0:0:0:0:
0,35,58275,6,0,P|27:35|46:54,1,56,10|0,0:0|0:0,0:0:0:0:
125,125,58594,2,0,P|192:125|240:77,1,112,10|8,0:1|0:1,0:0:0:0:
226,99,59072,1,2,0:0:0:0:
371,0,59232,6,0,B|361:58|327:42|317:110,1,112,10|10,0:0|0:1,0:0:0:0:
433,167,59711,2,0,P|424:142|406:110,1,56,8|10,0:0|0:1,0:0:0:0:
249,205,60189,6,0,P|308:206|367:252,1,112,2|10,3:2|0:1,0:0:0:0:
352,232,60668,1,2,0:0:0:0:
224,320,60828,2,0,P|200:335|174:344,1,56,8|2,0:0|0:0,0:0:0:0:
20,274,61147,5,10,0:0:0:0:
30,290,61306,1,0,0:0:0:0:
133,274,61466,5,10,0:1:0:0:
144,244,61626,1,8,0:0:0:0:
42,310,61785,6,0,P|56:333|68:358,1,56,10|0,0:1|0:0,0:0:0:0:
157,223,62104,2,0,P|185:163|220:107,1,112,10|10,0:1|0:1,0:0:0:0:
352,0,62743,2,0,P|349:27|316:57,1,56,10|10,0:0|0:1,0:0:0:0:
201,42,63062,6,0,B|146:49|146:80|99:96,1,112,10|10,0:0|0:1,0:0:0:0:
0,0,63540,2,0,P|32:18|68:22,1,56,8|2,0:0|0:1,0:0:0:0:
99,179,64019,5,10,0:0:0:0:
218,130,64338,1,10,0:1:0:0:
328,85,64658,1,8,0:1:0:0:
495,0,64977,6,0,P|484:40|406:50,1,112,14|10,0:0|0:1,0:0:0:0:
307,78,65455,2,0,P|268:63|264:-15,1,112,8|0,0:0|0:1,0:0:0:0:
402,144,65934,2,0,P|457:165|509:194,1,112,10|10,0:0|0:1,0:0:0:0:
342,303,66572,2,0,P|321:273|343:236,1,56,8|0,0:0|0:0,0:0:0:0:
458,333,66892,6,0,B|403:340|408:378|342:388,1,112,10|10,0:0|0:1,0:0:0:0:
248,339,67370,1,8,0:0:0:0:
248,339,67530,2,0,P|220:325|190:317,1,56,10|0,0:1|0:0,0:0:0:0:
64,384,67849,1,10,0:0:0:0:
226,215,68168,2,0,P|185:235|142:248,1,84,10|0,3:1|0:0,0:0:0:0:
124,230,68487,2,0,P|126:202|138:177,1,56,10|2,0:0|0:0,0:0:0:0:
0,69,68806,6,0,B|3:128|42:120|50:190,1,112,10|10,0:0|0:1,0:0:0:0:
106,21,69285,1,8,0:0:0:0:
106,21,69445,2,0,P|97:47|85:76,1,56,10|0,0:1|0:0,0:0:0:0:
226,158,69764,2,0,P|251:133|289:137,1,56,10|0,0:0|0:0,0:0:0:0:
124,230,70083,2,0,P|69:219|30:180,1,112,10|8,0:1|0:0,0:0:0:0:
240,171,70721,6,0,P|259:207|336:202,1,112,10|10,0:0|0:1,0:0:0:0:
472,133,71200,1,8,0:0:0:0:
472,133,71360,2,0,P|444:125|420:112,1,56,10|0,0:1|0:0,0:0:0:0:
324,211,71679,1,10,0:0:0:0:
418,317,71998,1,2,3:2:0:0:
512,210,72317,1,10,0:0:0:0:
326,302,72636,6,0,B|269:312|273:348|219:358,1,112,10|10,0:0|0:1,0:0:0:0:
76,314,73115,1,8,0:0:0:0:
76,314,73275,2,0,P|48:307|26:290,1,56,10|0,0:1|0:0,0:0:0:0:
190,188,73594,2,0,P|142:223|85:237,1,112,10|10,0:0|0:1,0:0:0:0:
0,96,74232,2,0,P|-1:68|18:50,1,56,8|0,0:0|0:0,0:0:0:0:
160,96,74551,6,0,B|197:126|233:118|233:118|251:95|277:84,1,112,10|10,0:0|0:1,0:0:0:0:
361,0,75030,1,8,0:0:0:0:
361,0,75189,2,0,P|324:13|294:20,1,56,10|0,0:1|0:0,0:0:0:0:
480,32,75509,6,0,B|467:121|398:84|376:181,1,168,10|0,0:0|0:0,0:0:0:0:
500,241,76147,2,0,P|484:215|473:179,1,56,10|8,0:1|0:1,0:0:0:0:
384,321,76466,2,0,P|345:359|284:357,1,112,10|8,0:0|0:1,0:0:0:0:
316,286,76945,1,10,0:0:0:0:
199,384,77264,1,2,0:0:0:0:
199,384,77423,2,0,B|165:314|223:252|223:252|270:233|282:174,1,224,10|10,0:1|0:1,0:0:0:0:
128,11,78381,6,0,B|41:-29|-20:32|-25:127|98:133|89:48,1,251.999992309571,4|8,3:2|0:0,0:0:0:0:
84,77,79019,1,8,0:1:0:0:
256,0,79338,1,2,3:2:0:0:
409,35,79673,2,0,P|365:37|290:80,1,112,2|10,3:2|0:0,0:0:0:0:
437,231,80366,6,0,P|502:176|463:111,1,167.999994873047,6|10,3:2|0:1,0:0:0:0:
329,217,80893,2,0,P|349:253|359:291,1,70,8|10,0:0|0:0,0:0:0:0:
512,329,81507,6,0,B|442:331|442:374|385:385,1,140,10|10,0:1|0:0,0:0:0:0:
386,384,82425,1,10,0:0:0:0:
386,384,83043,5,8,0:0:0:0:
358,372,83202,1,8,0:0:0:0:
269,295,83362,1,8,0:0:0:0:
332,193,83521,1,8,0:0:0:0:
188,128,83681,6,0,B|143:95|101:132|101:132|90:177|32:188,1,167.999994873047,6|8,3:2|0:1,0:0:0:0:
27,108,84159,1,8,0:0:0:0:
165,207,84319,2,0,P|153:253|142:313,1,77.0000023498536,2|8,0:0|0:0,0:0:0:0:
16,379,84638,2,0,P|8:341|0:303,1,77.0000023498536,8|0,0:1|0:0,0:0:0:0:
180,365,84957,2,0,P|245:339|231:255,1,154.000004699707,10|10,0:0|0:0,0:0:0:0:
178,217,85436,1,10,0:0:0:0:
320,128,85595,6,0,B|402:118|396:184|478:189,1,154.000004699707,2|8,3:2|0:1,0:0:0:0:
512,130,86074,1,8,0:1:0:0:
359,25,86234,2,0,P|315:46|279:57,1,77.0000023498536,10|0,0:0|0:0,0:0:0:0:
141,0,86553,1,10,0:1:0:0:
71,75,86712,1,2,0:0:0:0:
141,0,86872,2,0,P|183:8|204:62,1,77.0000023498536,10|2,0:0|0:0,0:0:0:0:
66,151,87191,2,0,P|24:143|3:89,1,77.0000023498536,2|2,3:2|0:0,0:0:0:0:
206,150,87510,6,0,P|234:212|264:309,1,154.000004699707,6|8,3:2|0:1,0:0:0:0:
223,363,87989,1,8,0:0:0:0:
53,261,88149,2,0,P|90:255|125:278,1,77.0000023498536,10|0,0:0|0:0,0:0:0:0:
243,375,88468,2,0,B|323:391|308:320|388:318,1,154.000004699707,8|8,0:1|0:1,0:0:0:0:
437,370,88946,1,8,0:1:0:0:
304,247,89106,2,0,P|286:202|328:175,1,77.0000023498536,2|2,3:2|0:0,0:0:0:0:
512,96,89425,6,0,B|475:61|428:88|428:88|410:123|355:133,1,154.000004699707,6|8,3:2|0:1,0:0:0:0:
273,108,89904,1,8,0:0:0:0:
224,0,90063,1,2,0:0:0:0:
224,0,90383,5,10,0:1:0:0:
140,47,90542,1,2,0:0:0:0:
13,0,90702,2,0,P|42:34|67:88,1,77.0000023498536,10|10,0:1|0:0,0:0:0:0:
150,181,91021,2,0,P|169:147|194:119,1,77.0000023498536,10|10,0:1|0:0,0:0:0:0:
0,160,91340,6,0,B|14:241|70:208|95:273,1,154.000004699707,6|8,3:2|0:1,0:0:0:0:
23,302,91819,1,8,0:1:0:0:
168,374,91978,2,0,P|208:372|240:348,1,77.0000023498536,10|0,0:0|0:0,0:0:0:0:
384,256,92298,2,0,P|352:235|314:233,1,77.0000023498536,8|0,0:1|0:0,0:0:0:0:
160,128,92617,2,0,P|173:60|231:74,1,115.50000352478,8|0,0:0|0:0,0:0:0:0:
208,57,92936,1,10,0:0:0:0:
118,0,93095,1,10,0:0:0:0:
247,136,93255,6,0,B|289:168|344:143|344:143|362:114|403:104,1,154.000004699707,12|8,0:1|0:1,0:0:0:0:
302,71,93734,1,8,0:0:0:0:
416,188,93893,2,0,P|432:222|435:268,1,77.0000023498536,10|0,0:0|0:0,0:0:0:0:
256,352,94212,2,0,P|259:313|275:279,1,77.0000023498536,10|2,0:1|0:0,0:0:0:0:
224,160,94532,5,10,0:0:0:0:
210,183,94691,1,8,0:0:0:0:
126,216,94851,1,10,3:2:0:0:
50,168,95010,1,2,0:0:0:0:
78,34,95170,6,0,B|143:37|127:85|203:88,1,115.50000352478,6|0,3:2|0:0,0:0:0:0:
196,94,95489,2,0,P|234:86|271:64,1,77.0000023498536,2|8,0:0|0:1,0:0:0:0:
443,27,95808,2,0,P|405:19|368:-3,1,77.0000023498536,10|2,0:0|0:0,0:0:0:0:
317,129,96127,5,8,0:1:0:0:
196,94,96287,1,8,0:0:0:0:
331,140,96446,2,0,P|344:178|364:230,1,77.0000023498536,8|8,0:0|0:1,0:0:0:0:
502,84,96766,2,0,P|489:122|469:174,1,77.0000023498536,8|10,0:0|0:1,0:0:0:0:
369,291,97085,6,0,B|328:312|297:274|297:274|285:238|244:232,1,154.000004699707,6|8,3:2|0:1,0:0:0:0:
179,272,97563,1,8,0:0:0:0:
354,384,97723,1,2,0:0:0:0:
354,384,98042,5,2,3:2:0:0:
392,297,98202,1,2,3:2:0:0:
351,205,98361,2,0,P|327:163|315:120,1,77.0000023498536,2|0,3:2|3:0,0:0:0:0:
448,32,98681,1,0,3:0:0:0:
391,93,98840,1,0,3:0:0:0:
224,32,99000,6,0,B|144:32|150:97|70:102,1,167.999994873047,6|8,3:2|0:1,0:0:0:0:
79,22,99478,1,8,0:0:0:0:
212,115,99638,2,0,P|258:130|312:144,1,77.0000023498536
128,196,99957,2,0,P|91:208|54:219,1,77.0000023498536,8|0,0:1|0:0,0:0:0:0:
211,339,100276,2,0,P|260:306|223:228,1,154.000004699707,8|8,0:0|0:0,0:0:0:0:
165,274,100755,1,8,0:0:0:0:
306,160,100915,6,0,B|362:134|403:178|403:178|413:215|450:229,1,154.000004699707,8|8,0:1|0:1,0:0:0:0:
475,152,101393,1,8,0:0:0:0:
365,307,101553,2,0,P|351:262|333:236,1,77.0000023498536,2|0,0:0|0:0,0:0:0:0:
424,89,101872,2,0,P|434:52|454:19,1,77.0000023498536,2|0,0:0|0:0,0:0:0:0:
340,52,102191,5,10,0:0:0:0:
240,98,102351,1,10,0:0:0:0:
160,32,102510,2,0,P|126:13|90:0,1,77.0000023498536,2|2,3:2|0:0,0:0:0:0:
0,192,102829,6,0,B|84:180|62:129|137:111,1,154.000004699707,6|8,3:2|0:1,0:0:0:0:
188,167,103308,1,8,0:0:0:0:
96,306,103468,2,0,P|67:286|8:266,1,77.0000023498536,10|0,0:0|0:0,0:0:0:0:
192,384,103787,2,0,P|243:349|301:326,1,115.50000352478,10|0,0:1|0:0,0:0:0:0:
314,333,104106,2,0,P|342:342|332:397,1,77.0000023498536,8|0,0:0|0:0,0:0:0:0:
222,256,104425,2,0,P|231:227|286:238,1,77.0000023498536,10|2,0:1|0:0,0:0:0:0:
438,327,104744,6,0,B|457:293|425:254|425:254|382:228|385:181,1,154.000004699707,10|8,0:1|0:1,0:0:0:0:
461,122,105223,1,8,0:0:0:0:
342,0,105383,1,2,0:0:0:0:
342,0,105702,5,10,0:1:0:0:
425,46,105861,1,2,0:0:0:0:
512,0,106021,2,0,P|484:15|415:37,1,77.0000023498536,14|10,0:0|0:0,0:0:0:0:
302,99,106340,2,0,P|265:86|231:68,1,77.0000023498536,2|8,3:2|0:0,0:0:0:0:
64,0,106659,6,0,P|126:-6|146:42,1,115.50000352478,6|0,3:2|0:0,0:0:0:0:
141,61,106978,2,0,P|128:92|110:153,1,77.0000023498536,2|8,0:0|0:1,0:0:0:0:
25,204,107298,2,0,P|13:167|0:131,1,77.0000023498536,8|2,0:0|0:1,0:0:0:0:
183,173,107617,1,8,0:1:0:0:
0,384,107936,6,0,P|20:332|88:349,1,115.50000352478,8|0,0:0|0:0,0:0:0:0:
72,332,108255,1,8,0:0:0:0:
160,256,108415,1,8,0:0:0:0:
237,378,108574,6,0,B|242:293|183:307|164:215,1,154.000004699707,12|8,0:1|0:1,0:0:0:0:
209,179,109053,1,8,0:0:0:0:
298,69,109212,2,0,P|286:38|261:-7,1,77.0000023498536,2|0,0:0|0:0,0:0:0:0:
128,160,109532,2,0,P|140:129|165:84,1,77.0000023498536,8|0,0:1|0:0,0:0:0:0:
298,69,109851,5,10,0:0:0:0:
283,93,110010,1,2,0:0:0:0:
361,140,110170,1,2,3:2:0:0:
444,103,110329,1,2,0:0:0:0:
470,0,110489,6,0,B|435:45|454:84|454:84|486:107|488:151,1,154.000004699707,6|8,3:2|0:1,0:0:0:0:
431,188,110968,1,8,0:0:0:0:
309,263,111127,2,0,P|345:271|369:300,1,77.0000023498536,2|0,0:0|0:0,0:0:0:0:
512,347,111446,2,0,P|488:376|451:384,1,77.0000023498536,8|0,0:1|0:0,0:0:0:0:
296,280,111766,6,0,B|241:290|252:324|197:335,1,115.50000352478,8|0,0:0|0:0,0:0:0:0:
197,334,112085,1,8,0:0:0:0:
333,384,112244,1,8,0:0:0:0:
181,259,112404,2,0,P|165:182|231:158,1,154.000004699707,8|8,0:1|0:1,0:0:0:0:
385,60,112883,1,8,0:0:0:0:
385,60,113042,2,0,P|349:44|314:30,1,77.0000023498536,2|0,0:0|0:0,0:0:0:0:
172,0,113361,5,8,0:1:0:0:
164,22,113521,1,0,0:0:0:0:
88,102,113681,1,8,0:0:0:0:
0,0,113840,1,8,0:0:0:0:
172,104,114000,2,0,P|158:140|136:171,1,77.0000023498536,0|8,3:2|0:0,0:0:0:0:
0,303,114319,6,0,P|68:238|108:283,1,154.000004699707,6|8,3:2|0:1,0:0:0:0:
127,331,114798,1,8,0:0:0:0:
288,383,114957,2,0,P|329:370|360:357,1,77.0000023498536,2|0,0:0|0:0,0:0:0:0:
191,278,115276,2,0,P|226:292|263:303,1,77.0000023498536,0|0,3:2|0:0,0:0:0:0:
439,369,115595,2,0,P|437:297|392:298,1,115.50000352478,10|0,0:0|0:0,0:0:0:0:
408,291,115915,1,8,0:0:0:0:
295,211,116074,1,8,0:0:0:0:
512,147,116234,6,0,B|432:136|448:194|363:202,1,154.000004699707,12|8,0:1|0:1,0:0:0:0:
269,48,116712,1,8,0:0:0:0:
269,48,116872,2,0,P|303:64|341:73,1,77.0000023498536,2|0,0:0|0:0,0:0:0:0:
177,0,117191,5,0,3:0:0:0:
155,21,117351,1,0,3:0:0:0:
53,102,117510,1,2,3:2:0:0:
116,218,117670,1,0,3:0:0:0:
240,263,117829,2,0,P|288:250|335:214,1,77.0000023498536,2|2,3:2|3:2,0:0:0:0:
128,320,118149,5,6,3:2:0:0:
128,320,118468,2,0,P|115:351|105:402,1,62.9999980773926,8|8,0:1|0:0,0:0:0:0:
42,305,118787,1,2,0:0:0:0:
42,305,119106,5,2,0:0:0:0:
60,277,119425,1,2,0:0:0:0:
44,248,119744,1,2,0:0:0:0:
190,373,120063,5,6,3:2:0:0:
194,376,120383,2,0,P|228:372|263:341,1,62.9999980773926,8|8,0:1|0:0,0:0:0:0:
417,300,120702,1,0,3:0:0:0:
325,336,120861,1,0,3:0:0:0:
256,268,121021,1,0,3:0:0:0:
384,192,121181,5,0,3:0:0:0:
384,192,121340,2,0,P|403:167|414:137,1,62.9999980773926,0|0,3:0|3:0,0:0:0:0:
238,256,121659,1,0,3:0:0:0:
0,32,121978,6,0,B|8:148|120:120|146:234,1,251.999992309571,4|8,3:2|0:0,0:0:0:0:
144,226,122616,1,8,0:1:0:0:
5,188,122935,1,8,0:0:0:0:
168,35,123254,1,10,0:1:0:0:
122,154,123573,1,10,0:0:0:0:
122,154,123892,6,0,P|162:142|196:117,1,83.9999974365235,10|10,0:1|0:0,0:0:0:0:
64,0,124212,1,10,0:0:0:0:
272,101,124531,6,0,P|330:121|302:1,1,251.999992309571,4|8,3:2|0:0,0:0:0:0:
314,0,125169,1,8,0:1:0:0:
196,117,125488,1,8,0:0:0:0:
384,224,125807,1,14,0:1:0:0:
384,224,126126,6,0,P|373:265|352:301,1,83.9999974365235,2|0,3:2|3:2,0:0:0:0:
256,348,126446,1,2,3:2:0:0:
256,348,126605,1,2,3:2:0:0:
140,282,126765,1,2,3:2:0:0:
140,282,126924,1,0,3:2:0:0:
0,312,127084,6,0,B|75:381|150:347|150:347|181:298|242:292,1,251.999992309571,6|8,3:2|0:0,0:0:0:0:
218,296,127722,1,8,0:1:0:0:
426,338,128041,1,8,0:0:0:0:
265,384,128360,1,10,0:1:0:0:
384,224,128680,1,10,0:0:0:0:
384,224,128999,6,0,P|429:230|454:265,1,83.9999974365235,10|10,0:1|0:0,0:0:0:0:
288,160,129318,1,10,0:0:0:0:
480,128,129637,6,0,B|541:55|498:-21|407:-50|369:68|454:81,1,251.999992309571,4|8,3:2|0:0,0:0:0:0:
426,69,130275,1,8,0:1:0:0:
299,177,130595,1,8,0:0:0:0:
160,32,130914,1,14,0:1:0:0:
160,32,131233,6,0,P|123:31|95:67,1,83.9999974365235,10|10,0:0|0:0,0:0:0:0:
178,153,131552,1,10,0:1:0:0:
152,172,131712,1,8,0:0:0:0:
50,129,131871,1,10,0:0:0:0:
217,221,132190,6,0,P|227:271|186:309,1,97.9999970092774,12|8,0:1|0:1,0:0:0:0:
107,336,132668,2,0,P|86:328|40:319,1,48.9999985046387,8|8,0:1|0:0,0:0:0:0:
182,384,133147,1,10,0:1:0:0:
330,266,133466,2,0,P|327:242|308:227,1,48.9999985046387,2|2,0:0|0:0,0:3:0:0:
234,326,133785,2,0,P|236:302|255:287,1,48.9999985046387,2|2,0:0|0:0,0:3:0:0:
386,331,134104,6,0,P|420:342|500:360,1,97.9999970092774,10|8,0:1|0:1,0:0:0:0:
505,247,134583,2,0,P|481:262|440:271,1,48.9999985046387,8|8,0:1|0:0,0:0:0:0:
315,200,135062,1,10,0:1:0:0:
480,64,135381,2,0,P|473:38|442:25,2,48.9999985046387,2|2|8,0:0|0:0|0:1,0:0:0:0:
328,105,136019,6,0,B|292:106|276:145|224:149,1,97.9999970092774,8|8,0:1|0:1,0:0:0:0:
181,52,136498,2,0,P|205:59|234:69,1,48.9999985046387,8|8,0:1|0:0,0:0:0:0:
128,128,136977,1,10,0:1:0:0:
4,25,137296,2,0,P|18:6|44:-1,3,48.9999985046387,2|2|10|2,0:0|0:0|0:1|0:0,0:0:0:0:
67,73,137934,6,0,P|50:109|33:183,1,97.9999970092774,10|8,0:1|0:1,0:0:0:0:
35,165,138413,1,8,0:1:0:0:
151,246,138572,2,0,P|147:224|116:205,1,48.9999985046387,8|0,0:0|0:0,0:0:0:0:
0,300,138892,5,10,0:1:0:0:
125,326,139211,1,2,0:0:0:0:
256,256,139530,1,10,0:1:0:0:
397,353,139849,6,0,P|349:326|292:317,1,97.9999970092774,8|8,0:1|0:1,0:0:0:0:
231,363,140328,2,0,P|207:375|166:394,1,48.9999985046387,8|8,0:1|0:0,0:0:0:0:
256,256,140807,1,10,0:1:0:0:
397,353,141126,2,0,P|414:368|441:371,1,48.9999985046387,2|2,0:0|0:0,0:0:0:0:
328,312,141445,2,0,P|341:292|364:283,1,48.9999985046387,2|2,0:0|0:0,0:0:0:0:
502,321,141764,6,0,B|497:280|462:272|452:225,1,97.9999970092774,10|8,0:1|0:1,0:0:0:0:
487,137,142243,2,0,P|503:117|516:74,1,48.9999985046387,8|8,0:1|0:0,0:0:0:0:
400,174,142721,1,10,0:1:0:0:
468,10,143041,2,0,P|500:8|516:33,3,48.9999985046387,2|2|10|2,0:0|0:0|0:1|0:0,0:0:0:0:
414,70,143679,5,10,0:1:0:0:
394,60,143838,1,0,0:0:0:0:
305,21,143998,5,10,0:1:0:0:
334,0,144158,1,8,0:1:0:0:
431,78,144317,6,0,P|458:69|487:58,1,48.9999985046387,10|0,0:0|0:0,0:0:0:0:
284,34,144636,2,0,P|236:20|191:3,1,97.9999970092774,10|2,0:1|0:0,0:0:0:0:
0,106,145275,2,0,P|21:96|43:85,1,48.9999985046387,10|2,0:1|0:0,0:0:0:0:
173,137,145594,6,0,P|184:183|142:214,1,97.9999970092774,10|8,0:1|0:1,0:0:0:0:
149,213,146072,1,8,0:1:0:0:
109,33,146232,1,6,0:0:0:0:
109,33,146551,6,0,P|86:22|65:11,1,48.9999985046387,0|0,3:0|3:0,0:0:0:0:
0,100,146870,1,2,3:2:0:0:
0,100,147030,1,2,3:2:0:0:
78,172,147190,1,2,3:2:0:0:
78,172,147349,1,2,3:2:0:0:
204,77,147509,6,0,B|270:88|246:113|312:135,1,112,6|0,3:2|0:0,0:0:0:0:
424,2,147987,2,0,B|358:13|382:38|316:60,1,112,10|0,0:1|0:0,0:0:0:0:
203,157,148466,1,8,0:1:0:0:
310,250,148785,2,0,P|336:243|351:220,1,56,2|2,0:0|0:0,0:0:0:0:
415,172,149104,2,0,P|400:148|373:142,1,56,2|2,0:0|0:0,0:0:0:0:
297,265,149424,6,0,P|328:317|337:373,1,112,8|0,0:1|0:0,0:0:0:0:
452,303,149902,1,10,0:1:0:0:
452,303,150062,2,0,P|461:274|488:246,1,56,8|8,0:0|0:1,0:0:0:0:
512,381,150381,1,8,0:1:0:0:
296,266,150700,2,0,P|268:272|240:311,1,56,10|2,0:1|0:0,0:0:0:0:
362,218,151019,2,0,P|344:197|318:188,1,56,10|2,0:1|0:0,0:0:0:0:
203,356,151338,6,0,P|170:365|139:293,1,112,14|0,0:1|0:0,0:0:0:0:
32,224,151817,1,8,0:1:0:0:
32,224,151977,2,0,P|50:174|103:176,1,112,8|8,0:0|0:1,0:0:0:0:
305,110,152615,2,0,P|319:89|329:58,3,56,2|2|10|10,0:0|0:0|0:0|0:1,0:0:0:0:
401,0,153253,6,0,B|407:54|451:49|467:104,1,112,10|0,0:1|0:0,0:0:0:0:
391,207,153732,1,8,0:1:0:0:
391,207,153892,2,0,P|381:225|365:260,1,56,8|8,0:0|0:1,0:0:0:0:
486,174,154211,5,0,3:2:0:0:
320,32,154530,1,2,3:2:0:0:
320,32,154690,1,2,0:0:0:0:
209,112,154849,1,10,0:0:0:0:
209,112,155168,6,0,P|154:97|103:74,1,112,12|0,0:1|0:0,0:0:0:0:
0,18,155647,1,8,0:1:0:0:
0,18,155807,2,0,P|26:6|55:-1,1,56,8|8,0:0|0:1,0:0:0:0:
10,155,156126,1,8,0:1:0:0:
214,115,156445,2,0,P|233:84|219:59,1,56,2|2,0:0|0:0,0:0:0:0:
187,3,156764,2,0,P|161:11|151:37,1,56,2|2,0:0|0:0,0:0:0:0:
77,203,157083,6,0,P|97:261|121:316,1,112,6|0,3:2|0:0,0:0:0:0:
0,384,157562,1,10,0:1:0:0:
0,384,157721,1,8,0:0:0:0:
138,257,158041,6,0,P|195:250|230:300,1,112,0|2,3:2|0:0,0:0:0:0:
227,287,158519,1,2,0:0:0:0:
352,352,158679,2,0,P|391:344|416:332,1,56,2|2,3:2|0:0,0:0:0:0:
462,202,158998,2,0,B|405:175|363:218|363:218|354:253|304:263,1,168,2|10,3:2|0:0,0:0:0:0:
179,142,159796,1,2,0:0:0:0:
179,142,159955,2,0,P|235:172|290:180,1,112,10|2,0:1|0:0,0:0:0:0:
282,179,160434,1,10,0:0:0:0:
372,115,160594,2,0,P|379:83|350:70,1,56,10|2,0:1|0:0,0:0:0:0:
192,26,160913,6,0,B|119:-35|43:8|14:99|132:137|145:52,1,251.999992309571,6|8,3:2|0:0,0:0:0:0:
270,50,161551,2,0,P|316:31|349:8,1,83.9999974365235,8|8,0:0|0:1,0:0:0:0:
479,133,161870,6,0,P|423:100|358:87,1,112,0|2,3:2|0:0,0:0:0:0:
377,88,162531,1,0,3:2:0:0:
169,261,162898,6,0,P|193:294|255:293,1,83.9999974365235,6|0,3:2|0:0,0:0:0:0:
306,241,163246,1,0,3:0:0:0:
367,357,163429,1,8,0:0:0:0:
497,321,163619,1,0,3:2:0:0:
497,321,164029,5,2,3:2:0:0:
467,218,164452,2,0,P|474:183|496:141,1,83.9999974365235,2|2,3:2|3:2,0:0:0:0:
497,141,165575,5,8,0:0:0:0:
471,159,165734,1,8,0:0:0:0:
366,217,165894,1,8,0:0:0:0:
245,163,166053,1,8,0:0:0:0:
88,233,166213,6,0,B|66:281|123:319|123:298|170:332|171:371,1,167.999994873047,6|8,3:2|0:1,0:0:0:0:
94,384,166691,1,8,0:0:0:0:
174,240,166851,2,0,P|181:202|198:165,1,77.0000023498536,2|8,0:0|0:0,0:0:0:0:
2,75,167170,2,0,P|16:110|24:148,1,77.0000023498536,8|0,0:1|0:0,0:0:0:0:
128,0,167489,2,0,P|193:-13|212:64,1,154.000004699707,10|10,0:0|0:0,0:0:0:0:
142,78,167968,1,10,0:0:0:0:
320,128,168127,6,0,B|373:156|415:122|415:122|434:90|476:82,1,154.000004699707,2|8,3:2|0:1,0:0:0:0:
512,37,168606,1,8,0:1:0:0:
451,197,168766,2,0,P|430:241|419:277,1,77.0000023498536,10|0,0:0|0:0,0:0:0:0:
288,382,169085,1,10,0:1:0:0:
392,351,169244,1,2,0:0:0:0:
288,382,169404,2,0,P|250:376|226:348,1,77.0000023498536,10|2,0:0|0:0,0:0:0:0:
71,323,169723,2,0,P|95:294|132:289,1,77.0000023498536,2|2,3:2|0:0,0:0:0:0:
256,160,170042,6,0,P|257:83|192:97,1,154.000004699707,6|8,3:2|0:1,0:0:0:0:
176,161,170521,1,8,0:0:0:0:
313,229,170681,2,0,P|348:243|385:253,1,77.0000023498536,10|0,0:0|0:0,0:0:0:0:
496,139,171000,2,0,B|499:59|430:75|429:-3,1,154.000004699707,8|8,0:1|0:1,0:0:0:0:
507,0,171478,1,8,0:1:0:0:
352,98,171638,2,0,P|322:118|277:107,1,77.0000023498536,2|2,3:2|0:0,0:0:0:0:
128,14,171957,6,0,B|160:59|213:54|213:54|244:27|283:31,1,154.000004699707,6|8,3:2|0:1,0:0:0:0:
335,3,172436,1,8,0:0:0:0:
216,140,172595,1,6,0:0:0:0:
216,140,172915,5,10,0:1:0:0:
145,202,173074,1,2,0:0:0:0:
259,295,173234,2,0,P|239:261|214:232,1,77.0000023498536,14|10,0:1|0:0,0:0:0:0:
118,377,173553,2,0,P|137:343|162:315,1,77.0000023498536,10|10,0:1|0:0,0:0:0:0:
341,318,173872,6,0,B|417:304|418:377|504:376,1,154.000004699707,6|8,3:2|0:1,0:0:0:0:
486,296,174351,1,8,0:1:0:0:
305,244,174510,2,0,P|272:258|259:302,1,77.0000023498536,10|0,0:0|0:0,0:0:0:0:
416,224,174830,2,0,P|402:191|358:178,1,77.0000023498536,8|0,0:1|0:0,0:0:0:0:
224,64,175149,2,0,P|236:23|311:45,1,115.50000352478,8|0,0:0|0:0,0:0:0:0:
299,23,175468,1,10,0:0:0:0:
437,114,175627,1,10,0:0:0:0:
252,150,175787,6,0,B|216:175|167:144|167:144|148:106|107:103,1,154.000004699707,12|8,0:1|0:1,0:0:0:0:
55,145,176266,1,8,0:0:0:0:
184,278,176425,2,0,P|233:245|217:211,1,77.0000023498536,10|0,0:0|0:0,0:0:0:0:
32,320,176744,2,0,P|64:369|98:353,1,77.0000023498536,10|2,0:1|0:0,0:0:0:0:
184,278,177064,5,10,0:0:0:0:
161,289,177223,1,8,0:0:0:0:
88,211,177383,1,10,3:2:0:0:
144,128,177542,1,2,0:0:0:0:
289,193,177702,6,0,B|349:202|333:250|409:253,1,115.50000352478,6|0,3:2|0:0,0:0:0:0:
405,264,178021,2,0,P|441:253|481:239,1,77.0000023498536,2|8,0:0|0:1,0:0:0:0:
348,123,178340,2,0,P|311:111|274:99,1,77.0000023498536,10|2,0:0|0:0,0:0:0:0:
160,0,178659,5,8,0:1:0:0:
30,66,178819,1,8,0:0:0:0:
181,8,178978,2,0,P|184:49|155:80,1,77.0000023498536,12|8,0:0|0:1,0:0:0:0:
34,151,179298,2,0,P|12:120|16:82,1,77.0000023498536,8|10,0:0|0:0,0:0:0:0:
192,160,179617,6,0,B|216:211|180:252|180:252|143:260|122:303,1,154.000004699707,6|8,3:2|0:1,0:0:0:0:
61,302,180095,1,8,0:0:0:0:
234,357,180255,1,2,0:0:0:0:
234,357,180574,5,2,3:2:0:0:
321,314,180734,1,2,3:2:0:0:
488,363,180893,2,0,P|450:354|415:340,1,77.0000023498536,2|0,3:2|3:0,0:0:0:0:
261,258,181213,1,0,3:0:0:0:
335,329,181372,1,0,3:0:0:0:
448,224,181532,6,0,B|437:132|374:164|355:58,1,167.999994873047,6|8,3:2|0:1,0:0:0:0:
443,71,182010,1,8,0:0:0:0:
294,22,182170,2,0,P|256:11|220:0,1,77.0000023498536
101,89,182489,2,0,P|64:100|27:111,1,77.0000023498536,8|0,0:1|0:0,0:0:0:0:
204,207,182808,2,0,P|253:174|216:96,1,154.000004699707,8|8,0:0|0:0,0:0:0:0:
163,144,183287,1,8,0:0:0:0:
0,237,183447,6,0,B|43:204|82:240|82:240|106:277|156:272,1,154.000004699707,8|8,0:1|0:1,0:0:0:0:
198,317,183925,1,8,0:0:0:0:
319,224,184085,2,0,P|347:198|383:206,1,77.0000023498536,2|0,0:0|0:0,0:0:0:0:
502,336,184404,2,0,P|465:343|438:318,1,77.0000023498536,2|0,0:0|0:0,0:0:0:0:
295,384,184723,5,10,0:0:0:0:
359,303,184883,1,10,0:0:0:0:
300,216,185042,2,0,P|286:179|268:147,1,77.0000023498536,2|2,3:2|0:0,0:0:0:0:
153,0,185361,6,0,B|136:82|87:55|58:133,1,154.000004699707,6|8,3:2|0:1,0:0:0:0:
48,193,185840,1,8,0:0:0:0:
198,92,186000,2,0,P|232:75|269:66,1,77.0000023498536,10|0,0:0|0:0,0:0:0:0:
453,110,186319,2,0,P|446:59|378:67,1,115.50000352478,10|0,0:1|0:0,0:0:0:0:
372,75,186638,2,0,P|359:101|356:159,1,77.0000023498536,8|0,0:0|0:0,0:0:0:0:
511,265,186957,2,0,P|508:226|493:191,1,77.0000023498536,10|2,0:1|0:0,0:0:0:0:
329,322,187276,6,0,B|297:337|258:305|258:305|239:262|185:265,1,154.000004699707,10|8,0:1|0:1,0:0:0:0:
119,333,187755,1,8,0:0:0:0:
0,192,187915,1,2,0:0:0:0:
0,192,188234,5,10,0:1:0:0:
54,103,188393,1,2,0:0:0:0:
0,10,188553,2,0,P|15:38|37:107,1,77.0000023498536,14|10,0:0|0:0,0:0:0:0:
128,192,188872,2,0,P|141:155|158:121,1,77.0000023498536,2|8,3:2|0:0,0:0:0:0:
288,0,189191,6,0,P|350:-6|370:42,1,115.50000352478,6|0,3:2|0:0,0:0:0:0:
382,56,189510,2,0,P|419:66|457:79,1,77.0000023498536,2|8,0:0|0:1,0:0:0:0:
268,167,189830,2,0,P|304:154|341:144,1,77.0000023498536,8|2,0:0|0:0,0:0:0:0:
498,162,190149,1,8,0:1:0:0:
352,384,190468,6,0,P|300:364|317:296,1,115.50000352478,8|0,0:0|0:0,0:0:0:0:
300,311,190787,1,8,0:0:0:0:
181,384,190947,1,8,0:0:0:0:
290,231,191106,6,0,B|376:226|357:288|441:304,1,154.000004699707,12|8,0:1|0:1,0:0:0:0:
494,326,191585,1,8,0:0:0:0:
393,180,191744,2,0,P|381:149|356:104,1,77.0000023498536,2|0,0:0|0:0,0:0:0:0:
512,0,192064,2,0,P|493:33|479:69,1,77.0000023498536,8|0,0:1|0:0,0:0:0:0:
360,110,192383,5,10,0:0:0:0:
376,91,192542,1,2,0:0:0:0:
300,42,192702,1,2,3:2:0:0:
216,75,192861,1,2,0:0:0:0:
60,37,193021,6,0,B|111:6|159:36|159:36|173:67|208:71,1,154.000004699707,6|8,3:2|0:1,0:0:0:0:
229,0,193500,1,8,0:0:0:0:
98,108,193659,2,0,P|80:139|66:189,1,77.0000023498536,2|0,0:0|0:0,0:0:0:0:
241,262,193978,2,0,P|229:225|210:191,1,77.0000023498536,12|0,0:1|0:0,0:0:0:0:
23,280,194298,6,0,B|79:274|83:322|137:331,1,115.50000352478,8|0,0:0|0:0,0:0:0:0:
124,327,194617,1,8,0:0:0:0:
25,367,194776,1,8,0:0:0:0:
225,384,194936,2,0,P|252:352|188:270,1,154.000004699707,12|8,0:1|0:1,0:0:0:0:
105,132,195415,1,8,0:0:0:0:
105,132,195574,2,0,P|92:168|78:204,1,77.0000023498536,2|0,0:0|0:0,0:0:0:0:
186,110,195893,5,8,0:1:0:0:
170,83,196053,1,0,0:0:0:0:
339,0,196213,1,8,0:0:0:0:
297,99,196372,1,8,0:0:0:0:
162,0,196532,2,0,P|126:14|95:36,1,77.0000023498536,0|8,3:2|0:0,0:0:0:0:
313,110,196851,6,0,P|382:136|478:156,1,154.000004699707,6|8,3:2|0:1,0:0:0:0:
492,86,197330,1,8,0:0:0:0:
333,204,197489,2,0,P|333:240|362:280,1,77.0000023498536,2|0,0:0|0:0,0:0:0:0:
491,384,197808,2,0,P|511:351|512:313,1,77.0000023498536,4|0,3:2|0:0,0:0:0:0:
303,337,198127,6,0,P|252:361|180:379,1,115.50000352478,10|0,0:0|0:0,0:0:0:0:
195,376,198447,1,8,0:0:0:0:
62,352,198606,1,8,0:0:0:0:
225,282,198766,6,0,B|231:195|167:222|163:134,1,154.000004699707,12|8,0:1|0:1,0:0:0:0:
32,32,199244,1,8,0:0:0:0:
32,32,199404,2,0,P|16:66|7:104,1,77.0000023498536,2|0,0:0|0:0,0:0:0:0:
164,146,199723,5,0,3:0:0:0:
182,123,199883,1,0,3:0:0:0:
280,36,200042,1,2,3:2:0:0:
411,55,200202,1,0,3:0:0:0:
492,160,200361,2,0,P|473:202|464:248,1,77.0000023498536,2|2,3:2|3:2,0:0:0:0:
308,325,200681,5,6,3:2:0:0:
308,325,201000,2,0,P|286:347|256:352,1,62.9999980773926,8|8,0:1|0:0,0:0:0:0:
426,384,201319,1,2,0:0:0:0:
239,272,201638,1,2,0:0:0:0:
239,272,201957,6,0,P|228:249|218:219,2,41.9999987182618,2|0|0,3:2|3:2|3:2,0:0:0:0:
296,176,202276,6,0,P|306:153|317:123,2,41.9999987182618,2|0|0,3:2|3:2|3:2,0:0:0:0:
224,32,202595,5,6,3:2:0:0:
224,32,202915,2,0,P|201:53|171:57,1,62.9999980773926,8|8,0:1|0:1,0:0:0:0:
59,0,203234,1,10,0:1:0:0:
59,0,203553,5,12,0:0:0:0:
0,142,203713,1,8,0:1:0:0:
17,126,204032,1,12,0:1:0:0:
41,125,204351,1,8,0:1:0:0:
154,221,204510,6,0,P|145:278|51:296,1,140,14|10,0:1|0:1,0:0:0:0:
74,306,205149,1,8,0:0:0:0:
266,384,205468,1,8,0:1:0:0:
240,361,205627,1,8,0:0:0:0:
235,327,205787,2,0,P|247:286|266:256,1,70,8|8,0:1|0:0,0:0:0:0:
192,160,206106,2,0,P|175:129|165:95,1,70,8|8,0:0|0:0,0:0:0:0:
288,0,206425,6,0,P|353:3|373:66,1,140,14|10,0:1|0:1,0:0:0:0:
373,66,207064,1,8,0:0:0:0:
425,231,207383,1,8,0:1:0:0:
458,240,207542,1,8,0:1:0:0:
488,223,207702,2,0,P|511:197|512:163,1,70,8|8,0:0|0:0,0:0:0:0:
363,83,208021,2,0,P|364:117|387:142,1,70,8|10,0:1|0:0,0:0:0:0:
305,247,208340,6,0,B|241:246|248:302|171:297,1,140,12|10,0:1|0:1,0:0:0:0:
178,297,208819,1,0,0:0:0:0:
64,160,208978,2,0,P|99:178|130:190,1,70,8|0,0:0|0:0,0:0:0:0:
4,284,209298,2,0,P|36:271|67:254,1,70,8|8,0:1|0:1,0:0:0:0:
206,178,209617,2,0,P|199:133|155:131,2,70,8|8|8,0:0|0:0|0:1,0:0:0:0:
127,189,210095,1,8,0:0:0:0:
10,118,210255,6,0,B|-14:72|20:32|20:32|50:17|61:-18,1,140,14|8,0:1|0:1,0:0:0:0:
53,0,210734,1,0,0:0:0:0:
181,125,210893,2,0,P|213:138|247:145,1,70,2|0,3:2|0:0,0:0:0:0:
410,118,211213,5,10,0:1:0:0:
327,13,211372,1,0,3:2:0:0:
327,13,211532,2,0,P|324:47|368:72,1,70,2|0,3:2|3:2,0:0:0:0:
512,128,211851,2,0,P|514:93|470:68,1,70,2|10,3:2|0:1,0:0:0:0:
339,156,212170,6,0,P|315:218|291:312,1,140,6|10,3:2|0:1,0:0:0:0:
295,288,212808,1,8,0:0:0:0:
512,317,213127,1,8,0:0:0:0:
478,361,213287,1,8,0:0:0:0:
423,369,213447,2,0,P|395:347|385:309,1,70,8|8,0:1|0:0,0:0:0:0:
512,208,213766,2,0,P|490:180|452:170,1,70,8|8,0:0|0:1,0:0:0:0:
296,289,214085,6,0,B|221:280|234:330|166:337,1,140,14|10,0:1|0:1,0:0:0:0:
30,202,214723,2,0,P|15:227|-2:274,1,70,10|0,0:0|0:0,0:0:0:0:
110,384,215042,2,0,P|95:359|78:312,1,70,10|10,0:1|0:1,0:0:0:0:
176,161,215361,5,10,0:0:0:0:
149,180,215521,1,2,0:0:0:0:
103,173,215681,1,2,3:2:0:0:
56,130,215840,1,2,0:0:0:0:
128,0,216000,6,0,P|193:23|262:37,1,140,6|10,3:2|0:1,0:0:0:0:
262,37,216478,1,0,0:0:0:0:
446,95,216638,2,0,P|485:88|503:56,1,70,8|0,0:0|0:0,0:0:0:0:
314,120,216957,2,0,P|335:167|354:245,1,105,8|0,0:1|0:0,0:0:0:0:
356,240,217276,2,0,P|336:267|302:274,1,70,10|0,0:0|0:0,0:0:0:0:
160,160,217595,2,0,P|193:164|215:190,1,70,10|10,0:0|0:0,0:0:0:0:
151,384,217915,6,0,B|151:310|87:328|84:235,1,140,14|8,0:1|0:1,0:0:0:0:
87,263,218393,1,0,0:0:0:0:
154,136,218553,2,0,P|173:92|178:57,1,70,10|0,0:0|0:0,0:0:0:0:
39,23,218872,1,8,0:1:0:0:
96,78,219032,1,8,0:0:0:0:
236,0,219191,2,0,P|286:-6|318:47,1,105,10|0,0:1|0:0,0:0:0:0:
332,53,219510,2,0,P|362:35|395:25,1,70,14|0,0:0|0:0,0:0:0:0:
187,107,219830,6,0,P|256:127|324:178,1,140,14|8,0:0|0:1,0:0:0:0:
311,165,220308,1,8,0:1:0:0:
441,285,220468,2,0,P|419:313|376:322,1,70,10|10,0:0|0:0,0:0:0:0:
201,237,220787,5,10,0:1:0:0:
301,299,220947,1,10,0:1:0:0:
217,384,221106,1,10,0:0:0:0:
316,285,221266,1,10,0:0:0:0:
203,159,221425,2,0,P|189:142|185:116,3,35,2|2|2|2,3:2|0:0|0:0|0:0,0:0:0:0:
264,104,221744,6,0,B|226:75|175:112|175:112|159:142|118:149,1,154.000004699707,14|8,3:2|0:1,0:0:0:0:
0,221,222383,2,0,P|40:225|71:248,1,77.0000023498536,8|0,0:1|0:0,0:0:0:0:
19,117,222702,1,10,0:0:0:0:
144,297,222861,1,2,0:0:0:0:
144,297,222941,1,2,0:0:0:0:
144,297,223021,2,0,P|218:300|271:247,1,154.000004699707,10|0,0:1|0:0,0:0:0:0:
339,363,223500,1,2,0:0:0:0:
510,225,223659,6,0,B|426:220|450:293|346:290,1,154.000004699707,2|8,3:2|0:1,0:0:0:0:
236,143,224138,1,8,0:1:0:0:
373,209,224298,1,0,3:2:0:0:
271,246,224457,1,0,0:0:0:0:
384,115,224617,2,0,P|418:98|454:84,1,77.0000023498536,8|0,0:0|0:0,0:0:0:0:
256,0,224936,2,0,P|186:10|194:73,1,115.50000352478,8|0,0:1|0:0,0:0:0:0:
184,63,225255,2,0,P|200:98|216:137,1,77.0000023498536,8|0,0:1|0:0,0:0:0:0:
146,292,225574,6,0,B|112:343|59:334|59:334|33:308|1:306,1,154.000004699707,2|8,3:2|0:0,0:0:0:0:
0,384,226053,1,8,0:0:0:0:
82,243,226213,2,0,P|94:206|103:169,1,77.0000023498536,2|0,3:2|0:0,0:0:0:0:
10,38,226532,1,8,0:0:0:0:
178,121,226691,5,2,0:0:0:0:
178,121,226771,1,2,0:0:0:0:
178,121,226851,2,0,P|213:113|242:62,1,77.0000023498536,10|0,0:1|0:0,0:0:0:0:
108,2,227170,2,0,P|131:31|168:39,1,77.0000023498536,2|0,3:2|0:0,0:0:0:0:
372,0,227489,6,0,B|370:89|319:69|299:155,1,154.000004699707,14|8,0:0|0:0,0:0:0:0:
332,200,227968,1,8,0:1:0:0:
512,261,228127,2,0,P|498:219|450:223,1,77.0000023498536,2|0,3:2|0:0,0:0:0:0:
288,320,228447,2,0,P|212:333|144:368,1,154.000004699707,10|10,0:0|0:1,0:0:0:0:
67,359,228925,1,2,0:0:0:0:
224,192,229085,2,0,P|240:200|250:216,3,38.5000011749268,2|2|2|2,3:2|0:0|0:0|0:0,0:0:0:0:
149,152,229404,6,0,B|98:118|107:65|107:65|133:39|135:7,1,167.999994873047,14|0,0:0|0:0,0:0:0:0:
57,1,229883,1,0,0:0:0:0:
198,84,230042,2,0,P|241:76|285:55,1,83.9999974365235,0|0,3:2|0:0,0:0:0:0:
416,0,230361,1,10,0:0:0:0:
469,171,230521,1,2,0:0:0:0:
469,171,230601,1,2,0:0:0:0:
469,171,230681,2,0,P|441:105|343:125,1,167.999994873047,10|8,0:1|0:1,0:0:0:0:
256,192,231159,1,10,0:0:0:0:
48,267,231319,6,0,B|93:259|127:293|127:293|178:298|218:235,1,167.999994873047,2|8,3:2|0:1,0:0:0:0:
300,376,231798,1,8,0:0:0:0:
349,256,231957,1,8,0:1:0:0:
194,357,232117,1,0,0:0:0:0:
372,259,232276,2,0,P|433:268|488:299,1,125.999996154785,8|0,0:0|0:0,0:0:0:0:
502,320,232595,2,0,P|487:373|442:383,1,83.9999974365235,0|0,3:2|0:0,0:0:0:0:
334,249,232915,2,0,P|300:225|297:184,1,83.9999974365235,0|0,3:2|0:0,0:0:0:0:
482,32,233234,6,0,B|470:122|407:82|386:193,1,167.999994873047,14|8,0:0|0:1,0:0:0:0:
473,176,233713,1,8,0:0:0:0:
320,64,233872,2,0,P|280:49|230:29,1,83.9999974365235,8|0,0:1|0:0,0:0:0:0:
388,0,234191,1,8,0:0:0:0:
261,131,234351,5,2,0:0:0:0:
261,131,234431,1,2,0:0:0:0:
261,131,234510,2,0,P|232:165|188:169,1,83.9999974365235,10|0,0:0|0:0,0:0:0:0:
32,0,234830,2,0,P|72:8|98:40,1,83.9999974365235,2|0,3:2|0:0,0:0:0:0:
123,196,235149,6,0,P|90:273|77:356,1,167.999994873047,6|8,3:2|0:0,0:0:0:0:
5,384,235627,1,8,3:2:0:0:
169,292,235787,2,0,P|209:286|235:316,1,83.9999974365235,2|0,3:2|0:0,0:0:0:0:
409,340,236106,2,0,B|359:303|308:343|308:343|296:380|248:393,1,167.999994873047,10|8,0:0|0:1,0:0:0:0:
235,316,236585,1,0,0:0:0:0:
469,287,236744,2,0,P|488:272|491:230,3,41.9999987182618,14|2|2|2,0:0|0:0|0:0|0:0,0:0:0:0:
437,202,237064,6,0,P|403:124|379:44,1,167.999994873047,14|8,0:0|0:1,0:0:0:0:
440,0,237542,1,8,0:0:0:0:
331,161,237702,2,0,P|294:152|272:113,1,83.9999974365235,8|0,0:1|0:0,0:0:0:0:
137,6,238021,2,0,P|83:38|6:67,1,125.999996154785,8|0,0:0|0:0,0:0:0:0:
1,77,238340,2,0,P|5:117|52:135,1,83.9999974365235,8|0,0:1|0:0,0:0:0:0:
211,234,238659,2,0,P|233:223|247:213,3,41.9999987182618,10|2|2|2,0:0|0:0|0:0|0:0,0:0:0:0:
136,264,238978,6,0,B|230:264|207:323|292:331,1,167.999994873047,2|8,3:2|0:1,0:0:0:0:
339,271,239457,1,8,0:0:0:0:
512,344,239617,2,0,P|474:362|435:377,1,83.9999974365235,8|0,0:1|0:0,0:0:0:0:
353,186,239936,2,0,P|365:141|441:144,1,125.999996154785,12|0,0:0|0:0,0:0:0:0:
447,158,240255,2,0,P|440:200|409:251,1,83.9999974365235,8|0,0:1|0:0,0:0:0:0:
315,39,240574,2,0,P|310:17|285:-21,3,41.9999987182618,2|2|2|2,3:2|0:0|0:0|0:0,0:0:0:0:
265,102,240893,6,0,P|204:112|174:48,1,125.999996154785,14|0,0:0|0:0,0:0:0:0:
172,64,241213,1,8,0:1:0:0:
43,153,241372,1,8,0:0:0:0:
166,273,241532,2,0,P|176:232|192:193,1,83.9999974365235,2|0,3:2|0:0,0:0:0:0:
5,361,241851,6,0,B|37:310|93:322|93:322|125:355|159:353,1,167.999994873047,14|8,0:0|0:1,0:0:0:0:
222,332,242330,1,0,0:0:0:0:
416,256,242489,2,0,P|377:236|337:225,1,83.9999974365235,2|0,3:2|0:0,0:0:0:0:
512,384,242808,5,6,3:2:0:0:
512,384,243127,1,8,0:1:0:0:
386,330,243287,1,8,0:0:0:0:
512,208,243447,1,10,3:2:0:0:
483,306,243606,1,10,0:0:0:0:
374,156,243766,1,14,0:0:0:0:
256,192,243845,12,0,245681,0:0:0:0:
260,248,246000,5,10,0:0:0:0:
351,291,246159,1,10,0:0:0:0:
432,174,246319,2,0,P|425:153|414:142,3,35,10|2|10|2,0:0|0:0|0:0|0:0,0:0:0:0:
486,104,246638,6,0,B|444:131|394:99|394:99|378:56|327:48,1,167.999994873047,6|8,3:2|0:1,0:0:0:0:
288,2,247117,1,8,0:0:0:0:
160,96,247276,2,0,P|122:88|85:67,1,77.0000023498536,2|8,0:0|0:0,0:0:0:0:
320,127,247595,2,0,P|286:145|248:153,1,77.0000023498536,8|0,0:1|0:0,0:0:0:0:
82,250,247915,2,0,P|37:236|78:143,1,154.000004699707,10|10,0:0|0:0,0:0:0:0:
121,177,248393,1,10,0:0:0:0:
296,300,248553,6,0,B|220:303|228:361|151:371,1,154.000004699707,2|8,3:2|0:1,0:0:0:0:
154,290,249032,1,8,0:1:0:0:
297,384,249191,2,0,P|333:371|366:346,1,77.0000023498536,10|0,0:0|0:0,0:0:0:0:
430,184,249510,1,10,0:1:0:0:
495,262,249669,1,2,0:0:0:0:
430,184,249829,2,0,P|401:159|363:161,1,77.0000023498536,10|2,0:0|0:0,0:0:0:0:
224,288,250148,2,0,P|261:289|289:264,1,77.0000023498536,2|2,3:2|0:0,0:0:0:0:
325,90,250467,6,0,P|307:37|210:41,1,154.000004699707,6|8,3:2|0:1,0:0:0:0:
182,99,250946,1,8,0:0:0:0:
14,0,251106,2,0,P|54:26|96:31,1,77.0000023498536,10|0,0:0|0:0,0:0:0:0:
195,114,251425,6,0,B|211:147|182:185|182:185|142:209|141:247,1,154.000004699707,8|8,0:1|0:1,0:0:0:0:
188,307,251903,1,8,0:1:0:0:
9,384,252063,2,0,P|-10:342|7:307,1,77.0000023498536,2|2,3:2|0:0,0:0:0:0:
205,292,252382,6,0,B|281:278|282:341|356:351,1,154.000004699707,6|8,3:2|0:1,0:0:0:0:
453,297,252861,1,8,0:0:0:0:
352,160,253020,1,2,0:0:0:0:
352,160,253340,5,10,0:1:0:0:
297,73,253499,1,2,0:0:0:0:
414,0,253659,2,0,P|385:33|380:71,1,77.0000023498536,14|10,0:1|0:0,0:0:0:0:
479,216,253978,2,0,P|507:182|512:144,1,77.0000023498536,10|10,0:1|0:0,0:0:0:0:
297,73,254297,6,0,P|222:98|133:119,1,154.000004699707,6|8,3:2|0:1,0:0:0:0:
85,78,254776,1,8,0:1:0:0:
0,235,254935,2,0,P|22:264|59:267,1,77.0000023498536,10|0,0:0|0:0,0:0:0:0:
232,175,255255,2,0,P|269:177|291:207,1,77.0000023498536,8|0,0:1|0:0,0:0:0:0:
182,384,255574,2,0,P|169:324|144:265,1,115.50000352478,8|0,0:0|0:0,0:0:0:0:
148,274,255893,1,10,0:0:0:0:
54,379,256052,1,10,0:0:0:0:
260,313,256212,6,0,B|312:287|355:331|355:331|364:366|403:378,1,154.000004699707,12|8,0:1|0:1,0:0:0:0:
430,307,256691,1,8,0:0:0:0:
256,224,256850,2,0,P|226:200|218:163,1,77.0000023498536,10|0,0:0|0:0,0:0:0:0:
416,64,257169,2,0,P|407:100|378:124,1,77.0000023498536,10|2,0:1|0:0,0:0:0:0:
218,163,257489,5,10,0:0:0:0:
203,141,257648,1,8,0:0:0:0:
123,94,257808,1,10,3:2:0:0:
35,132,257967,1,2,0:0:0:0:
168,304,258127,6,0,B|166:247|125:242|112:190,1,115.50000352478,6|0,3:2|0:0,0:0:0:0:
107,177,258446,2,0,P|115:139|137:102,1,77.0000023498536,2|8,0:0|0:1,0:0:0:0:
0,0,258765,2,0,P|8:38|30:75,1,77.0000023498536,10|2,0:0|0:0,0:0:0:0:
214,26,259084,5,8,0:1:0:0:
133,106,259244,1,8,0:0:0:0:
229,15,259403,2,0,P|262:11|287:72,1,77.0000023498536,12|8,0:0|0:1,0:0:0:0:
419,105,259723,2,0,P|452:109|477:48,1,77.0000023498536,8|10,0:0|0:0,0:0:0:0:
296,161,260042,6,0,B|292:243|361:216|379:301,1,154.000004699707,6|8,3:2|0:1,0:0:0:0:
321,384,260520,1,8,0:0:0:0:
512,311,260680,2,0,P|478:307|439:336,1,77.0000023498536,10|8,0:0|0:0,0:0:0:0:
321,384,260999,5,2,3:2:0:0:
204,339,261159,1,2,3:2:0:0:
263,230,261318,2,0,P|275:193|295:160,1,77.0000023498536,2|0,3:2|3:0,0:0:0:0:
143,76,261638,1,0,3:0:0:0:
215,125,261797,1,0,3:0:0:0:
363,39,261957,6,0,B|319:22|288:58|288:58|272:104|215:110,1,167.999994873047,6|8,3:2|0:1,0:0:0:0:
216,31,262435,1,8,0:0:0:0:
368,125,262595,2,0,P|403:150|464:147,1,77.0000023498536
254,236,262914,2,0,P|291:229|321:206,1,77.0000023498536,8|0,0:1|0:0,0:0:0:0:
134,96,263233,2,0,P|93:82|48:168,1,154.000004699707,8|8,0:0|0:0,0:0:0:0:
91,221,263712,1,8,0:0:0:0:
256,352,263872,6,0,B|339:351|310:282|403:274,1,154.000004699707,12|8,0:1|0:1,0:0:0:0:
398,355,264350,1,8,0:0:0:0:
245,257,264510,2,0,P|231:212|215:179,1,77.0000023498536,2|0,0:0|0:0,0:0:0:0:
352,96,264829,2,0,P|366:51|382:18,1,77.0000023498536,2|0,0:0|0:0,0:0:0:0:
172,78,265148,5,10,0:0:0:0:
267,37,265308,1,10,0:0:0:0:
352,96,265467,2,0,P|386:115|422:128,1,77.0000023498536,2|2,3:2|0:0,0:0:0:0:
191,0,265786,6,0,B|148:-20|108:18|108:18|91:52|55:57,1,154.000004699707,6|8,3:2|0:1,0:0:0:0:
0,15,266265,1,8,0:0:0:0:
178,92,266425,2,0,P|213:106|245:127,1,77.0000023498536,10|0,0:0|0:0,0:0:0:0:
0,210,266744,2,0,P|51:175|109:152,1,115.50000352478,10|0,0:1|0:0,0:0:0:0:
122,151,267063,2,0,P|137:179|99:222,1,77.0000023498536,8|0,0:0|0:0,0:0:0:0:
12,373,267382,2,0,P|-3:345|34:301,1,77.0000023498536,10|2,0:1|0:0,0:0:0:0:
201,288,267701,6,0,B|235:269|274:301|274:301|300:344|347:341,1,154.000004699707,10|8,0:1|0:1,0:0:0:0:
427,384,268180,1,8,0:0:0:0:
304,222,268340,1,2,0:0:0:0:
304,222,268659,5,10,0:1:0:0:
394,168,268818,1,2,0:0:0:0:
512,244,268978,2,0,P|471:246|439:208,1,77.0000023498536,14|10,0:0|0:0,0:0:0:0:
352,64,269297,2,0,P|381:40|419:43,1,77.0000023498536,2|8,3:2|0:0,0:0:0:0:
289,212,269616,6,0,P|237:185|182:167,1,115.50000352478,6|0,3:2|0:0,0:0:0:0:
158,169,269935,2,0,P|131:216|161:246,1,77.0000023498536,2|8,0:0|0:1,0:0:0:0:
20,295,270255,2,0,P|26:258|0:232,1,77.0000023498536,8|2,0:0|0:0,0:0:0:0:
139,349,270574,1,8,0:1:0:0:
154,83,270893,6,0,B|98:81|95:122|41:128,1,115.50000352478,8|0,0:0|0:0,0:0:0:0:
49,126,271212,1,8,0:0:0:0:
0,33,271372,1,8,0:0:0:0:
158,169,271531,6,0,P|128:240|100:349,1,154.000004699707,12|8,0:1|0:1,0:0:0:0:
60,379,272010,1,8,0:0:0:0:
254,308,272169,2,0,P|238:275|174:287,1,77.0000023498536,10|8,0:0|0:0,0:0:0:0:
347,384,272489,2,0,P|383:376|399:342,1,77.0000023498536,0|8,3:2|0:1,0:0:0:0:
275,196,272808,5,10,0:0:0:0:
287,214,272967,1,2,0:0:0:0:
377,241,273127,1,2,3:2:0:0:
460,198,273286,1,2,0:0:0:0:
330,57,273446,6,0,B|295:32|255:68|255:68|238:110|201:115,1,154.000004699707,6|8,3:2|0:1,0:0:0:0:
183,41,273925,1,8,0:0:0:0:
336,147,274084,2,0,P|374:132|407:107,1,77.0000023498536,2|0,0:0|0:0,0:0:0:0:
245,229,274403,2,0,P|276:251|312:265,1,77.0000023498536,12|0,0:1|0:0,0:0:0:0:
485,355,274723,2,0,P|502:315|428:286,1,115.50000352478,8|0,0:0|0:0,0:0:0:0:
452,275,275042,1,8,0:0:0:0:
384,384,275201,1,8,0:0:0:0:
190,296,275361,6,0,P|109:322|39:356,1,154.000004699707,12|8,0:1|0:1,0:0:0:0:
0,168,275840,1,8,0:0:0:0:
0,168,275999,2,0,P|38:165|59:201,1,77.0000023498536,2|0,0:0|0:0,0:0:0:0:
208,27,276318,5,8,0:1:0:0:
197,53,276478,1,0,0:0:0:0:
70,96,276638,1,8,0:0:0:0:
0,0,276797,1,8,0:0:0:0:
186,81,276957,2,0,P|217:58|253:44,1,77.0000023498536,0|8,3:2|0:0,0:0:0:0:
466,0,277276,6,0,P|456:72|370:67,1,154.000004699707,6|8,3:2|0:1,0:0:0:0:
389,4,277755,1,0,3:2:0:0:
260,127,277914,2,0,P|273:168|286:199,1,77.0000023498536,2|8,0:0|0:1,0:0:0:0:
416,320,278233,2,0,P|430:284|442:247,1,77.0000023498536,0|8,3:2|0:0,0:0:0:0:
256,384,278552,2,0,P|224:389|172:319,1,115.50000352478,10|0,0:2|0:0,0:0:0:0:
171,333,278872,1,8,0:1:0:0:
320,288,279031,1,8,0:0:0:0:
115,278,279191,6,0,B|114:204|55:215|41:136,1,154.000004699707,12|8,0:1|0:1,0:0:0:0:
178,0,279669,1,8,0:0:0:0:
178,0,279829,2,0,P|162:34|153:72,1,77.0000023498536,10|8,0:0|0:0,0:0:0:0:
312,172,280148,5,0,3:0:0:0:
286,163,280308,1,0,3:0:0:0:
237,57,280467,1,2,3:2:0:0:
361,0,280627,1,0,3:0:0:0:
441,114,280786,2,0,P|493:135|512:140,1,77.0000023498536,2|2,3:2|3:2,0:0:0:0:
286,163,281106,5,6,3:2:0:0:
286,163,281425,2,0,P|290:199|336:224,1,62.9999980773926,8|8,0:1|0:0,0:0:0:0:
480,256,281744,1,2,0:0:0:0:
480,256,282063,5,2,0:0:0:0:
456,284,282382,1,2,0:0:0:0:
419,286,282701,1,2,0:0:0:0:
224,352,283020,5,6,3:2:0:0:
224,352,283340,2,0,P|197:368|166:371,1,62.9999980773926,8|8,0:1|0:0,0:0:0:0:
0,312,283659,1,0,3:0:0:0:
87,384,283818,1,0,3:0:0:0:
175,293,283978,1,0,3:0:0:0:
62,200,284138,5,0,3:0:0:0:
62,200,284297,2,0,P|37:219|7:230,1,62.9999980773926,0|0,3:0|3:0,0:0:0:0:
194,283,284616,1,0,3:0:0:0:
64,0,284935,6,0,B|31:68|85:122|85:122|152:152|144:235,1,251.999992309571,4|8,3:2|0:0,0:0:0:0:
144,215,285573,1,8,0:1:0:0:
0,141,285892,1,8,0:0:0:0:
169,24,286211,1,10,0:1:0:0:
104,129,286530,1,10,0:0:0:0:
104,129,286849,6,0,P|137:153|186:161,1,83.9999974365235,10|10,0:1|0:0,0:0:0:0:
64,0,287169,1,10,0:0:0:0:
224,222,287488,6,0,B|316:246|367:175|355:79|231:95|256:179,1,251.999992309571,4|8,3:2|0:0,0:0:0:0:
255,147,288126,1,8,0:1:0:0:
369,271,288445,1,8,0:0:0:0:
206,384,288764,1,14,0:1:0:0:
206,384,289083,6,0,P|185:347|174:307,1,83.9999974365235,2|0,3:2|3:2,0:0:0:0:
109,217,289403,1,2,3:2:0:0:
109,217,289562,1,2,3:2:0:0:
239,136,289722,1,2,3:2:0:0:
239,136,289881,1,0,3:2:0:0:
370,190,290041,6,0,P|393:214|273:262,1,251.999992309571,6|8,3:2|0:0,0:0:0:0:
274,268,290679,1,8,0:1:0:0:
416,384,290998,1,8,0:0:0:0:
480,192,291317,1,10,0:1:0:0:
392,280,291637,1,10,0:0:0:0:
392,280,291956,6,0,P|351:267|314:249,1,83.9999974365235,10|10,0:1|0:0,0:0:0:0:
161,143,292275,1,10,0:0:0:0:
345,0,292594,6,0,B|342:133|231:89|212:238,1,251.999992309571,4|8,3:2|0:0,0:0:0:0:
218,207,293232,1,12,0:1:0:0:
459,123,293552,2,0,P|451:77|404:44,1,83.9999974365235,2|0,3:2|3:0,0:0:0:0:
263,14,293871,5,2,3:2:0:0:
250,32,294030,1,2,3:2:0:0:
163,105,294190,1,2,3:2:0:0:
135,86,294349,1,2,3:2:0:0:
15,0,294509,1,2,3:2:0:0:
106,85,294669,1,2,3:2:0:0:
0,175,294828,1,2,3:2:0:0:
131,9,294988,1,2,3:2:0:0:
