osu file format v14

[General]
AudioFilename: audio.mp3
AudioLeadIn: 0
PreviewTime: 83681
Countdown: 0
SampleSet: Soft
StackLeniency: 0.7
Mode: 0
LetterboxInBreaks: 0
WidescreenStoryboard: 0

[Editor]
DistanceSpacing: 0.2
BeatDivisor: 4
GridSize: 32
TimelineZoom: 3.499999

[Metadata]
Title:Nuedori
TitleUnicode:ヌエドリ
Artist:Suara
ArtistUnicode:Suara
Creator:fnayR
Version:Deception
Source:うたわれるもの 偽りの仮面
Tags:Utawarerumono 2 itsuwari no kamen mask of deception video game vn visual novel op opening full version female vocal jpop j-pop japanese pop kuon 二人の白皇 Futari no Hakuoro 3 truth anime
BeatmapID:4244972
BeatmapSetID:2035712

[Difficulty]
HPDrainRate:6
CircleSize:4.2
OverallDifficulty:8
ApproachRate:9
SliderMultiplier:1.6
SliderTickRate:1

[Events]
//Background and Video events
0,0,"bg.jpg",0,0
//Break Periods
//Storyboard Layer 0 (Background)
//Storyboard Layer 1 (Fail)
//Storyboard Layer 2 (Pass)
//Storyboard Layer 3 (Foreground)
//Storyboard Layer 4 (Overlay)
//Storyboard Sound Samples

[TimingPoints]
3066,957.456994223343,4,2,1,40,1,0
3066,-71.4285714285714,4,2,1,40,0,0
39446,319.148936170213,4,2,1,60,1,0
39446,-83.3333333333333,4,2,1,60,0,0
39525,-83.3333333333333,4,2,1,5,0,0
39924,-83.3333333333333,4,2,1,60,0,0
42078,-83.3333333333333,4,2,1,5,0,0
42477,-83.3333333333333,4,2,1,60,0,0
44632,-83.3333333333333,4,2,1,5,0,0
45031,-83.3333333333333,4,2,1,60,0,0
47185,-83.3333333333333,4,2,1,5,0,0
47584,-83.3333333333333,4,2,1,60,0,0
49658,319.148936170213,6,2,1,50,1,0
49658,-125,6,2,1,50,0,0
64977,-125,6,2,1,55,0,0
78381,-83.3333333333333,6,2,1,60,0,0
79338,335.195530726257,6,2,1,60,1,0
79673,326.672837153591,6,2,1,60,1,0
79999,367.669587597279,6,2,1,60,1,0
80366,-83.3333333333333,6,2,1,60,0,0
80734,319.148936170213,6,2,1,50,1,0
80893,333.333333333333,6,2,1,45,1,0
81059,448.196011055502,6,2,1,40,1,0
81507,413.793103448276,6,2,1,40,1,0
81920,505.305709954523,6,2,1,40,1,0
81920,-166.666666666667,6,2,1,40,0,0
82425,618.684264796865,6,2,1,40,1,0
82425,-250.000000000001,6,2,1,40,0,0
83043,319.148936170213,6,2,1,50,1,0
83043,-100,6,2,1,50,0,0
83122,-100,6,2,1,5,0,0
83202,-100,6,2,1,55,0,0
83282,-100,6,2,1,5,0,0
83362,-100,6,2,1,60,0,0
83441,-100,6,2,1,5,0,0
83521,-100,6,2,1,65,0,0
83601,-100,6,2,1,5,0,0
83681,319.148936170213,6,2,1,70,1,0
83681,-83.3333333333333,6,2,1,70,0,0
84319,-90.9090909090909,6,2,1,70,0,0
99000,-83.3333333333333,6,2,1,70,0,0
99638,-90.9090909090909,6,2,1,70,0,0
118149,-111.111111111111,6,2,1,50,0,0
121978,319.148936170213,4,2,1,60,1,0
121978,-83.3333333333333,4,2,1,60,0,0
122057,-83.3333333333333,4,2,1,5,0,0
122456,-83.3333333333333,4,2,1,60,0,0
124610,-83.3333333333333,4,2,1,5,0,0
125009,-83.3333333333333,4,2,1,60,0,0
127164,-83.3333333333333,4,2,1,5,0,0
127563,-83.3333333333333,4,2,1,60,0,0
129717,-83.3333333333333,4,2,1,5,0,0
130116,-83.3333333333333,4,2,1,60,0,0
132190,319.148936170213,6,2,1,50,1,0
132190,-142.857142857143,6,2,1,50,0,0
147509,-125,6,2,1,55,0,0
160913,-83.3333333333333,6,2,1,60,0,0
161870,335.195530726257,6,2,1,50,1,0
162205,326.672837153591,6,2,1,50,1,0
162531,367.669587597279,6,2,1,50,1,0
162898,-76.9230769230769,6,2,1,50,0,0
163246,319.148936170213,6,2,1,50,1,0
163429,333.333333333333,6,2,1,45,1,0
163619,448.196011055502,6,2,1,40,1,0
164029,413.793103448276,6,2,1,40,1,0
164452,505.305709954523,6,2,1,40,1,0
164452,-166.666666666667,6,2,1,40,0,0
164957,618.684264796865,6,2,1,40,1,0
164957,-250.000000000001,6,2,1,40,0,0
165575,319.148936170213,6,2,1,50,1,0
165575,-100,6,2,1,50,0,0
165654,-100,6,2,1,5,0,0
165734,-100,6,2,1,55,0,0
165814,-100,6,2,1,5,0,0
165894,-100,6,2,1,60,0,0
165973,-100,6,2,1,5,0,0
166053,-100,6,2,1,65,0,0
166133,-100,6,2,1,5,0,0
166213,319.148936170213,6,2,1,70,1,0
166213,-83.3333333333333,6,2,1,70,0,0
166851,-90.9090909090909,6,2,1,70,0,0
181532,-83.3333333333333,6,2,1,70,0,0
182170,-90.9090909090909,6,2,1,70,0,0
200681,-111.111111111111,6,2,1,50,0,0
204510,-100,6,2,1,55,0,0
212170,-100,6,2,1,60,0,0
220468,-100,6,2,1,65,0,0
221744,-90.9090909090909,6,2,1,60,0,0
229404,-83.3333333333333,6,2,1,70,0,0
243766,-83.3333333333333,6,2,1,50,0,0
245681,-83.3333333333333,6,2,1,5,0,0
246000,-100,6,2,1,50,0,0
246079,-100,6,2,1,5,0,0
246159,-100,6,2,1,55,0,0
246239,-100,6,2,1,5,0,0
246319,-100,6,2,1,60,0,0
246478,-100,6,2,1,65,0,0
246638,-83.3333333333333,6,2,1,70,0,0
247276,-90.9090909090909,6,2,1,70,0,0
261957,-83.3333333333333,6,2,1,70,0,0
262595,-90.9090909090909,6,2,1,70,0,0
281106,-111.111111111111,6,2,1,50,0,0
284935,319.148936170213,4,2,1,60,1,0
284935,-83.3333333333333,4,2,1,60,0,0
285014,-83.3333333333333,4,2,1,5,0,0
285413,-83.3333333333333,4,2,1,60,0,0
287567,-83.3333333333333,4,2,1,5,0,0
287966,-83.3333333333333,4,2,1,60,0,0
290121,-83.3333333333333,4,2,1,5,0,0
290520,-83.3333333333333,4,2,1,60,0,0
292674,-83.3333333333333,4,2,1,5,0,0
293073,-83.3333333333333,4,2,1,60,0,0

[Colours]
Combo1 : 212,212,212
Combo2 : 0,55,111
Combo3 : 255,159,113

[HitObjects]
155,203,6895,6,0,B|149:317|59:278|24:391,1,223.999993164063,2|2,0:0|0:0,0:0:0:0:
29,378,8172,2,0,P|79:341|137:353,1,111.999996582031,2|0,0:0|0:0,0:0:0:0:
322,384,8810,2,0,P|332:319|190:298,1,223.999993164063,2|2,0:0|0:0,0:0:0:0:
206,279,10087,1,0,0:0:0:0:
413,84,10725,6,0,B|427:-56|579:0|511:103|472:25,1,223.999993164063,2|2,0:0|0:0,0:0:0:0:
407,0,12002,2,0,P|385:13|368:19,1,37.3333321940105,2|0,0:0|0:0,0:0:0:0:
329,111,12321,2,0,P|312:101|295:94,1,37.3333321940105,2|0,0:0|0:0,0:0:0:0:
116,46,12640,2,0,P|153:5|207:0,1,111.999996582031,2|0,0:0|0:0,0:0:0:0:
246,64,13278,2,0,P|259:77|276:84,1,37.3333321940105,2|0,0:0|0:0,0:0:0:0:
453,131,13598,2,0,P|492:121|471:54,1,111.999996582031,2|0,0:0|0:0,0:0:0:0:
402,0,14236,2,0,P|405:17|418:40,1,37.3333321940105,2|0,0:0|0:0,0:0:0:0:
512,198,14555,2,0,B|408:204|404:117|292:120,1,223.999993164063,2|2,0:0|0:0,0:0:0:0:
30,68,15832,6,0,P|11:76|-8:114,1,37.3333321940105,2|0,0:0|0:0,0:0:0:0:
99,18,16151,2,0,P|85:4|68:-1,1,37.3333321940105,2|0,0:0|0:0,0:0:0:0:
166,159,16470,2,0,B|252:78|176:9|176:9|188:47|153:78,1,223.999993164063,2|2,0:0|0:0,0:0:0:0:
0,194,17746,6,0,P|6:211|19:224,1,37.3333321940105,2|0,0:0|0:0,0:0:0:0:
134,258,18066,2,0,P|146:244|153:227,1,37.3333321940105,2|0,0:0|0:0,0:0:0:0:
0,349,18385,2,0,P|22:311|86:318,1,111.999996582031,2|0,0:0|0:0,0:0:0:0:
148,349,19023,2,0,P|144:367|137:384,1,37.3333321940105,2|0,0:0|0:0,0:0:0:0:
288,288,19342,2,0,P|266:237|256:182,1,111.999996582031,2|0,0:0|0:0,0:0:0:0:
205,129,19981,2,0,P|187:136|177:151,1,37.3333321940105,2|0,0:0|0:0,0:0:0:0:
96,0,20300,2,0,B|210:2|219:61|317:81,1,223.999993164063,2|2,0:0|0:0,0:0:0:0:
512,233,21576,6,0,P|495:239|479:249,1,37.3333321940105,2|0,0:0|0:0,0:0:0:0:
320,306,21895,2,0,P|304:295|286:290,1,37.3333321940105,2|0,0:0|0:0,0:0:0:0:
416,162,22215,2,0,B|350:197|360:280|360:280|400:317|400:373,1,223.999993164063,2|2,0:0|0:0,0:0:0:0:
398,352,23491,2,0,P|417:297|456:231,1,111.999996582031,2|0,0:0|0:0,0:0:0:0:
511,44,24129,2,0,P|462:11|445:130,1,223.999993164063,2|2,0:0|0:0,0:0:0:0:
427,123,25406,1,2,0:0:0:0:
128,320,26044,6,0,B|91:424|-56:382|2:284|55:363,1,223.999993164063,2|2,0:0|0:0,0:0:0:0:
114,317,27321,2,0,P|109:295|95:284,1,37.3333321940105,2|0,0:0|0:0,0:0:0:0:
16,211,27640,2,0,P|20:189|34:178,1,37.3333321940105,2|0,0:0|0:0,0:0:0:0:
128,32,27959,2,0,P|169:45|156:121,1,111.999996582031,2|0,0:0|0:0,0:0:0:0:
111,147,28598,2,0,P|123:163|134:195,1,37.3333321940105,2|0,0:0|0:0,0:0:0:0:
209,332,28917,2,0,P|229:280|262:234,1,111.999996582031,2|0,0:0|0:0,0:0:0:0:
312,179,29555,2,0,P|304:155|285:146,1,37.3333321940105,2|0,0:0|0:0,0:0:0:0:
83,203,29874,2,0,B|87:292|191:282|204:399,1,223.999993164063,2|2,0:0|0:0,0:0:0:0:
471,202,31151,6,0,P|461:186|428:173,1,37.3333321940105,2|0,0:0|0:0,0:0:0:0:
256,236,31470,2,0,P|265:220|281:209,1,37.3333321940105,2|0,0:0|0:0,0:0:0:0:
455,335,31789,2,0,P|437:279|310:285,1,186.666660970052,2|0,0:0|0:0,0:0:0:0:
471,202,32747,6,0,P|478:184|487:168,1,37.3333321940105,2|0,0:0|0:0,0:0:0:0:
329,23,33066,1,2,0:0:0:0:
320,9,33385,1,2,0:0:0:0:
512,23,33704,6,0,P|470:39|393:73,1,111.999996582031,2|0,0:0|0:0,0:0:0:0:
354,114,34342,2,0,P|333:106|316:92,1,37.3333321940105,2|0,0:0|0:0,0:0:0:0:
131,61,34661,2,0,P|142:15|215:16,1,111.999996582031,2|0,0:0|0:0,0:0:0:0:
275,21,35300,2,0,P|267:46|252:57,1,37.3333321940105,2|0,0:0|0:0,0:0:0:0:
81,181,35619,2,0,P|134:267|168:386,2,223.999993164063,2|2|2,0:0|0:0|0:0,0:0:0:0:
476,135,39446,6,0,B|555:71|532:-19|446:-74|375:37|445:62,1,287.999991210938,4|8,3:2|0:0,0:0:0:0:
395,120,40084,1,8,0:1:0:0:
512,288,40403,1,8,0:0:0:0:
354,374,40722,1,10,0:1:0:0:
498,210,41041,1,10,0:0:0:0:
498,210,41360,5,10,0:1:0:0:
347,288,41520,1,10,0:0:0:0:
192,224,41680,1,10,0:0:0:0:
179,207,41839,1,2,0:0:0:0:
72,384,41999,6,0,B|205:390|211:251|351:275,1,287.999991210938,4|8,3:2|0:0,0:0:0:0:
395,304,42637,1,8,0:1:0:0:
205,381,42956,1,8,0:0:0:0:
32,160,43275,1,14,0:1:0:0:
32,160,43594,5,2,3:2:0:0:
106,100,43754,1,0,3:2:0:0:
70,0,43914,1,2,3:2:0:0:
0,32,44073,1,2,3:2:0:0:
125,117,44232,1,2,3:2:0:0:
320,64,44392,1,0,3:2:0:0:
132,139,44552,6,0,B|78:228|139:297|139:297|201:319|206:389,1,287.999991210938,6|8,3:2|0:0,0:0:0:0:
125,379,45190,1,8,0:1:0:0:
229,212,45509,1,8,0:0:0:0:
57,316,45828,1,10,0:1:0:0:
320,384,46148,1,10,0:0:0:0:
320,384,46467,5,10,0:1:0:0:
239,233,46626,1,10,0:0:0:0:
347,106,46786,1,10,0:0:0:0:
357,120,46946,1,2,0:0:0:0:
155,47,47105,6,0,B|219:126|309:103|364:17|253:-54|228:16,1,287.999991210938,4|8,3:2|0:0,0:0:0:0:
155,47,47743,1,8,0:1:0:0:
280,163,48063,1,8,0:0:0:0:
480,0,48382,1,14,0:1:0:0:
480,0,48701,5,10,0:0:0:0:
445,9,48860,1,10,0:0:0:0:
395,66,49020,1,10,0:1:0:0:
462,203,49180,1,8,0:0:0:0:
497,139,49339,1,10,0:0:0:0:
288,341,49658,6,0,P|228:352|155:383,1,128,6|10,0:2|0:1,0:0:0:0:
52,340,50136,1,10,0:0:0:0:
96,128,50296,1,10,0:1:0:0:
96,128,50615,6,0,P|103:160|114:189,1,64,10|0,0:1|0:0,0:0:0:0:
35,13,50934,2,0,P|17:84|-6:148,1,128,10|8,0:1|0:1,0:0:0:0:
0,135,51413,1,8,0:1:0:0:
192,64,51572,6,0,P|177:5|117:0,1,128,10|10,0:0|0:1,0:0:0:0:
23,25,52050,1,8,0:0:0:0:
200,153,52210,1,10,0:1:0:0:
200,153,52530,6,0,P|230:143|260:119,1,64,2|0,3:2|0:0,0:0:0:0:
359,0,52849,1,10,0:1:0:0:
292,34,53009,1,10,0:1:0:0:
448,96,53168,2,0,P|473:115|503:125,1,64,10|8,0:0|0:1,0:0:0:0:
352,256,53487,6,0,P|316:240|340:163,1,128,10|10,0:0|0:1,0:0:0:0:
433,206,53966,1,8,0:0:0:0:
360,384,54126,1,10,0:1:0:0:
360,384,54445,6,0,P|394:374|433:358,1,64,10|0,0:0|0:0,0:0:0:0:
224,256,54764,2,0,P|291:282|361:301,1,128,10|8,0:1|0:1,0:0:0:0:
344,297,55243,1,0,0:0:0:0:
448,96,55402,6,0,P|493:119|501:194,1,128,10|10,0:0|0:1,0:0:0:0:
429,267,55881,1,8,0:0:0:0:
273,69,56040,1,10,0:1:0:0:
273,69,56360,6,0,P|316:50|364:41,1,96,10|0,0:1|0:0,0:0:0:0:
379,52,56679,2,0,P|410:67|438:76,1,64,10|0,0:1|0:0,0:0:0:0:
512,0,56998,1,10,0:0:0:0:
257,83,57317,6,0,P|208:98|139:40,1,128,10|10,0:0|0:1,0:0:0:0:
40,0,57796,1,8,0:0:0:0:
160,192,57955,1,10,0:1:0:0:
160,192,58275,6,0,P|204:198|215:225,1,64,10|0,0:0|0:0,0:0:0:0:
51,322,58594,2,0,P|100:271|171:276,1,128,10|8,0:1|0:1,0:0:0:0:
153,268,59072,1,2,0:0:0:0:
352,384,59232,6,0,P|336:320|302:264,1,128,10|10,0:0|0:1,0:0:0:0:
217,195,59711,1,8,0:0:0:0:
352,0,59870,1,10,0:1:0:0:
352,0,60189,6,0,P|371:29|381:64,1,64,2|0,3:2|0:0,0:0:0:0:
319,202,60509,1,10,0:1:0:0:
282,138,60668,1,2,0:0:0:0:
452,94,60828,2,0,P|434:120|424:150,1,64,8|2,0:0|0:0,0:0:0:0:
357,345,61147,5,10,0:0:0:0:
421,288,61306,1,0,0:0:0:0:
450,369,61466,5,10,0:1:0:0:
400,264,61626,1,8,0:0:0:0:
512,306,61785,5,10,0:1:0:0:
393,238,61945,1,0,0:0:0:0:
224,352,62104,6,0,P|161:349|123:296,1,128,10|10,0:1|0:1,0:0:0:0:
30,58,62743,2,0,P|12:19|12:-6,1,64,10|10,0:0|0:1,0:0:0:0:
143,144,63062,6,0,P|199:124|259:89,1,128,10|10,0:0|0:1,0:0:0:0:
366,137,63540,1,8,0:0:0:0:
512,0,63700,1,2,0:1:0:0:
500,13,64019,1,10,0:0:0:0:
421,197,64338,5,10,0:1:0:0:
257,89,64658,1,8,0:1:0:0:
288,352,64977,6,0,B|299:287|333:289|356:233,1,128,14|10,0:0|0:1,0:0:0:0:
192,224,65455,1,8,0:0:0:0:
192,224,65615,2,0,P|214:258|228:300,1,64,10|0,0:1|0:0,0:0:0:0:
384,352,65934,2,0,P|449:349|466:293,1,128,10|10,0:0|0:1,0:0:0:0:
394,111,66572,1,8,0:0:0:0:
320,160,66732,1,0,0:0:0:0:
468,159,66892,6,0,P|405:147|346:122,1,128,10|10,0:0|0:1,0:0:0:0:
256,0,67370,1,8,0:0:0:0:
256,0,67530,2,0,P|281:6|285:45,1,64,10|0,0:1|0:0,0:0:0:0:
192,192,67849,2,0,P|163:250|138:321,1,128,10|0,0:0|3:0,0:0:0:0:
141,309,68328,1,0,0:0:0:0:
257,384,68487,2,0,P|247:354|224:312,1,64,8|0,0:0|0:0,0:0:0:0:
100,181,68806,6,0,P|142:111|187:107,1,128,10|10,0:0|0:1,0:0:0:0:
320,32,69285,1,8,0:0:0:0:
320,32,69445,2,0,P|300:7|259:19,1,64,10|0,0:1|0:0,0:0:0:0:
384,128,69764,2,0,P|457:131|503:72,1,128,10|10,0:0|0:1,0:0:0:0:
324,257,70402,1,8,0:0:0:0:
276,182,70562,1,0,0:0:0:0:
416,256,70721,6,0,P|393:315|375:377,1,128,10|10,0:0|0:1,0:0:0:0:
212,320,71200,1,8,0:0:0:0:
212,320,71360,2,0,P|250:297|272:322,1,64,10|0,0:1|0:0,0:0:0:0:
399,384,71679,5,10,0:0:0:0:
328,227,71998,1,2,3:2:0:0:
416,0,72317,1,10,0:0:0:0:
512,128,72636,6,0,B|463:133|442:167|390:180,1,128,10|10,0:0|0:1,0:0:0:0:
288,64,73115,1,8,0:0:0:0:
288,64,73275,2,0,P|293:34|317:13,1,64,10|0,0:1|0:0,0:0:0:0:
192,192,73594,2,0,P|236:146|203:93,1,128,10|10,0:0|0:1,0:0:0:0:
0,49,74232,1,8,0:0:0:0:
84,0,74392,1,0,0:0:0:0:
32,128,74551,6,0,P|60:185|75:255,1,128,10|10,0:0|0:1,0:0:0:0:
0,384,75030,1,8,0:0:0:0:
0,384,75189,2,0,P|31:384|61:352,1,64,10|0,0:1|0:0,0:0:0:0:
224,288,75509,6,0,P|284:311|365:331,1,128,10|8,0:0|0:1,0:0:0:0:
345,327,75987,1,0,0:0:0:0:
510,244,76147,2,0,P|479:248|448:256,1,64,10|8,0:1|0:1,0:0:0:0:
320,128,76466,2,0,P|330:59|401:67,1,128,10|8,0:0|0:1,0:0:0:0:
512,128,76945,1,10,0:0:0:0:
512,128,77264,1,2,0:0:0:0:
439,4,77423,2,0,B|321:6|322:88|192:102,1,256,10|10,0:1|0:1,0:0:0:0:
0,321,78381,6,0,B|64:400|154:377|209:291|98:220|73:290,1,287.999991210938,4|8,3:2|0:0,0:0:0:0:
11,242,79019,1,8,0:1:0:0:
192,384,79338,1,2,3:2:0:0:
75,283,79673,1,2,3:2:0:0:
194,123,79999,1,10,0:0:0:0:
0,59,80366,6,0,B|52:117|121:88|121:88|139:55|191:39,1,191.999994140625,6|10,3:2|0:1,0:0:0:0:
75,20,80893,1,8,0:0:0:0:
214,176,81059,1,10,0:0:0:0:
214,176,81507,6,0,P|231:214|245:262,1,80,10|0,0:1|0:0,0:0:0:0:
172,286,81920,6,0,P|159:314|149:348,1,47.9999985351563,10|0,0:0|0:0,0:0:0:0:
233,339,82425,6,0,P|242:361|250:388,1,48,10|0,0:0|0:0,0:0:0:0:
250,384,83043,6,0,P|264:363|273:344,1,40,8|0,0:0|0:0,0:0:0:0:
352,320,83202,6,0,P|340:297|327:280,1,40,8|0,0:0|0:0,0:0:0:0:
182,302,83362,6,0,P|171:286|162:268,1,40,8|0,0:0|0:0,0:0:0:0:
384,191,83521,6,0,P|393:174|404:157,1,40,8|0,0:0|0:0,0:0:0:0:
192,0,83681,6,0,B|220:105|286:61|315:164,1,191.999994140625,6|8,3:2|0:1,0:0:0:0:
384,32,84159,1,8,0:0:0:0:
226,164,84319,2,0,P|183:175|144:196,1,88.000002685547,2|8,0:0|0:0,0:0:0:0:
0,352,84638,2,0,P|55:294|114:316,1,132.00000402832,8|0,0:1|0:0,0:0:0:0:
114,316,84957,2,0,P|157:338|207:350,1,88.000002685547,10|2,0:0|0:0,0:0:0:0:
352,184,85276,1,10,0:0:0:0:
188,263,85436,1,10,0:0:0:0:
423,384,85595,6,0,B|476:334|442:276|442:276|407:256|404:217,1,176.000005371094,2|8,3:2|0:1,0:0:0:0:
453,17,86074,1,8,0:1:0:0:
512,66,86234,2,0,P|504:104|445:119,1,88.000002685547,10|0,0:0|0:0,0:0:0:0:
270,35,86553,1,10,0:1:0:0:
338,0,86712,1,2,0:0:0:0:
259,48,86872,2,0,P|218:65|176:77,1,88.000002685547,10|2,0:0|0:0,0:0:0:0:
1,37,87191,2,0,P|28:2|77:22,1,88.000002685547,2|2,3:2|0:0,0:0:0:0:
277,136,87510,6,0,B|189:146|213:208|105:218,1,176.000005371094,6|8,3:2|0:1,0:0:0:0:
9,354,87989,1,8,0:0:0:0:
176,282,88149,2,0,P|223:295|263:318,1,88.000002685547,10|0,0:0|0:0,0:0:0:0:
32,160,88468,1,8,0:1:0:0:
219,39,88627,5,8,0:0:0:0:
219,39,88707,1,8,0:0:0:0:
219,39,88787,2,0,P|181:15|140:0,1,88.000002685547,8|8,0:1|0:1,0:0:0:0:
357,76,89106,2,0,P|318:91|277:117,1,88.000002685547,2|2,3:2|0:0,0:0:0:0:
32,160,89425,6,0,B|76:113|127:129|127:129|155:170|208:163,1,176.000005371094,6|8,3:2|0:1,0:0:0:0:
392,268,89904,1,8,0:0:0:0:
443,211,90063,2,0,P|402:228|360:240,1,88.000002685547,2|2,0:0|0:0,0:0:0:0:
238,349,90383,5,10,0:1:0:0:
210,367,90542,1,2,0:0:0:0:
168,354,90702,1,10,0:1:0:0:
104,269,90861,1,10,0:0:0:0:
165,142,91021,1,10,0:1:0:0:
0,0,91181,5,10,0:0:0:0:
0,0,91260,1,10,0:0:0:0:
0,0,91340,2,0,B|10:65|59:62|84:128,1,132.00000402832,6|0,3:2|0:0,0:0:0:0:
96,96,91659,2,0,P|79:137|61:177,1,88.000002685547,8|8,0:1|0:1,0:0:0:0:
256,0,91978,2,0,P|273:41|291:81,1,88.000002685547,10|0,0:0|0:0,0:0:0:0:
85,0,92298,1,8,0:1:0:0:
314,156,92617,6,0,P|385:143|380:87,1,132.00000402832,8|0,0:0|0:0,0:0:0:0:
367,82,92936,1,10,0:0:0:0:
480,192,93095,1,10,0:0:0:0:
288,352,93255,6,0,B|225:336|228:271|228:271|264:245|253:198,1,176.000005371094,12|8,0:1|0:1,0:0:0:0:
159,384,93734,1,8,0:0:0:0:
352,256,93893,2,0,P|392:272|435:292,1,88.000002685547,10|0,0:0|0:0,0:0:0:0:
224,128,94212,2,0,P|184:144|141:164,1,88.000002685547,10|2,0:1|0:0,0:0:0:0:
320,0,94532,5,10,0:0:0:0:
297,23,94691,1,8,0:0:0:0:
329,87,94851,1,10,3:2:0:0:
480,0,95010,1,2,0:0:0:0:
237,123,95170,6,0,P|170:108|174:48,1,132.00000402832,6|0,3:2|0:0,0:0:0:0:
184,42,95489,2,0,B|229:26|266:10,1,88.000002685547,2|8,0:0|0:1,0:0:0:0:
0,128,95808,2,0,B|36:144|82:159,1,88.000002685547,10|2,0:0|0:0,0:0:0:0:
224,224,96127,5,8,0:1:0:0:
54,355,96287,1,8,0:0:0:0:
216,209,96446,2,0,P|191:238|177:288,1,88.000002685547,8|8,0:0|0:1,0:0:0:0:
38,369,96766,2,0,P|27:326|0:292,1,88.000002685547,8|10,0:0|0:1,0:0:0:0:
288,383,97085,6,0,B|365:393|388:338|462:335,1,176.000005371094,6|8,3:2|0:1,0:0:0:0:
271,372,97563,1,8,0:0:0:0:
512,214,97723,1,2,0:0:0:0:
512,214,98042,5,2,3:2:0:0:
321,306,98202,1,2,3:2:0:0:
142,254,98361,1,2,3:2:0:0:
281,84,98521,1,0,3:0:0:0:
317,123,98681,1,0,3:0:0:0:
299,162,98840,1,0,3:0:0:0:
512,64,99000,6,0,B|509:-11|445:-38|375:-11|408:81|454:50,1,191.999994140625,6|8,3:2|0:1,0:0:0:0:
331,110,99478,1,8,0:0:0:0:
106,26,99638,2,0,P|166:36|200:65,1,88.000002685547
15,175,99957,2,0,P|71:126|143:111,1,132.00000402832,8|0,0:1|0:0,0:0:0:0:
143,116,100276,2,0,P|174:132|164:190,1,88.000002685547,8|0,0:0|0:0,0:0:0:0:
209,373,100595,1,8,0:0:0:0:
32,288,100755,1,8,0:0:0:0:
288,224,100914,6,0,B|269:300|211:293|184:376,1,176.000005371094,8|8,0:1|0:1,0:0:0:0:
107,251,101393,1,8,0:0:0:0:
287,376,101553,2,0,P|336:358|387:331,1,88.000002685547,2|0,0:0|0:0,0:0:0:0:
512,224,101872,2,0,P|472:204|430:190,1,88.000002685547,2|0,0:0|0:0,0:0:0:0:
320,0,102191,5,10,0:0:0:0:
342,24,102351,1,10,0:0:0:0:
325,103,102510,1,2,3:2:0:0:
213,159,102670,1,2,0:0:0:0:
64,32,102829,6,0,B|130:-9|170:23|170:23|192:56|234:61,1,176.000005371094,6|8,3:2|0:1,0:0:0:0:
357,18,103308,1,8,0:0:0:0:
241,242,103468,2,0,P|223:201|213:157,1,88.000002685547,10|0,0:0|0:0,0:0:0:0:
56,21,103787,2,0,P|36:84|10:143,1,132.00000402832,10|0,0:1|0:0,0:0:0:0:
0,164,104106,2,0,P|14:212|59:222,1,88.000002685547,8|0,0:0|0:0,0:0:0:0:
198,384,104425,2,0,P|149:369|139:324,1,88.000002685547,10|2,0:1|0:0,0:0:0:0:
367,191,104744,6,0,P|407:223|327:222,1,176.000005371094,10|8,0:1|0:1,0:0:0:0:
212,37,105223,1,8,0:0:0:0:
277,2,105383,2,0,P|254:33|236:109,1,88.000002685547,2|0,0:0|0:0,0:0:0:0:
458,153,105702,5,10,0:1:0:0:
468,119,105861,1,2,0:0:0:0:
237,79,106021,1,14,0:0:0:0:
277,154,106181,1,10,0:0:0:0:
228,301,106340,1,2,3:2:0:0:
448,288,106500,5,8,0:0:0:0:
448,288,106579,1,8,0:0:0:0:
448,288,106659,2,0,B|398:288|372:326|316:326,1,132.00000402832,6|0,3:2|0:0,0:0:0:0:
304,341,106978,2,0,P|261:329|228:301,1,88.000002685547,2|8,0:0|0:1,0:0:0:0:
96,96,107297,2,0,P|117:55|165:55,1,88.000002685547,8|2,0:0|0:0,0:0:0:0:
0,192,107617,1,8,0:1:0:0:
272,0,107936,6,0,P|242:65|225:146,1,132.00000402832,8|0,0:0|0:0,0:0:0:0:
226,144,108255,1,8,0:0:0:0:
113,16,108414,1,8,0:0:0:0:
288,192,108574,6,0,P|311:199|333:92,1,176.000005371094,12|8,0:1|0:1,0:0:0:0:
181,231,109053,1,8,0:0:0:0:
361,271,109212,2,0,P|391:279|444:299,1,88.000002685547,2|0,0:0|0:0,0:0:0:0:
160,384,109532,2,0,P|201:368|243:355,1,88.000002685547,8|0,0:1|0:0,0:0:0:0:
437,372,109851,5,10,0:0:0:0:
381,378,110010,1,2,0:0:0:0:
332,351,110170,1,2,3:2:0:0:
301,224,110329,1,2,0:0:0:0:
512,64,110489,6,0,B|427:68|444:123|338:134,1,176.000005371094,6|8,3:2|0:1,0:0:0:0:
497,141,110968,1,8,0:0:0:0:
359,53,111127,2,0,P|317:42|250:11,1,88.000002685547,2|0,0:0|0:0,0:0:0:0:
169,164,111446,2,0,P|210:153|277:122,1,88.000002685547,8|0,0:1|0:0,0:0:0:0:
0,0,111766,2,0,P|8:72|63:74,1,132.00000402832,8|0,0:0|0:0,0:0:0:0:
77,60,112085,1,8,0:0:0:0:
252,135,112244,1,8,0:0:0:0:
83,338,112404,6,0,B|14:285|42:216|42:216|65:246|100:264,1,176.000005371094,8|8,0:1|0:1,0:0:0:0:
0,384,112882,1,8,0:0:0:0:
219,248,113042,2,0,P|284:271|344:288,1,132.00000402832,2|0,0:0|0:0,0:0:0:0:
363,302,113361,2,0,P|346:354|310:358,1,88.000002685547,8|0,0:1|0:0,0:0:0:0:
138,237,113680,5,8,0:0:0:0:
260,156,113840,1,8,0:0:0:0:
124,0,114000,1,0,3:2:0:0:
273,62,114159,1,8,0:0:0:0:
0,99,114319,6,0,B|72:93|96:154|170:164,1,176.000005371094,6|8,3:2|0:1,0:0:0:0:
273,62,114798,1,8,0:0:0:0:
498,132,114957,2,0,P|461:157|409:165,1,88.000002685547,2|0,0:0|0:0,0:0:0:0:
222,0,115276,2,0,P|264:8|282:53,1,88.000002685547,0|0,3:2|0:0,0:0:0:0:
351,229,115595,2,0,P|426:194|400:149,1,132.00000402832,10|0,0:0|0:0,0:0:0:0:
387,149,115915,1,8,0:0:0:0:
512,315,116074,1,8,0:0:0:0:
252,384,116234,6,0,B|202:349|220:281|220:281|246:260|255:219,1,176.000005371094,12|8,0:1|0:1,0:0:0:0:
130,37,116712,1,8,0:0:0:0:
196,1,116872,2,0,P|175:41|162:84,1,88.000002685547,2|0,0:0|0:0,0:0:0:0:
0,262,117191,5,0,3:0:0:0:
172,295,117351,1,0,3:0:0:0:
333,249,117510,1,2,3:2:0:0:
489,195,117670,1,0,3:0:0:0:
511,237,117829,1,2,3:2:0:0:
489,264,117989,1,2,3:2:0:0:
320,96,118149,5,6,3:2:0:0:
320,96,118468,2,0,P|335:55|352:20,1,71.9999978027344,8|8,0:1|0:0,0:0:0:0:
512,116,118787,1,2,0:0:0:0:
512,116,119106,5,2,0:0:0:0:
476,119,119425,1,2,0:0:0:0:
448,95,119744,1,2,0:0:0:0:
192,256,120063,5,6,3:2:0:0:
192,256,120383,2,0,P|149:268|115:278,1,71.9999978027344,8|8,0:1|0:0,0:0:0:0:
352,384,120702,5,0,3:0:0:0:
234,335,120861,1,0,3:0:0:0:
288,224,121021,1,0,3:0:0:0:
370,125,121181,5,0,3:0:0:0:
220,180,121340,1,0,3:0:0:0:
139,0,121500,1,0,3:0:0:0:
218,30,121659,5,0,3:0:0:0:
0,320,121978,6,0,B|41:412|134:413|209:345|120:247|78:308,1,287.999991210938,4|8,3:2|0:0,0:0:0:0:
0,320,122616,1,8,0:1:0:0:
128,96,122935,1,8,0:0:0:0:
0,192,123254,1,10,0:1:0:0:
223,341,123573,1,10,0:0:0:0:
223,341,123892,5,10,0:1:0:0:
179,186,124052,1,10,0:0:0:0:
254,32,124212,1,10,0:0:0:0:
240,16,124371,1,2,0:0:0:0:
436,58,124531,6,0,B|324:126|239:16|239:16|280:48|327:29,1,287.999991210938,4|8,3:2|0:0,0:0:0:0:
360,0,125169,1,8,0:1:0:0:
288,170,125488,1,8,0:0:0:0:
512,273,125807,1,14,0:1:0:0:
512,273,126126,5,2,3:2:0:0:
436,336,126286,1,0,3:2:0:0:
308,295,126446,1,2,3:2:0:0:
359,238,126605,1,2,3:2:0:0:
449,351,126764,1,2,3:2:0:0:
227,384,126924,1,0,3:2:0:0:
449,379,127084,6,0,B|489:290|397:260|394:254|395:249|316:204|352:127,1,287.999991210938,6|8,3:2|0:0,0:0:0:0:
422,164,127722,1,8,0:1:0:0:
254,273,128041,1,8,0:0:0:0:
379,341,128360,1,10,0:1:0:0:
288,96,128680,1,10,0:0:0:0:
288,96,128999,5,10,0:1:0:0:
128,148,129158,1,10,0:0:0:0:
11,38,129318,1,10,0:0:0:0:
0,23,129478,1,2,0:0:0:0:
236,39,129637,6,0,B|298:-22|397:16|397:16|426:85|501:80,1,287.999991210938,4|8,3:2|0:0,0:0:0:0:
479,1,130275,1,8,0:1:0:0:
324,86,130595,1,8,0:0:0:0:
96,0,130914,1,14,0:1:0:0:
96,0,131233,5,10,0:0:0:0:
133,27,131392,1,10,0:0:0:0:
158,96,131552,1,10,0:1:0:0:
0,199,131712,1,8,0:0:0:0:
25,129,131871,1,10,0:0:0:0:
85,257,132190,6,0,P|104:309|113:364,1,111.999996582031,12|8,0:1|0:1,0:0:0:0:
113,364,132668,1,8,0:1:0:0:
5,335,132828,1,8,0:0:0:0:
168,188,133147,1,10,0:1:0:0:
246,352,133466,2,0,P|219:351|193:339,1,55.9999982910157,2|2,0:0|0:0,0:0:0:0:
279,237,133785,2,0,P|265:261|243:278,1,55.9999982910157,2|2,0:0|0:0,0:0:0:0:
410,299,134104,6,0,B|464:293|479:334|533:344,1,111.999996582031,10|8,0:1|0:1,0:0:0:0:
512,338,134583,1,8,0:1:0:0:
375,384,134743,1,8,0:0:0:0:
480,192,135062,1,10,0:1:0:0:
338,49,135381,2,0,P|340:79|370:112,2,55.9999982910157,2|2|8,0:0|0:0|0:1,0:0:0:0:
512,45,136019,6,0,P|509:12|440:12,1,111.999996582031,8|8,0:1|0:1,0:0:0:0:
443,7,136498,1,8,0:1:0:0:
354,100,136658,1,8,0:0:0:0:
141,12,136977,1,10,0:1:0:0:
298,30,137296,2,0,P|329:38|358:55,1,55.9999982910157,2|2,0:0|0:0,0:0:0:0:
262,144,137615,2,0,P|284:119|312:102,1,55.9999982910157,2|2,0:0|0:0,0:0:0:0:
155,0,137934,6,0,B|146:52|193:72|198:114,1,111.999996582031,10|8,0:1|0:1,0:0:0:0:
195,101,138413,1,8,0:1:0:0:
96,192,138572,1,8,0:0:0:0:
25,51,138892,1,10,0:1:0:0:
192,192,139211,2,0,P|180:224|179:265,1,55.9999982910157,2|2,0:0|0:0,0:0:0:0:
82,182,139530,1,10,0:1:0:0:
190,348,139849,6,0,P|243:340|278:296,1,111.999996582031,8|8,0:1|0:1,0:0:0:0:
277,296,140328,1,8,0:1:0:0:
384,384,140487,1,8,0:0:0:0:
512,208,140807,1,10,0:1:0:0:
468,372,141126,2,0,P|458:345|431:314,1,55.9999982910157,2|2,0:0|0:0,0:0:0:0:
512,208,141445,2,0,P|495:230|485:256,1,55.9999982910157,2|2,0:0|0:0,0:0:0:0:
321,251,141764,6,0,P|347:182|395:195,1,111.999996582031,10|8,0:1|0:1,0:0:0:0:
373,181,142243,1,8,0:1:0:0:
263,137,142402,1,8,0:0:0:0:
480,0,142721,1,10,0:1:0:0:
369,104,143041,2,0,P|398:97|427:84,1,55.9999982910157,2|2,0:0|0:0,0:0:0:0:
309,16,143360,2,0,P|281:10|256:0,1,55.9999982910157,10|2,0:1|0:0,0:0:0:0:
49,22,143679,5,10,0:1:0:0:
99,79,143838,1,0,0:0:0:0:
25,108,143998,5,10,0:1:0:0:
116,81,144158,1,8,0:1:0:0:
64,183,144317,5,10,0:0:0:0:
128,73,144477,1,0,0:0:0:0:
58,202,144636,6,0,P|67:256|111:298,1,111.999996582031,10|2,0:1|0:0,0:0:0:0:
455,383,145275,2,0,P|490:375|526:354,1,55.9999982910157,10|2,0:1|0:0,0:0:0:0:
384,288,145594,6,0,P|341:298|356:352,1,111.999996582031,10|8,0:1|0:1,0:0:0:0:
355,351,146072,1,8,0:1:0:0:
512,163,146232,1,6,0:0:0:0:
512,163,146551,5,0,3:0:0:0:
383,188,146711,1,0,3:0:0:0:
262,161,146870,1,2,3:2:0:0:
197,117,147030,1,2,3:2:0:0:
181,88,147190,1,2,3:2:0:0:
193,73,147349,1,2,3:2:0:0:
391,0,147509,6,0,B|345:9|333:60|256:69,1,128,6|0,3:2|0:0,0:0:0:0:
432,141,147987,1,10,0:1:0:0:
432,141,148147,2,0,P|426:100|405:83,1,64,8|0,0:0|0:0,0:0:0:0:
309,169,148466,2,0,P|289:192|288:224,1,64,8|0,0:1|0:0,0:0:0:0:
458,340,148785,2,0,P|476:322|517:309,1,64,2|2,0:0|0:0,0:0:0:0:
395,299,149104,1,10,0:0:0:0:
395,299,149264,1,2,0:0:0:0:
256,384,149424,6,0,P|210:344|226:285,1,128,10|0,0:1|0:0,0:0:0:0:
288,160,149902,1,10,0:1:0:0:
288,160,150062,2,0,P|282:132|256:85,1,64,8|8,0:0|0:1,0:0:0:0:
96,0,150381,2,0,P|86:58|140:84,1,128,8|10,0:1|0:1,0:0:0:0:
140,84,150860,1,2,0:0:0:0:
277,23,151019,2,0,P|303:5|335:1,1,64,10|2,0:0|0:0,0:0:0:0:
212,187,151338,6,0,B|201:133|155:135|134:68,1,128,14|0,0:1|0:0,0:0:0:0:
64,224,151817,1,8,0:1:0:0:
64,224,151977,2,0,P|46:251|36:289,1,64,8|0,0:0|0:0,0:0:0:0:
192,352,152296,2,0,P|182:321|165:294,1,64,8|0,0:1|0:0,0:0:0:0:
53,146,152615,2,0,P|17:151|-4:185,1,64,2|2,0:0|0:0,0:0:0:0:
126,112,152934,1,10,0:0:0:0:
126,112,153094,1,10,0:1:0:0:
231,253,153253,6,0,B|263:284|309:277|309:277|324:258|352:248,1,128,10|0,0:1|0:0,0:0:0:0:
463,345,153732,1,8,0:1:0:0:
463,345,153892,2,0,P|436:334|380:325,1,64,8|8,0:0|0:1,0:0:0:0:
186,370,154211,1,0,3:2:0:0:
64,167,154530,5,2,3:2:0:0:
180,234,154690,1,2,0:0:0:0:
256,160,154849,1,10,0:0:0:0:
256,160,155168,6,0,B|189:146|189:146|188:143|188:143|111:126,1,128,12|0,0:1|0:0,0:0:0:0:
0,33,155647,1,8,0:1:0:0:
0,33,155807,2,0,P|10:8|58:7,1,64,8|8,0:0|0:1,0:0:0:0:
132,130,156126,2,0,P|101:124|87:96,1,64,8|0,0:1|0:0,0:0:0:0:
283,26,156445,2,0,P|270:53|264:87,1,64,2|2,0:0|0:0,0:0:0:0:
209,0,156764,1,10,0:1:0:0:
209,0,156924,1,10,0:1:0:0:
347,133,157083,6,0,B|406:137|407:176|483:181,1,128,6|0,3:2|0:0,0:0:0:0:
504,35,157562,1,10,0:1:0:0:
504,35,157721,2,0,P|483:71|468:114,1,64,8|8,0:0|0:1,0:0:0:0:
353,216,158041,6,0,P|380:272|398:335,1,128,0|2,3:2|0:0,0:0:0:0:
398,334,158519,1,2,0:0:0:0:
224,224,158679,2,0,P|241:195|280:177,1,64,2|2,3:2|0:0,0:0:0:0:
384,64,158998,2,0,P|372:7|315:17,1,128,2|0,3:2|0:0,0:0:0:0:
439,123,159477,1,10,0:0:0:0:
439,123,159796,1,2,0:0:0:0:
256,64,159955,2,0,B|207:73|188:108|134:115,1,128,10|2,0:1|0:0,0:0:0:0:
32,0,160434,1,10,0:0:0:0:
32,0,160594,2,0,P|77:7|86:47,1,64,10|2,0:1|0:0,0:0:0:0:
245,159,160913,6,0,B|171:241|73:200|73:200|48:153|-25:130,1,287.999991210938,6|8,3:2|0:0,0:0:0:0:
0,139,161551,1,8,0:0:0:0:
79,229,161711,1,8,0:1:0:0:
0,384,161870,1,0,3:2:0:0:
224,288,162205,1,2,0:0:0:0:
0,253,162531,1,0,3:2:0:0:
206,375,162898,6,0,P|256:367|305:316,1,103.999995239258,6|0,3:2|0:0,0:0:0:0:
425,253,163246,1,0,3:0:0:0:
385,357,163429,1,8,0:0:0:0:
217,275,163619,1,0,3:2:0:0:
217,275,164029,6,0,P|172:265|140:247,1,80,2|0,3:2|0:0,0:0:0:0:
108,162,164452,6,0,P|79:176|47:183,1,47.9999985351563,2|0,3:2|0:0,0:0:0:0:
44,258,164957,6,0,P|21:250|0:239,1,47.9999985351563,2|0,3:2|0:0,0:0:0:0:
0,240,165575,6,0,P|23:231|40:217,1,40,8|0,0:0|0:0,0:0:0:0:
142,248,165734,6,0,P|158:259|177:265,1,40,8|0,0:0|0:0,0:0:0:0:
46,139,165894,6,0,P|62:150|81:156,1,40,8|0,0:0|0:0,0:0:0:0:
94,351,166053,6,0,P|112:344|129:333,1,40,8|0,0:0|0:0,0:0:0:0:
391,351,166213,6,0,B|349:401|275:366|275:366|252:332|200:324,1,191.999994140625,6|8,3:2|0:1,0:0:0:0:
69,279,166691,1,8,0:0:0:0:
256,192,166851,2,0,P|303:180|340:151,1,88.000002685547,2|8,0:0|0:0,0:0:0:0:
184,5,167170,2,0,P|123:-3|119:57,1,132.00000402832,8|0,0:1|0:0,0:0:0:0:
132,70,167489,2,0,P|167:95|210:104,1,88.000002685547,10|2,0:0|0:0,0:0:0:0:
423,0,167808,1,10,0:0:0:0:
256,37,167968,1,10,0:0:0:0:
506,102,168127,6,0,B|505:192|437:192|407:277,1,176.000005371094,2|8,3:2|0:1,0:0:0:0:
201,325,168606,1,8,0:1:0:0:
242,262,168766,2,0,P|284:268|317:297,1,88.000002685547,10|0,0:0|0:0,0:0:0:0:
488,339,169085,1,10,0:1:0:0:
422,377,169244,1,2,0:0:0:0:
503,354,169404,2,0,P|462:336|420:324,1,88.000002685547,10|2,0:0|0:0,0:0:0:0:
242,262,169723,2,0,P|258:215|312:206,1,88.000002685547,2|2,3:2|0:0,0:0:0:0:
512,32,170042,6,0,B|462:-5|409:36|409:36|391:72|356:78,1,176.000005371094,6|8,3:2|0:1,0:0:0:0:
224,128,170521,1,8,0:0:0:0:
442,172,170681,2,0,P|473:111|456:86,1,88.000002685547,10|0,0:0|0:0,0:0:0:0:
288,0,171000,1,8,0:1:0:0:
64,128,171159,5,8,0:0:0:0:
64,128,171239,1,8,0:0:0:0:
64,128,171319,2,0,P|106:117|157:92,1,88.000002685547,8|8,0:1|0:1,0:0:0:0:
0,0,171638,2,0,P|39:18|82:29,1,88.000002685547,2|2,3:2|0:0,0:0:0:0:
286,83,171957,6,0,B|277:181|204:149|193:255,1,176.000005371094,6|8,3:2|0:1,0:0:0:0:
0,338,172436,1,8,0:0:0:0:
66,384,172595,2,0,P|50:344|38:302,1,88.000002685547,6|0,0:0|0:0,0:0:0:0:
0,148,172915,5,10,0:1:0:0:
25,124,173074,1,2,0:0:0:0:
64,128,173234,1,14,0:1:0:0:
155,216,173393,1,10,0:0:0:0:
316,190,173553,1,10,0:1:0:0:
483,29,173713,5,10,0:0:0:0:
483,29,173792,1,10,0:0:0:0:
483,29,173872,2,0,B|447:8|401:43|401:43|385:73|348:86,1,132.00000402832,6|0,3:2|0:0,0:0:0:0:
367,100,174191,2,0,P|326:85|286:65,1,88.000002685547,8|8,0:1|0:1,0:0:0:0:
432,287,174510,2,0,P|473:272|512:252,1,88.000002685547,10|0,0:0|0:0,0:0:0:0:
333,384,174830,1,8,0:1:0:0:
512,128,175149,6,0,P|441:141|446:197,1,132.00000402832,8|0,0:0|0:0,0:0:0:0:
459,202,175468,1,10,0:0:0:0:
381,88,175627,1,10,0:0:0:0:
192,256,175787,6,0,B|150:262|124:298|124:298|59:301|39:252,1,176.000005371094,12|8,0:1|0:1,0:0:0:0:
14,384,176266,1,8,0:0:0:0:
253,323,176425,2,0,P|287:282|274:240,1,88.000002685547,10|0,0:0|0:0,0:0:0:0:
78,112,176744,2,0,P|76:154|107:183,1,88.000002685547,10|2,0:1|0:0,0:0:0:0:
224,32,177064,5,10,0:0:0:0:
203,47,177223,1,8,0:0:0:0:
136,8,177383,1,10,3:2:0:0:
20,63,177542,1,2,0:0:0:0:
236,11,177702,6,0,B|302:12|313:55|365:68,1,132.00000402832,6|0,3:2|0:0,0:0:0:0:
363,79,178021,2,0,B|405:68|445:47,1,88.000002685547,2|8,0:0|0:1,0:0:0:0:
192,136,178340,2,0,B|232:157|274:168,1,88.000002685547,10|2,0:0|0:0,0:0:0:0:
498,183,178659,5,8,0:1:0:0:
291,242,178819,1,8,0:0:0:0:
474,353,178978,2,0,P|485:310|513:277,1,88.000002685547,12|8,0:0|0:1,0:0:0:0:
350,90,179298,2,0,P|377:123|388:166,1,88.000002685547,8|10,0:0|0:0,0:0:0:0:
256,352,179617,6,0,B|229:384|156:367|156:367|147:338|95:324,1,176.000005371094,6|8,3:2|0:1,0:0:0:0:
18,384,180095,1,8,0:0:0:0:
224,256,180255,1,2,0:0:0:0:
224,256,180574,5,2,3:2:0:0:
23,186,180734,1,2,3:2:0:0:
85,17,180893,1,2,3:2:0:0:
301,73,181053,1,0,3:0:0:0:
262,134,181213,1,0,3:0:0:0:
223,137,181372,1,0,3:0:0:0:
416,70,181532,6,0,B|476:-56|600:47|472:84|491:34,1,191.999994140625,6|8,3:2|0:1,0:0:0:0:
410,0,182010,1,8,0:0:0:0:
296,120,182170,2,0,P|326:150|341:192,1,88.000002685547
485,380,182489,2,0,P|504:342|422:316,1,132.00000402832,8|0,0:1|0:0,0:0:0:0:
423,308,182808,2,0,P|379:320|337:338,1,88.000002685547,8|0,0:0|0:0,0:0:0:0:
124,368,183127,1,8,0:0:0:0:
260,192,183287,1,8,0:0:0:0:
70,305,183446,6,0,B|157:318|149:368|239:384,1,176.000005371094,8|8,0:1|0:1,0:0:0:0:
263,317,183925,1,8,0:0:0:0:
81,208,184085,2,0,P|41:227|0:241,1,88.000002685547,2|0,0:0|0:0,0:0:0:0:
192,96,184404,2,0,P|231:115|273:129,1,88.000002685547,2|0,0:0|0:0,0:0:0:0:
55,6,184723,5,10,0:0:0:0:
47,28,184883,1,10,0:0:0:0:
60,109,185042,1,2,3:2:0:0:
169,174,185202,1,2,0:0:0:0:
317,0,185361,6,0,B|360:55|325:115|325:115|288:127|277:157,1,176.000005371094,6|8,3:2|0:1,0:0:0:0:
202,82,185840,1,8,0:0:0:0:
301,263,186000,2,0,P|318:303|330:346,1,88.000002685547,10|0,0:0|0:0,0:0:0:0:
443,158,186319,2,0,P|460:90|489:26,1,132.00000402832,10|0,0:1|0:0,0:0:0:0:
479,2,186638,2,0,P|420:7|399:44,1,88.000002685547,8|0,0:0|0:0,0:0:0:0:
294,185,186957,2,0,P|251:188|219:160,1,88.000002685547,10|2,0:1|0:0,0:0:0:0:
0,23,187276,6,0,B|85:22|93:90|179:104,1,176.000005371094,10|8,0:1|0:1,0:0:0:0:
367,156,187755,1,8,0:0:0:0:
442,185,187915,2,0,P|400:198|364:224,1,88.000002685547,2|0,0:0|0:0,0:0:0:0:
207,384,188234,5,10,0:1:0:0:
247,358,188393,1,2,0:0:0:0:
147,133,188553,1,14,0:0:0:0:
244,173,188713,1,10,0:0:0:0:
164,365,188872,1,2,3:2:0:0:
0,384,189032,5,8,0:0:0:0:
0,384,189111,1,8,0:0:0:0:
0,384,189191,2,0,P|-5:342|74:332,1,132.00000402832,6|0,3:2|0:0,0:0:0:0:
83,336,189510,2,0,P|121:357|164:365,1,88.000002685547,2|8,0:0|0:1,0:0:0:0:
416,224,189830,2,0,P|433:194|402:157,1,88.000002685547,8|2,0:0|0:0,0:0:0:0:
317,336,190149,1,8,0:1:0:0:
160,0,190468,6,0,B|175:30|154:70|154:70|119:88|114:126,1,132.00000402832,8|0,0:0|0:0,0:0:0:0:
129,138,190787,1,8,0:0:0:0:
0,0,190946,1,8,0:0:0:0:
256,96,191106,6,0,P|333:55|420:41,1,176.000005371094,12|8,0:1|0:1,0:0:0:0:
243,0,191585,1,8,0:0:0:0:
474,105,191744,2,0,P|509:70|502:22,1,88.000002685547,2|0,0:0|0:0,0:0:0:0:
294,172,192064,2,0,P|296:215|329:244,1,88.000002685547,8|0,0:1|0:0,0:0:0:0:
512,301,192383,5,10,0:0:0:0:
474,343,192542,1,2,0:0:0:0:
420,359,192702,1,2,3:2:0:0:
256,287,192861,1,2,0:0:0:0:
0,224,193021,6,0,B|15:308|88:291|110:376,1,176.000005371094,6|8,3:2|0:1,0:0:0:0:
0,384,193500,1,8,0:0:0:0:
160,224,193659,2,0,P|176:183|187:140,1,88.000002685547,2|0,0:0|0:0,0:0:0:0:
0,0,193978,2,0,P|11:42|27:83,1,88.000002685547,12|0,0:1|0:0,0:0:0:0:
273,161,194298,2,0,P|216:100|184:153,1,132.00000402832,8|0,0:0|0:0,0:0:0:0:
187,140,194617,1,8,0:0:0:0:
0,243,194776,1,8,0:0:0:0:
246,309,194936,6,0,B|292:262|349:289|349:289|373:331|424:333,1,176.000005371094,12|8,0:1|0:1,0:0:0:0:
290,384,195414,1,8,0:0:0:0:
440,213,195574,2,0,P|463:148|480:88,1,132.00000402832,2|0,0:0|0:0,0:0:0:0:
469,66,195893,2,0,P|425:58|401:107,1,88.000002685547,8|0,0:1|0:0,0:0:0:0:
247,223,196212,5,8,0:0:0:0:
118,161,196372,1,8,0:0:0:0:
314,0,196532,1,0,3:2:0:0:
260,118,196691,1,8,0:0:0:0:
53,0,196851,6,0,B|21:57|62:109|62:109|100:123|108:167,1,176.000005371094,6|8,3:2|0:1,0:0:0:0:
65,294,197330,1,8,0:0:0:0:
302,367,197489,2,0,P|260:367|232:333,1,88.000002685547,2|0,0:0|0:0,0:0:0:0:
0,254,197808,2,0,P|26:220|69:220,1,88.000002685547,4|0,3:2|0:0,0:0:0:0:
238,76,198127,2,0,P|259:28|179:18,1,132.00000402832,10|0,0:0|0:0,0:0:0:0:
183,19,198447,1,8,0:0:0:0:
50,140,198606,1,8,0:0:0:0:
335,100,198766,6,0,B|404:96|440:164|527:164,1,176.000005371094,12|8,0:1|0:1,0:0:0:0:
253,334,199244,1,8,0:0:0:0:
311,379,199404,2,0,P|290:339|277:296,1,88.000002685547,2|0,0:0|0:0,0:0:0:0:
190,42,199723,5,0,3:0:0:0:
0,135,199883,1,0,3:0:0:0:
116,325,200042,1,2,3:2:0:0:
294,221,200202,1,0,3:0:0:0:
252,198,200361,1,2,3:2:0:0:
223,215,200521,1,2,3:2:0:0:
405,315,200681,5,6,3:2:0:0:
405,315,201000,2,0,P|443:302|488:293,1,71.9999978027344,8|8,0:1|0:0,0:0:0:0:
287,383,201319,1,2,0:0:0:0:
428,228,201638,1,2,0:0:0:0:
428,228,201957,5,2,3:2:0:0:
439,200,202064,6,0,P|433:175|415:160,1,47.9999985351563,0|0,3:2|3:2,0:0:0:0:
274,74,202276,5,2,3:2:0:0:
263,102,202383,6,0,P|268:126|286:141,1,47.9999985351563,0|0,3:2|3:2,0:0:0:0:
448,0,202595,5,6,3:2:0:0:
448,0,202915,1,8,0:1:0:0:
360,130,203074,1,8,0:1:0:0:
160,32,203234,1,10,0:1:0:0:
224,256,203553,5,12,0:0:0:0:
288,32,203713,1,8,0:1:0:0:
264,46,204032,1,12,0:1:0:0:
242,68,204351,1,8,0:1:0:0:
82,182,204510,6,0,B|87:225|132:247|135:318,1,120,14|0,0:1|0:0,0:0:0:0:
121,309,204830,2,0,P|108:346|96:385,1,80,10|0,0:1|0:0,0:0:0:0:
288,256,205149,2,0,P|256:217|217:226,1,80,8|0,0:0|0:0,0:0:0:0:
348,329,205468,2,0,P|386:325|406:292,1,80,8|8,0:1|0:0,0:0:0:0:
507,166,205787,5,8,0:1:0:0:
487,196,205947,1,8,0:0:0:0:
427,209,206106,1,8,0:0:0:0:
369,167,206266,1,8,0:0:0:0:
256,64,206425,6,0,P|208:85|131:106,1,120,14|0,0:1|0:0,0:0:0:0:
113,110,206744,2,0,P|110:146|166:166,1,80,10|0,0:1|0:0,0:0:0:0:
51,0,207064,1,8,0:0:0:0:
267,54,207383,2,0,P|302:70|341:75,1,80,8|8,0:1|0:1,0:0:0:0:
489,0,207702,5,8,0:0:0:0:
512,33,207861,1,8,0:0:0:0:
502,91,208021,1,8,0:1:0:0:
432,127,208181,1,10,0:0:0:0:
288,224,208340,6,0,B|294:286|348:282|365:346,1,120,12|0,0:1|0:0,0:0:0:0:
372,346,208659,2,0,P|390:299|420:247,1,80,10|0,0:1|0:0,0:0:0:0:
256,384,208978,2,0,P|238:337|208:285,1,80,8|0,0:0|0:0,0:0:0:0:
64,222,209298,2,0,P|29:229|-3:269,1,80,8|8,0:1|0:1,0:0:0:0:
134,384,209617,5,8,0:0:0:0:
163,346,209776,1,8,0:0:0:0:
171,297,209936,1,8,0:1:0:0:
142,229,210095,1,8,0:0:0:0:
0,96,210255,6,0,B|45:51|97:76|97:76|116:115|149:110,1,160,14|8,0:1|0:1,0:0:0:0:
208,90,210734,1,0,0:0:0:0:
416,32,210893,2,0,P|384:-4|345:7,1,80,2|0,3:2|0:0,0:0:0:0:
216,103,211213,5,10,0:1:0:0:
223,119,211372,1,0,3:2:0:0:
326,223,211532,1,2,3:2:0:0:
460,158,211691,1,0,3:2:0:0:
319,120,211851,1,2,3:2:0:0:
211,292,212010,1,10,0:1:0:0:
365,316,212170,6,0,B|316:316|301:367|234:372,1,120,6|0,3:2|0:0,0:0:0:0:
235,380,212489,2,0,P|191:367|157:358,1,80,10|0,0:1|0:0,0:0:0:0:
0,256,212808,2,0,P|16:209|50:190,1,80,8|0,0:0|0:0,0:0:0:0:
177,19,213127,1,8,0:0:0:0:
52,97,213287,1,8,0:0:0:0:
225,105,213447,2,0,P|263:115|302:123,1,80,8|8,0:1|0:0,0:0:0:0:
448,0,213766,2,0,P|409:10|370:19,1,80,8|8,0:0|0:1,0:0:0:0:
208,120,214085,6,0,P|203:176|269:208,1,120,14|0,0:1|0:0,0:0:0:0:
272,205,214404,1,10,0:1:0:0:
418,249,214564,1,0,0:0:0:0:
288,384,214723,2,0,P|302:346|325:313,1,80,10|0,0:0|0:0,0:0:0:0:
480,192,215042,5,10,0:1:0:0:
492,170,215202,1,10,0:1:0:0:
488,140,215361,1,10,0:0:0:0:
452,77,215521,1,2,0:0:0:0:
387,35,215681,1,2,3:2:0:0:
309,26,215840,1,2,0:0:0:0:
128,128,216000,6,0,B|109:63|42:58|29:-24,1,160,6|10,3:2|0:1,0:0:0:0:
158,29,216478,1,0,0:0:0:0:
22,171,216638,2,0,P|16:209|-22:265,1,80,8|0,0:0|0:0,0:0:0:0:
162,384,216957,2,0,P|206:366|173:298,1,120,8|0,0:1|0:0,0:0:0:0:
180,294,217276,2,0,P|144:310|105:322,1,80,10|0,0:0|0:0,0:0:0:0:
256,192,217595,2,0,P|292:208|330:220,1,80,10|10,0:0|0:0,0:0:0:0:
512,353,217915,6,0,B|491:306|429:314|429:314|404:349|361:342,1,160,14|8,0:1|0:1,0:0:0:0:
259,384,218393,1,0,0:0:0:0:
66,292,218553,2,0,P|74:246|112:234,1,80,10|0,0:0|0:0,0:0:0:0:
292,126,218872,1,8,0:1:0:0:
244,208,219032,1,8,0:0:0:0:
138,70,219191,2,0,P|121:28|90:-14,1,80,10|8,0:1|0:1,0:0:0:0:
20,188,219510,1,14,0:0:0:0:
136,88,219670,1,0,0:0:0:0:
312,27,219830,6,0,B|374:29|382:69|437:81,1,120,14|0,0:0|0:0,0:0:0:0:
437,83,220149,2,0,P|474:68|512:58,1,80,8|8,0:1|0:1,0:0:0:0:
349,282,220468,5,10,0:0:0:0:
234,123,220627,1,10,0:0:0:0:
374,161,220787,1,10,0:1:0:0:
213,337,220947,1,10,0:1:0:0:
31,149,221106,1,10,0:0:0:0:
207,248,221266,1,10,0:0:0:0:
96,32,221425,1,2,3:2:0:0:
76,17,221505,1,2,0:0:0:0:
53,12,221585,1,2,0:0:0:0:
28,19,221665,1,2,0:0:0:0:
9,39,221744,6,0,B|18:121|87:118|97:214,1,176.000005371094,14|8,3:2|0:1,0:0:0:0:
43,302,222223,1,0,0:0:0:0:
245,381,222383,2,0,P|247:340|211:297,1,88.000002685547,8|0,0:1|0:0,0:0:0:0:
78,384,222702,1,10,0:0:0:0:
235,220,222861,1,2,0:0:0:0:
235,220,222941,1,2,0:0:0:0:
235,220,223021,2,0,P|316:245|430:273,1,176.000005371094,10|0,0:1|0:0,0:0:0:0:
465,219,223500,1,2,0:0:0:0:
320,64,223659,6,0,B|254:71|249:142|147:154,1,176.000005371094,2|8,3:2|0:1,0:0:0:0:
31,1,224138,1,8,0:1:0:0:
170,67,224298,1,0,3:2:0:0:
71,154,224457,1,0,0:0:0:0:
153,320,224617,2,0,P|223:272|195:240,1,132.00000402832,8|0,0:0|0:0,0:0:0:0:
201,229,224936,2,0,P|177:191|169:148,1,88.000002685547,8|0,0:1|0:0,0:0:0:0:
31,1,225255,2,0,P|22:43|0:81,1,88.000002685547,8|0,0:1|0:0,0:0:0:0:
254,162,225574,6,0,B|294:220|360:201|360:201|382:167|413:166,1,176.000005371094,2|8,3:2|0:0,0:0:0:0:
484,272,226053,1,8,0:0:0:0:
320,352,226213,2,0,P|275:374|200:384,1,88.000002685547,2|0,3:2|0:0,0:0:0:0:
64,320,226532,1,8,0:0:0:0:
253,166,226691,5,2,0:0:0:0:
253,166,226771,1,2,0:0:0:0:
253,166,226851,2,0,P|245:219|196:237,1,88.000002685547,10|0,0:1|0:0,0:0:0:0:
0,107,227170,2,0,P|7:53|56:35,1,88.000002685547,2|0,3:2|0:0,0:0:0:0:
305,40,227489,6,0,B|230:41|226:114|133:125,1,176.000005371094,14|8,0:0|0:0,0:0:0:0:
75,139,227968,1,8,0:1:0:0:
226,234,228127,2,0,P|255:209|249:163,1,88.000002685547,2|0,3:2|0:0,0:0:0:0:
446,71,228447,2,0,P|403:118|378:187,1,132.00000402832,10|0,0:0|0:0,0:0:0:0:
348,210,228766,6,0,P|374:256|376:309,1,88.000002685547,10|2,0:1|0:0,0:0:0:0:
142,384,229085,1,2,3:2:0:0:
118,371,229165,1,2,0:0:0:0:
103,349,229244,1,2,0:0:0:0:
106,322,229324,1,2,0:0:0:0:
125,300,229404,6,0,B|176:269|224:309|224:309|238:349|290:360,1,191.999994140625,14|0,0:0|0:0,0:0:0:0:
376,384,229883,1,0,0:0:0:0:
510,214,230042,2,0,P|468:238|424:256,1,95.9999970703126,0|0,3:2|0:0,0:0:0:0:
512,331,230361,1,10,0:0:0:0:
326,205,230521,1,2,0:0:0:0:
326,205,230601,1,2,0:0:0:0:
326,205,230681,2,0,P|304:117|407:96,1,191.999994140625,10|8,0:1|0:1,0:0:0:0:
402,158,231159,1,10,0:0:0:0:
256,0,231319,6,0,B|173:3|171:71|63:85,1,191.999994140625,2|8,3:2|0:1,0:0:0:0:
0,246,231798,1,8,0:0:0:0:
157,160,231957,1,8,0:1:0:0:
0,103,232117,1,0,0:0:0:0:
104,293,232276,2,0,P|120:333|133:410,1,95.9999970703126,8|0,0:0|0:0,0:0:0:0:
291,267,232595,2,0,P|299:196|211:196,1,143.999995605469,0|0,3:2|0:0,0:0:0:0:
230,195,232915,2,0,P|275:210|328:229,1,95.9999970703126,0|0,3:2|0:0,0:0:0:0:
512,23,233234,6,0,B|451:-17|392:32|392:32|378:62|334:86,1,191.999994140625,14|8,0:0|0:1,0:0:0:0:
256,0,233713,1,8,0:0:0:0:
423,125,233872,2,0,P|478:150|523:160,1,95.9999970703126,8|0,0:1|0:0,0:0:0:0:
246,204,234191,1,8,0:0:0:0:
485,299,234351,5,2,0:0:0:0:
485,299,234431,1,2,0:0:0:0:
485,299,234510,2,0,P|483:247|423:221,1,95.9999970703126,10|0,0:0|0:0,0:0:0:0:
256,96,234830,2,0,P|220:126|221:173,1,95.9999970703126,2|0,3:2|0:0,0:0:0:0:
287,384,235149,6,0,B|289:306|371:304|379:200,1,191.999994140625,6|8,3:2|0:0,0:0:0:0:
276,100,235627,1,8,3:2:0:0:
480,0,235787,2,0,P|483:54|425:73,1,95.9999970703126,2|0,3:2|0:0,0:0:0:0:
192,0,236106,2,0,P|122:19|59:52,1,143.999995605469,10|0,0:0|0:0,0:0:0:0:
30,49,236425,5,8,0:1:0:0:
134,115,236585,1,0,0:0:0:0:
32,341,236744,1,14,0:0:0:0:
11,320,236824,1,2,0:0:0:0:
0,293,236904,1,2,0:0:0:0:
3,264,236984,1,2,0:0:0:0:
22,242,237064,6,0,B|119:236|119:308|200:324,1,191.999994140625,14|8,0:0|0:1,0:0:0:0:
318,384,237542,1,8,0:0:0:0:
457,240,237702,2,0,P|471:293|415:311,1,95.9999970703126,8|0,0:1|0:0,0:0:0:0:
288,148,238021,2,0,P|305:92|354:-1,1,143.999995605469,8|0,0:0|0:0,0:0:0:0:
361,0,238340,5,8,0:1:0:0:
457,98,238500,1,0,0:0:0:0:
228,205,238659,1,10,0:0:0:0:
250,222,238739,1,2,0:0:0:0:
277,231,238819,1,2,0:0:0:0:
305,231,238899,1,2,0:0:0:0:
332,222,238978,6,0,B|393:270|375:333|375:333|337:353|338:406,1,191.999994140625,2|8,3:2|0:1,0:0:0:0:
197,278,239457,1,8,0:0:0:0:
288,96,239617,2,0,P|305:41|327:-5,1,95.9999970703126,8|0,0:1|0:0,0:0:0:0:
45,73,239936,2,0,P|56:112|147:123,1,143.999995605469,12|0,0:0|0:0,0:0:0:0:
163,109,240255,5,8,0:1:0:0:
0,195,240415,1,0,0:0:0:0:
206,357,240574,1,2,3:2:0:0:
226,337,240654,1,2,0:0:0:0:
234,309,240734,1,2,0:0:0:0:
234,280,240814,1,2,0:0:0:0:
215,258,240893,6,0,B|136:262|160:308|79:323,1,143.999995605469,14|0,0:0|0:0,0:0:0:0:
60,345,241213,1,8,0:1:0:0:
114,209,241372,1,8,0:0:0:0:
17,42,241532,2,0,P|8:88|53:130,1,95.9999970703126,2|0,3:2|0:0,0:0:0:0:
256,0,241851,6,0,B|302:42|268:113|268:113|230:134|216:174,1,191.999994140625,14|8,0:0|0:1,0:0:0:0:
173,92,242330,1,0,0:0:0:0:
423,157,242489,2,0,P|480:140|535:111,1,95.9999970703126,2|0,3:2|0:0,0:0:0:0:
236,280,242808,5,6,3:2:0:0:
236,280,243127,1,8,0:1:0:0:
370,230,243287,1,8,0:0:0:0:
232,384,243447,1,10,3:2:0:0:
58,296,243606,1,10,0:0:0:0:
364,360,243766,1,14,0:0:0:0:
256,192,243845,12,0,245681,0:0:0:0:
30,40,246000,6,0,P|39:57|50:74,1,40,10|0,0:0|0:0,0:0:0:0:
166,126,246159,6,0,P|154:142|145:160,1,40,10|0,0:0|0:0,0:0:0:0:
53,326,246319,5,10,0:0:0:0:
20,312,246398,1,2,0:0:0:0:
0,281,246478,1,10,0:0:0:0:
2,244,246558,1,2,0:0:0:0:
28,217,246638,6,0,B|132:226|92:298|204:314,1,191.999994140625,6|8,3:2|0:1,0:0:0:0:
286,229,247116,1,8,0:0:0:0:
512,288,247276,2,0,P|469:299|430:320,1,88.000002685547,2|8,0:0|0:0,0:0:0:0:
271,124,247595,2,0,P|232:137|252:214,1,132.00000402832,8|0,0:1|0:0,0:0:0:0:
268,221,247914,2,0,P|306:200|349:189,1,88.000002685547,10|2,0:0|0:0,0:0:0:0:
464,130,248233,1,10,0:0:0:0:
268,0,248393,1,10,0:0:0:0:
512,66,248552,6,0,B|467:35|409:69|409:69|389:104|353:114,1,176.000005371094,2|8,3:2|0:1,0:0:0:0:
186,9,249031,1,8,0:1:0:0:
122,51,249191,2,0,P|139:81|200:82,1,88.000002685547,10|0,0:0|0:0,0:0:0:0:
336,227,249510,1,10,0:1:0:0:
404,186,249669,1,2,0:0:0:0:
321,243,249829,2,0,P|278:230|238:214,1,88.000002685547,10|2,0:0|0:0,0:0:0:0:
41,137,250148,2,0,P|6:155|0:208,1,88.000002685547,2|2,3:2|0:0,0:0:0:0:
192,384,250467,6,0,B|185:283|120:327|98:225,1,176.000005371094,6|8,3:2|0:1,0:0:0:0:
54,384,250946,1,8,0:0:0:0:
186,227,251106,2,0,P|199:180|222:140,1,88.000002685547,10|0,0:0|0:0,0:0:0:0:
64,32,251425,1,8,0:1:0:0:
256,0,251584,5,8,0:0:0:0:
256,0,251664,1,8,0:0:0:0:
256,0,251744,2,0,P|256:46|204:70,1,88.000002685547,8|8,0:1|0:1,0:0:0:0:
17,110,252063,2,0,P|17:64|69:40,1,88.000002685547,2|2,3:2|0:0,0:0:0:0:
218,147,252382,6,0,B|263:191|314:175|314:175|342:134|395:141,1,176.000005371094,6|8,3:2|0:1,0:0:0:0:
441,340,252861,1,8,0:0:0:0:
512,317,253020,2,0,P|469:304|429:288,1,88.000002685547,10|0,0:1|0:0,0:0:0:0:
241,384,253340,5,10,0:1:0:0:
258,351,253499,1,2,0:0:0:0:
229,283,253659,1,14,0:1:0:0:
179,194,253818,1,10,0:0:0:0:
223,63,253978,1,10,0:1:0:0:
445,11,254138,5,10,0:0:0:0:
445,11,254217,1,10,0:0:0:0:
444,10,254297,2,0,B|372:3|391:65|302:68,1,132.00000402832,6|0,3:2|0:0,0:0:0:0:
309,85,254616,2,0,P|266:73|223:63,1,88.000002685547,8|8,0:1|0:1,0:0:0:0:
512,130,254935,2,0,P|469:140|426:151,1,88.000002685547,10|0,0:0|0:0,0:0:0:0:
281,0,255255,1,8,0:1:0:0:
306,266,255574,6,0,P|361:245|340:176,1,132.00000402832,8|0,0:0|0:0,0:0:0:0:
334,171,255893,1,10,0:0:0:0:
224,320,256052,1,10,0:0:0:0:
0,192,256212,6,0,B|44:146|99:177|99:177|108:221|155:231,1,176.000005371094,12|8,0:1|0:1,0:0:0:0:
33,291,256691,1,8,0:0:0:0:
176,155,256850,2,0,P|188:116|140:87,1,88.000002685547,10|0,0:0|0:0,0:0:0:0:
0,0,257169,2,0,P|-12:39|36:68,1,88.000002685547,10|2,0:1|0:0,0:0:0:0:
257,0,257489,5,10,0:0:0:0:
246,43,257648,1,8,0:0:0:0:
212,77,257808,1,10,3:2:0:0:
107,3,257967,1,2,0:0:0:0:
319,109,258127,6,0,P|387:105|426:53,1,132.00000402832,6|0,3:2|0:0,0:0:0:0:
438,37,258446,2,0,B|450:83|464:121,1,88.000002685547,2|8,0:0|0:1,0:0:0:0:
275,269,258765,2,0,B|288:230|301:184,1,88.000002685547,10|2,0:0|0:0,0:0:0:0:
416,384,259084,5,8,0:1:0:0:
503,224,259244,1,8,0:0:0:0:
287,350,259403,2,0,P|242:350|207:310,1,88.000002685547,12|8,0:0|0:1,0:0:0:0:
0,287,259723,2,0,P|32:259|75:260,1,88.000002685547,8|10,0:0|0:0,0:0:0:0:
226,139,260042,6,0,B|218:37|144:87|129:-16,1,176.000005371094,6|8,3:2|0:1,0:0:0:0:
37,123,260520,1,8,0:0:0:0:
44,148,260680,1,10,0:0:0:0:
59,167,260840,1,8,0:0:0:0:
228,228,260999,1,2,3:2:0:0:
402,174,261159,1,2,3:2:0:0:
442,48,261318,1,2,3:2:0:0:
305,0,261478,1,0,3:0:0:0:
289,51,261638,1,0,3:0:0:0:
308,83,261797,1,0,3:0:0:0:
512,191,261957,6,0,B|452:150|400:204|400:204|383:245|327:250,1,191.999994140625,6|8,3:2|0:1,0:0:0:0:
232,329,262435,1,8,0:0:0:0:
444,373,262595,2,0,P|472:317|443:283,1,88.000002685547,2|0,0:0|0:0,0:0:0:0:
216,321,262914,6,0,P|146:345|83:376,1,132.00000402832,8|0,0:1|0:0,0:0:0:0:
69,384,263233,2,0,P|40:339|65:313,1,88.000002685547,8|0,0:0|0:0,0:0:0:0:
192,128,263552,1,8,0:0:0:0:
0,261,263712,1,8,0:0:0:0:
0,0,263871,6,0,B|11:95|77:73|105:159,1,176.000005371094,12|8,0:1|0:1,0:0:0:0:
0,155,264350,1,8,0:0:0:0:
163,29,264510,2,0,P|213:15|266:-7,1,88.000002685547,2|0,0:0|0:0,0:0:0:0:
448,96,264829,2,0,P|397:82|344:59,1,88.000002685547,2|0,0:0|0:0,0:0:0:0:
152,51,265148,5,10,0:0:0:0:
138,67,265308,1,10,0:0:0:0:
120,160,265467,1,2,3:2:0:0:
210,266,265627,1,2,0:0:0:0:
419,331,265786,6,0,B|365:302|317:343|317:343|304:375|244:393,1,176.000005371094,6|8,3:2|0:1,0:0:0:0:
85,347,266265,1,8,0:0:0:0:
241,195,266425,2,0,P|246:151|201:115,1,88.000002685547,10|0,0:0|0:0,0:0:0:0:
0,291,266744,2,0,P|-7:228|56:178,1,132.00000402832,10|0,0:1|0:0,0:0:0:0:
56,190,267063,2,0,P|119:215|164:225,1,88.000002685547,8|0,0:0|0:0,0:0:0:0:
310,72,267382,2,0,P|269:89|227:102,1,88.000002685547,10|2,0:1|0:0,0:0:0:0:
472,237,267701,6,0,B|475:146|396:180|383:74,1,176.000005371094,10|8,0:1|0:1,0:0:0:0:
512,25,268180,1,8,0:0:0:0:
391,231,268340,2,0,P|368:262|350:338,1,88.000002685547,2|0,0:0|0:0,0:0:0:0:
195,384,268659,5,10,0:1:0:0:
174,342,268818,1,2,0:0:0:0:
381,211,268978,1,14,0:0:0:0:
333,324,269138,1,10,0:0:0:0:
251,71,269297,1,6,3:2:0:0:
512,46,269457,5,8,0:0:0:0:
512,46,269536,1,8,0:0:0:0:
512,46,269616,2,0,P|474:-18|428:12,1,132.00000402832,6|0,3:2|0:0,0:0:0:0:
415,15,269935,2,0,P|375:34|337:56,1,88.000002685547,2|8,0:0|0:1,0:0:0:0:
512,183,270255,2,0,P|474:160|434:141,1,88.000002685547,8|2,0:0|0:0,0:0:0:0:
283,0,270574,1,8,0:1:0:0:
0,160,270893,6,0,P|60:145|74:84,1,132.00000402832,8|0,0:0|0:0,0:0:0:0:
54,63,271212,1,8,0:0:0:0:
192,160,271371,1,8,0:0:0:0:
0,293,271531,6,0,B|48:242|102:276|102:276|120:318|174:320,1,176.000005371094,12|8,0:1|0:1,0:0:0:0:
13,378,272010,1,8,0:0:0:0:
205,238,272169,2,0,P|249:236|278:279,1,88.000002685547,10|8,0:0|0:0,0:0:0:0:
427,347,272489,2,0,P|398:378|355:375,1,88.000002685547,0|8,3:2|0:1,0:0:0:0:
273,159,272808,5,10,0:0:0:0:
294,134,272967,1,2,0:0:0:0:
239,50,273127,1,2,3:2:0:0:
107,10,273286,1,2,0:0:0:0:
0,201,273446,6,0,B|85:182|87:272|179:270,1,176.000005371094,6|8,3:2|0:1,0:0:0:0:
53,384,273925,1,8,0:0:0:0:
245,279,274084,2,0,P|234:233|196:188,1,88.000002685547,2|0,0:0|0:0,0:0:0:0:
0,118,274403,2,0,P|9:75|34:39,1,88.000002685547,12|0,0:1|0:0,0:0:0:0:
263,0,274723,2,0,P|276:29|185:43,1,132.00000402832,8|0,0:0|0:0,0:0:0:0:
184,58,275042,1,8,0:0:0:0:
67,269,275201,1,8,0:0:0:0:
292,142,275361,6,0,B|348:184|399:153|399:153|425:108|477:123,1,176.000005371094,12|8,0:1|0:1,0:0:0:0:
351,85,275839,1,8,0:0:0:0:
512,247,275999,2,0,P|476:314|420:307,1,132.00000402832,2|0,0:0|0:0,0:0:0:0:
409,302,276318,2,0,P|367:287|326:270,1,88.000002685547,8|0,0:1|0:0,0:0:0:0:
69,370,276637,5,8,0:0:0:0:
237,267,276797,1,8,0:0:0:0:
2,207,276957,1,0,3:2:0:0:
220,352,277116,1,8,0:0:0:0:
16,189,277276,6,0,B|20:96|85:121|102:38,1,176.000005371094,6|8,3:2|0:1,0:0:0:0:
0,0,277755,1,0,3:2:0:0:
120,118,277914,1,2,0:0:0:0:
146,100,278074,1,8,0:1:0:0:
288,0,278233,2,0,P|342:-2|360:43,1,88.000002685547,0|8,3:2|0:0,0:0:0:0:
512,224,278552,2,0,P|422:200|377:154,1,132.00000402832,10|0,0:2|0:0,0:0:0:0:
378,149,278872,1,8,0:1:0:0:
448,352,279031,1,8,0:0:0:0:
217,224,279191,6,0,B|167:198|124:241|124:241|113:290|45:299,1,176.000005371094,12|8,0:1|0:1,0:0:0:0:
186,384,279669,1,8,0:0:0:0:
303,214,279829,2,0,P|294:169|255:144,1,88.000002685547,10|8,0:0|0:0,0:0:0:0:
0,106,280148,5,0,3:0:0:0:
176,157,280308,1,0,3:0:0:0:
352,112,280467,1,2,3:2:0:0:
487,11,280627,1,0,3:0:0:0:
491,60,280786,1,2,3:2:0:0:
467,82,280946,1,2,3:2:0:0:
256,0,281106,5,6,3:2:0:0:
256,0,281425,2,0,P|219:12|189:31,1,71.9999978027344,8|8,0:1|0:0,0:0:0:0:
0,0,281744,1,2,0:0:0:0:
0,0,282063,5,2,0:0:0:0:
0,39,282382,1,2,0:0:0:0:
24,69,282701,1,2,0:0:0:0:
192,192,283020,5,6,3:2:0:0:
192,192,283340,2,0,P|216:221|224:265,1,71.9999978027344,8|8,0:1|0:0,0:0:0:0:
46,380,283659,5,0,3:0:0:0:
85,282,283818,1,0,3:0:0:0:
184,323,283978,1,0,3:0:0:0:
323,384,284138,5,0,3:0:0:0:
224,253,284297,1,0,3:0:0:0:
430,228,284457,1,0,3:0:0:0:
376,292,284616,5,0,3:0:0:0:
512,32,284935,6,0,B|441:-41|353:-10|306:80|423:141|441:69,1,287.999991210938,4|8,3:2|0:0,0:0:0:0:
512,32,285573,1,8,0:1:0:0:
382,184,285892,1,8,0:0:0:0:
213,39,286211,1,10,0:1:0:0:
358,102,286530,1,10,0:0:0:0:
358,102,286849,5,10,0:1:0:0:
186,157,287009,1,10,0:0:0:0:
12,227,287169,1,10,0:0:0:0:
0,241,287328,1,2,0:0:0:0:
181,384,287488,6,0,B|239:302|160:237|160:237|94:207|108:138,1,287.999991210938,4|8,3:2|0:0,0:0:0:0:
42,104,288126,1,8,0:1:0:0:
224,192,288445,1,8,0:0:0:0:
96,0,288764,1,14,0:1:0:0:
96,0,289083,5,2,3:2:0:0:
266,85,289243,1,0,3:2:0:0:
437,41,289403,1,2,3:2:0:0:
373,0,289562,1,2,3:2:0:0:
259,108,289721,1,2,3:2:0:0:
448,160,289881,1,0,3:2:0:0:
253,132,290041,6,0,B|130:109|127:247|6:262,1,287.999991210938,6|8,3:2|0:0,0:0:0:0:
16,183,290679,1,8,0:1:0:0:
108,365,290998,1,8,0:0:0:0:
352,224,291317,1,10,0:1:0:0:
230,376,291637,1,10,0:0:0:0:
230,376,291956,5,10,0:1:0:0:
165,238,292115,1,10,0:0:0:0:
267,80,292275,1,10,0:0:0:0:
282,67,292435,1,2,0:0:0:0:
512,78,292594,6,0,B|439:25|361:93|361:93|332:160|253:162,1,287.999991210938,4|8,3:2|0:0,0:0:0:0:
9,72,293232,2,0,P|21:6|90:37,1,143.999995605469,12|0,0:1|0:0,0:0:0:0:
106,34,293552,2,0,P|85:76|74:153,1,95.9999970703126,2|0,3:2|3:0,0:0:0:0:
0,256,293871,5,2,3:2:0:0:
162,322,294030,1,2,3:2:0:0:
98,217,294190,1,2,3:2:0:0:
47,371,294349,1,2,3:2:0:0:
209,233,294509,1,2,3:2:0:0:
14,114,294669,1,2,3:2:0:0:
110,234,294828,1,2,3:2:0:0:
256,0,294988,1,2,3:2:0:0:
