osu file format v14

[General]
AudioFilename: audio.mp3
AudioLeadIn: 0
PreviewTime: 50492
Countdown: 0
SampleSet: Soft
StackLeniency: 0.4
Mode: 0
LetterboxInBreaks: 0
WidescreenStoryboard: 1

[Editor]
Bookmarks: 14783,50604,79261,115081,143738,180455,223440
DistanceSpacing: 1.3
BeatDivisor: 4
GridSize: 32
TimelineZoom: 2.4

[Metadata]
Title:Musouka
TitleUnicode:夢想歌
Artist:Suara
ArtistUnicode:Suara
Creator:Vararaup
Version:Hard
Source:うたわれるもの
Tags:すあら utawarerumono opening op anime japanese pop jpop j-pop
BeatmapID:3123344
BeatmapSetID:1520842

[Difficulty]
HPDrainRate:5
CircleSize:4
OverallDifficulty:6
ApproachRate:7
SliderMultiplier:1.4
SliderTickRate:1

[Events]
//Background and Video events
0,0,"epicbg.png",0,0
//Break Periods
2,143938,149331
2,165431,171495
//Storyboard Layer 0 (Background)
//Storyboard Layer 1 (Fail)
//Storyboard Layer 2 (Pass)
//Storyboard Layer 3 (Foreground)
//Storyboard Layer 4 (Overlay)
//Storyboard Sound Samples

[TimingPoints]
455,447.761194029851,4,2,1,50,1,0
13887,-100,4,2,1,55,0,0
14335,-100,4,2,1,55,0,0
14783,-90.9090909090909,4,2,1,65,0,0
19932,-100,4,2,1,65,0,0
21163,-100,4,2,1,5,0,0
21275,-100,4,2,1,65,0,0
21947,-100,4,2,1,50,0,0
36275,-95.2380952380952,4,2,1,50,0,0
47022,-95.2380952380952,4,2,1,60,0,0
49932,-83.3333333333333,4,2,1,60,0,0
50604,-83.3333333333333,4,2,1,70,0,1
64484,-83.3333333333333,4,2,1,70,0,0
64932,-83.3333333333333,4,2,1,70,0,1
78813,-83.3333333333333,4,2,1,70,0,1
79260,-90.9090909090909,4,2,1,65,0,0
84410,-100,4,2,1,65,0,0
85641,-100,4,2,1,5,0,0
85753,-100,4,2,1,65,0,0
86425,-100,4,2,1,50,0,0
100753,-95.2380952380952,4,2,1,50,0,0
111499,-95.2380952380952,4,2,1,60,0,0
114410,-83.3333333333333,4,2,1,60,0,0
115081,-83.3333333333333,4,2,1,70,0,1
128962,-83.3333333333333,4,2,1,70,0,0
129410,-83.3333333333333,4,2,1,70,0,1
143290,-83.3333333333333,4,2,1,70,0,1
143738,-83.3333333333333,4,2,1,70,0,0
150231,-83.3333333333333,4,2,1,65,0,0
156723,-83.3333333333333,4,2,1,65,0,0
157171,-83.3333333333333,4,2,1,65,0,0
157619,-83.3333333333333,4,2,1,65,0,0
158066,-83.3333333333333,4,2,1,65,0,0
161649,-83.3333333333333,4,2,1,65,0,0
163216,-83.3333333333333,4,2,1,65,0,0
166350,-83.3333333333333,4,2,1,50,0,0
172395,-100,4,2,1,50,0,0
175977,-95.2380952380952,4,2,1,60,0,0
178887,-83.3333333333333,4,2,1,60,0,0
180455,447.761194029851,4,2,1,70,1,0
180455,-83.3333333333333,4,2,1,70,0,1
194335,-83.3333333333333,4,2,1,70,0,0
194783,-83.3333333333333,4,2,1,70,0,1
208663,-83.3333333333333,4,2,1,70,0,0
209111,-83.3333333333333,4,2,1,70,0,1
223440,-100,4,2,1,55,0,0
230604,-90.9090909090909,4,2,1,65,0,0
235865,-90.9090909090909,4,2,1,50,0,0
236872,-90.9090909090909,4,2,1,45,0,0
237768,-90.9090909090909,4,2,1,40,0,0
238663,-90.9090909090909,4,2,1,35,0,0
239559,-90.9090909090909,4,2,1,30,0,0
240455,-90.9090909090909,4,2,1,25,0,0
241350,-90.9090909090909,4,2,1,20,0,0
242246,-90.9090909090909,4,2,1,5,0,0

[Colours]
Combo1 : 166,128,217
Combo2 : 128,185,255
Combo3 : 125,133,221
Combo4 : 241,199,135

[HitObjects]
34,240,455,6,0,P|41:205|43:170,1,70,2|0,0:2|0:2,0:0:0:0:
139,182,902,2,0,P|133:218|131:253,1,70,0|0,0:2|0:2,0:0:0:0:
128,349,1350,2,0,B|207:356|185:303|257:308,1,140,2|0,0:2|0:2,0:0:0:0:
349,340,2022,1,0,0:2:0:0:
432,287,2246,5,2,0:2:0:0:
432,287,2469,2,0,P|403:225|406:156,2,140,0|2|0,0:2|0:2|0:0,0:0:0:0:
256,308,3813,1,0,0:2:0:0:
171,357,4037,6,0,P|157:324|156:289,1,70,2|0,0:2|0:2,0:0:0:0:
219,216,4484,2,0,P|227:181|221:147,1,70,0|0,0:2|0:2,0:0:0:0:
186,54,4932,2,0,B|227:42|263:63|263:63|278:95|305:104,1,140,2|0,0:2|0:2,0:0:0:0:
403,100,5604,1,0,0:2:0:0:
452,184,5828,6,0,P|421:245|423:315,1,140,2|0,0:2|0:2,0:0:0:0:
339,365,6499,2,0,P|286:322|218:315,1,140,2|0,0:2|0:0,0:0:0:0:
130,360,7171,1,0,0:2:0:0:
56,295,7395,1,0,0:2:0:0:
101,208,7619,6,0,B|92:142|92:142|94:139|94:139|87:70,1,140,2|0,0:2|0:2,0:0:0:0:
171,20,8290,2,0,P|226:62|296:68,1,140,2|0,0:2|0:2,0:0:0:0:
384,24,8962,1,0,0:2:0:0:
463,81,9186,1,0,0:2:0:0:
398,154,9410,6,0,P|387:187|389:227,1,70,2|0,0:2|0:2,0:0:0:0:
414,268,9746,1,0,0:0:0:0:
414,268,9858,2,0,P|421:303|415:337,1,70,0|0,0:2|0:2,0:0:0:0:
319,361,10305,1,2,0:2:0:0:
185,262,10753,1,0,0:2:0:0:
240,181,10977,1,0,0:2:0:0:
223,84,11201,6,0,B|150:91|175:134|100:141,1,140,2|0,0:2|0:2,0:0:0:0:
25,292,12096,2,0,P|59:291|94:298,1,70,2|0,0:2|0:2,0:0:0:0:
186,331,12544,1,0,0:2:0:0:
301,298,12768,6,0,B|287:314|278:349|278:349|285:263|234:288|245:202,1,210,6|0,0:2|0:0,0:0:0:0:
281,112,13663,1,2,0:2:0:0:
381,75,13887,2,0,P|389:110|384:144,1,70,10|8,0:2|0:2,0:0:0:0:
360,238,14335,2,0,P|407:225|433:267,1,105,2|0,3:2|0:0,0:0:0:0:
432,321,14783,5,2,3:2:0:0:
326,341,15007,1,2,0:2:0:0:
249,264,15231,1,10,0:2:0:0:
281,160,15455,2,0,B|320:153|320:153|374:91|374:91|405:87,1,154.000004699707,2|2,3:2|3:2,0:0:0:0:
424,193,16126,1,8,0:2:0:0:
479,284,16350,6,0,P|442:297|404:297,1,77.0000023498536,2|0,0:2|3:2,0:0:0:0:
313,237,16798,1,2,0:2:0:0:
210,269,17022,1,10,0:2:0:0:
171,369,17246,2,0,P|110:325|95:251,1,154.000004699707,2|0,3:2|3:2,0:0:0:0:
138,152,17917,1,10,0:2:0:0:
250,175,18141,1,2,0:2:0:0:
250,175,18253,1,0,0:0:0:0:
250,175,18365,6,0,P|288:174|320:152,1,77.0000023498536,2|2,3:2|0:2,0:0:0:0:
352,49,18813,1,10,0:2:0:0:
251,9,19037,2,0,B|168:18|208:66|117:75,1,154.000004699707,2|2,3:2|3:2,0:0:0:0:
10,63,19708,1,8,0:2:0:0:
9,193,19932,6,0,B|-15:234|26:274|26:274|83:258|82:216|82:216|122:300|238:299|268:200,1,420,6|0,0:2|3:2,0:0:0:0:
173,179,21499,1,8,0:2:0:0:
89,348,21947,6,0,P|123:338|158:335,1,70,6|2,3:2|0:2,0:0:0:0:
256,343,22395,2,0,P|286:358|323:366,1,70,10|2,0:2|3:2,0:0:0:0:
417,346,22843,2,0,P|392:281|396:211,1,140,2|10,0:2|0:2,0:0:0:0:
451,130,23514,1,2,0:2:0:0:
387,54,23738,6,0,P|416:35|450:29,2,70,2|0|10,3:2|0:0|0:2,0:0:0:0:
328,132,24410,2,0,P|295:146|261:149,1,70,2|0,3:2|0:0,0:0:0:0:
164,130,24858,1,2,3:2:0:0:
140,35,25081,1,10,0:2:0:0:
36,39,25305,1,2,0:2:0:0:
36,39,25417,1,0,0:0:0:0:
36,39,25529,6,0,P|45:72|39:106,1,70,2|2,3:2|0:2,0:0:0:0:
21,202,25977,2,0,P|55:207|89:201,1,70,10|2,0:2|3:2,0:0:0:0:
163,129,26425,2,0,P|191:193|173:259,1,140,2|10,0:2|0:2,0:0:0:0:
134,349,27096,2,0,P|202:334|272:336,1,140,2|2,0:2|0:0,0:0:0:0:
369,320,27768,6,0,P|368:337|366:354,2,35,10|2|2,0:2|0:0|3:2,0:0:0:0:
304,246,28216,2,0,P|301:228|301:211,2,35,2|2|2,0:0|0:0|3:2,0:0:0:0:
272,336,28663,1,8,0:2:0:0:
181,298,28887,1,2,0:2:0:0:
182,199,29111,6,0,P|192:165|215:140,1,70,2|2,3:2|0:2,0:0:0:0:
314,138,29559,2,0,P|347:145|382:143,1,70,10|2,0:2|3:2,0:0:0:0:
449,70,30007,2,0,P|481:130|467:197,1,140,2|10,0:2|0:2,0:0:0:0:
384,250,30678,1,2,0:2:0:0:
397,347,30902,6,0,P|430:339|458:318,2,70,2|0|10,3:2|0:0|0:2,0:0:0:0:
302,317,31574,2,0,P|268:306|233:306,1,70,2|0,3:2|0:0,0:0:0:0:
140,336,32022,1,2,0:2:0:0:
59,280,32246,1,10,0:2:0:0:
64,182,32469,1,2,0:2:0:0:
136,115,32693,6,0,B|176:97|215:118|215:118|231:147|256:158,1,140,2|10,3:2|0:2,0:0:0:0:
354,164,33365,1,2,3:2:0:0:
425,97,33589,2,0,P|364:64|297:79,1,140,2|10,0:2|0:2,0:0:0:0:
224,144,34261,6,0,P|223:182|232:213,1,70,2|0,0:2|3:2,0:0:0:0:
158,277,34708,2,0,P|126:257|94:250,1,70,2|8,0:2|0:2,0:0:0:0:
73,154,35156,2,0,P|105:136|127:112,1,70,2|0,3:2|0:0,0:0:0:0:
224,144,35604,1,2,3:2:0:0:
292,74,35828,1,10,0:2:0:0:
385,104,36052,1,2,3:2:0:0:
485,44,36275,6,0,P|464:114|465:187,1,146.999995513916,6|10,3:2|0:2,0:0:0:0:
476,290,36947,2,0,B|399:299|416:245|337:256,1,146.999995513916,2|2,3:2|3:2,0:0:0:0:
255,318,37619,2,0,P|236:286|233:250,1,73.4999977569581,10|2,0:2|0:2,0:0:0:0:
287,162,38066,5,2,3:2:0:0:
229,76,38290,1,2,0:2:0:0:
132,111,38514,1,10,0:2:0:0:
38,67,38738,2,0,P|52:139|54:212,1,146.999995513916,2|0,3:2|3:2,0:0:0:0:
13,307,39410,1,10,0:2:0:0:
115,302,39634,1,2,0:2:0:0:
186,374,39858,6,0,P|215:307|193:239,1,146.999995513916,2|10,3:2|0:2,0:0:0:0:
123,163,40529,2,0,B|157:145|157:145|228:156|228:156|261:140,1,146.999995513916,2|2,3:2|3:2,0:0:0:0:
340,73,41201,1,10,0:2:0:0:
387,164,41425,1,2,0:2:0:0:
468,101,41649,6,0,P|473:64|492:33,2,73.4999977569581,2|0|8,3:2|0:0|0:2,0:0:0:0:
477,203,42320,2,0,P|482:239|472:274,1,73.4999977569581,2|0,3:2|0:0,0:0:0:0:
386,332,42768,1,2,3:2:0:0:
289,294,42992,1,10,0:2:0:0:
294,197,43216,1,2,0:2:0:0:
294,197,43328,1,0,0:0:0:0:
294,197,43440,6,0,P|258:201|226:218,1,73.4999977569581,2|0,3:2|0:0,0:0:0:0:
193,259,43775,1,2,0:2:0:0:
193,259,43887,1,0,0:0:0:0:
123,334,44111,2,0,B|115:253|69:286|57:207,1,146.999995513916,2|2,3:2|3:2,0:0:0:0:
10,115,44783,2,0,P|46:111|77:93,1,73.4999977569581,10|0,0:2|0:0,0:0:0:0:
120,61,45119,1,0,0:0:0:0:
120,61,45231,6,0,P|154:48|190:51,1,73.4999977569581,2|0,3:2|0:0,0:0:0:0:
240,75,45566,1,2,0:2:0:0:
240,75,45678,1,0,0:0:0:0:
326,19,45902,2,0,P|346:87|314:151,1,146.999995513916,2|2,3:2|3:2,0:0:0:0:
213,178,46574,2,0,P|224:212|249:239,1,73.4999977569581,10|0,0:2|3:2,0:0:0:0:
350,259,47022,5,6,3:2:0:0:
421,185,47246,1,2,0:2:0:0:
373,94,47469,1,10,0:2:0:0:
453,30,47693,2,0,P|450:103|462:175,1,146.999995513916,2|2,0:2|3:2,0:0:0:0:
495,273,48365,2,0,P|458:278|426:295,1,73.4999977569581,10|2,0:2|0:2,0:0:0:0:
337,361,48813,5,6,3:2:0:0:
226,353,49037,1,2,3:2:0:0:
140,283,49261,1,10,0:2:0:0:
116,175,49484,2,0,P|119:120|139:68,1,110.249996635437,2|0,3:2|0:0,0:0:0:0:
186,40,49932,6,0,P|260:46|255:121,1,167.999994873047,6|0,3:2|0:0,0:0:0:0:
214,225,50604,5,6,3:2:0:0:
318,192,50828,1,2,0:2:0:0:
422,238,51052,1,10,0:2:0:0:
422,238,51275,1,2,3:2:0:0:
473,140,51499,2,0,P|436:67|366:56,1,125.999996154785,2|0,0:2|0:0,0:0:0:0:
341,53,51947,2,0,P|315:85|276:100,1,83.9999974365235,10|2,0:2|0:2,0:0:0:0:
188,35,52395,5,2,3:2:0:0:
79,56,52619,2,0,P|85:98|86:140,1,83.9999974365235,2|8,0:2|0:2,0:0:0:0:
18,225,53066,2,0,P|75:248|137:239,1,125.999996154785,2|0,3:2|0:0,0:0:0:0:
183,210,53514,1,2,3:2:0:0:
183,210,53626,1,2,0:0:0:0:
183,210,53738,2,0,P|204:204|225:203,2,41.9999987182618,10|2|2,0:2|0:0|0:2,0:0:0:0:
93,144,54186,5,2,3:2:0:0:
103,35,54410,1,2,0:2:0:0:
215,38,54634,1,10,0:2:0:0:
215,38,54858,1,2,3:2:0:0:
289,117,55081,2,0,B|357:104|329:70|396:57,1,125.999996154785,2|0,0:2|0:0,0:0:0:0:
450,67,55529,2,0,P|470:103|471:144,1,83.9999974365235,10|2,0:2|0:2,0:0:0:0:
394,222,55977,6,0,P|352:221|315:201,1,83.9999974365235,2|0,3:2|0:0,0:0:0:0:
281,97,56425,1,10,0:2:0:0:
193,31,56649,2,0,B|187:93|187:93|184:95|184:95|179:155,1,125.999996154785,2|0,3:2|0:0,0:0:0:0:
186,216,57096,1,2,3:2:0:0:
186,216,57208,1,2,0:0:0:0:
186,216,57320,2,0,P|190:236|191:257,2,41.9999987182618,10|2|2,0:2|0:0|3:2,0:0:0:0:
299,194,57768,5,2,3:2:0:0:
299,194,57880,1,2,0:0:0:0:
299,194,57992,1,2,0:0:0:0:
380,266,58216,1,10,0:2:0:0:
315,353,58440,2,0,P|235:330|165:326,1,125.999996154785,2|0,3:2|0:0,0:0:0:0:
140,310,58887,2,0,P|117:343|78:357,2,83.9999974365235,2|10|2,3:2|0:2|0:2,0:0:0:0:
102,205,59559,6,0,P|90:166|97:125,1,83.9999974365235,2|2,3:2|0:2,0:0:0:0:
127,80,59895,1,2,0:0:0:0:
127,80,60007,1,10,0:2:0:0:
224,128,60231,1,2,3:2:0:0:
304,53,60455,2,0,P|302:95|306:137,1,83.9999974365235,2|0,0:2|3:2,0:0:0:0:
362,231,60902,1,10,0:2:0:0:
471,227,61126,1,2,3:2:0:0:
415,144,61350,5,2,3:2:0:0:
415,144,61462,1,2,0:0:0:0:
415,144,61574,1,2,0:0:0:0:
356,52,61798,2,0,P|316:38|275:42,1,83.9999974365235,10|0,0:2|0:0,0:0:0:0:
181,100,62246,1,2,0:2:0:0:
269,162,62469,1,2,3:2:0:0:
254,270,62693,1,10,0:2:0:0:
147,296,62917,6,0,P|73:262|49:184,1,167.999994873047,2|2,0:2|0:2,0:0:0:0:
60,84,63589,1,10,0:2:0:0:
74,68,63701,1,0,0:0:0:0:
93,60,63813,1,2,3:2:0:0:
114,59,63925,1,0,0:0:0:0:
132,64,64037,2,0,P|153:70|174:72,3,41.9999987182618,2|0|0|0,3:2|3:0|0:2|0:0,3:0:0:0:
224,55,64484,2,0,P|287:47|350:49,1,125.999996154785,10|0,0:1|0:0,0:0:0:0:
403,56,64932,5,6,3:2:0:0:
482,131,65156,1,2,0:2:0:0:
435,232,65380,1,10,0:2:0:0:
435,232,65604,1,2,3:2:0:0:
508,312,65828,2,0,B|437:317|455:355|395:361,1,125.999996154785,2|0,0:2|0:0,0:0:0:0:
340,356,66275,2,0,P|305:332|289:294,1,83.9999974365235,10|2,0:2|0:2,0:0:0:0:
310,187,66723,5,2,3:2:0:0:
224,118,66947,2,0,P|182:122|140:122,1,83.9999974365235,2|8,0:2|0:2,0:0:0:0:
53,55,67395,2,0,P|28:112|39:173,1,125.999996154785,2|0,3:2|0:0,0:0:0:0:
73,229,67843,1,2,3:2:0:0:
73,229,67955,1,2,0:0:0:0:
73,229,68066,2,0,P|75:249|76:270,2,41.9999987182618,10|2|2,0:2|0:0|0:2,0:0:0:0:
155,156,68514,5,2,3:2:0:0:
260,184,68738,1,2,0:2:0:0:
235,293,68962,1,10,0:2:0:0:
235,293,69186,1,2,3:2:0:0:
329,348,69410,2,0,P|336:288|401:244,1,125.999996154785,2|0,0:2|0:0,0:0:0:0:
438,241,69858,2,0,P|471:216|491:179,1,83.9999974365235,10|2,0:2|0:2,0:0:0:0:
490,70,70305,6,0,P|448:75|406:78,1,83.9999974365235,2|0,3:2|0:0,0:0:0:0:
297,70,70753,1,10,0:2:0:0:
199,19,70977,2,0,B|176:47|176:47|187:136,1,125.999996154785,2|0,3:2|0:0,0:0:0:0:
209,196,71425,1,2,3:2:0:0:
209,196,71537,1,2,0:0:0:0:
209,196,71649,2,0,P|215:215|218:236,2,41.9999987182618,10|2|2,0:2|0:0|3:2,0:0:0:0:
107,211,72096,5,2,3:2:0:0:
107,211,72208,1,2,0:0:0:0:
107,211,72320,1,2,0:0:0:0:
62,310,72544,1,10,0:2:0:0:
165,346,72768,2,0,P|222:320|284:313,1,125.999996154785,2|0,3:2|0:0,0:0:0:0:
338,317,73216,2,0,P|361:352|400:364,2,83.9999974365235,2|10|2,3:2|0:2|0:2,0:0:0:0:
350,209,73887,5,2,3:2:0:0:
442,266,74111,1,2,0:2:0:0:
500,173,74335,1,10,0:2:0:0:
407,115,74559,1,2,3:2:0:0:
350,209,74783,2,0,P|314:229|273:235,1,83.9999974365235,2|0,0:2|3:2,0:0:0:0:
163,220,75231,1,10,0:2:0:0:
134,114,75455,1,2,3:2:0:0:
224,50,75678,5,2,3:2:0:0:
224,50,75790,1,2,0:0:0:0:
224,50,75902,1,2,0:0:0:0:
122,7,76126,2,0,P|83:19|50:45,1,83.9999974365235,10|0,0:2|0:0,0:0:0:0:
25,152,76574,1,2,0:2:0:0:
129,182,76798,1,2,3:2:0:0:
133,291,77022,1,10,0:2:0:0:
250,244,77246,6,0,B|260:277|226:312|226:312|194:280|186:232|237:211|205:142,1,251.999992309571,6|0,3:2|0:0,0:0:0:0:
140,57,78141,1,2,0:2:0:0:
31,41,78365,2,0,P|38:82|41:124,1,83.9999974365235,2|0,0:2|0:0,0:0:0:0:
40,234,78813,2,0,P|70:206|108:189,1,83.9999974365235,2|0,3:2|0:0,0:0:0:0:
217,190,79261,5,2,3:2:0:0:
253,89,79484,1,2,0:2:0:0:
356,59,79708,1,10,0:2:0:0:
439,127,79932,2,0,B|445:169|445:169|411:232|411:232|419:271,1,154.000004699707,2|2,3:2|3:2,0:0:0:0:
362,363,80604,1,8,0:2:0:0:
274,299,80828,6,0,P|238:284|200:287,1,77.0000023498536,2|0,0:2|3:2,0:0:0:0:
112,350,81275,1,2,0:2:0:0:
47,263,81499,1,10,0:2:0:0:
130,193,81723,2,0,P|165:128|134:61,1,154.000004699707,2|0,3:2|3:2,0:0:0:0:
25,54,82395,1,10,0:2:0:0:
10,166,82619,5,2,0:2:0:0:
10,166,82731,1,2,0:0:0:0:
10,166,82843,2,0,P|17:203|16:242,1,77.0000023498536,2|2,3:2|0:2,0:0:0:0:
2,349,83290,1,10,0:2:0:0:
105,319,83514,2,0,B|147:296|183:311|183:311|207:344|243:347,1,154.000004699707,2|2,3:2|3:2,0:0:0:0:
350,331,84186,1,8,0:2:0:0:
451,341,84410,6,0,B|496:351|513:290|513:290|476:244|432:268|432:268|452:212|421:155|379:190|341:117|364:58,1,420,6|0,0:2|3:2,0:0:0:0:
458,89,85977,1,8,0:2:0:0:
347,240,86425,6,0,P|317:257|283:263,1,70,6|2,3:2|0:2,0:0:0:0:
192,228,86872,2,0,P|195:262|191:297,1,70,10|2,0:2|3:2,0:0:0:0:
103,342,87320,2,0,P|42:311|26:245,1,140,2|10,0:2|0:2,0:0:0:0:
82,165,87992,1,2,0:2:0:0:
104,69,88216,6,0,P|69:67|36:78,2,70,2|0|10,3:2|0:0|0:2,0:0:0:0:
187,119,88887,2,0,P|219:131|254:130,1,70,2|0,3:2|0:0,0:0:0:0:
328,65,89335,1,2,3:2:0:0:
425,78,89559,1,10,0:2:0:0:
476,182,89783,1,2,0:2:0:0:
476,182,89895,1,0,0:0:0:0:
476,182,90007,6,0,P|471:216|471:251,1,70,2|2,3:2|0:2,0:0:0:0:
425,338,90455,2,0,P|398:314|366:300,1,70,10|2,0:2|3:2,0:0:0:0:
270,320,90902,1,2,0:2:0:0:
216,237,91126,1,2,3:2:0:0:
263,151,91350,2,0,P|269:116|261:83,1,70,10|2,0:2|0:2,0:0:0:0:
233,48,91686,1,0,0:0:0:0:
233,48,91798,6,0,P|186:71|134:72,1,105,0|0,3:2|0:0,0:0:0:0:
85,64,92246,2,0,P|83:46|78:29,2,35,10|2|2,0:2|0:0|3:2,0:0:0:0:
22,139,92693,2,0,P|19:156|19:173,1,35,2|2,0:0|0:0,0:0:0:0:
24,222,92917,2,0,P|58:228|87:247,1,70,2|8,3:2|0:2,0:0:0:0:
142,329,93365,1,2,0:2:0:0:
215,263,93589,6,0,P|249:264|284:263,1,70,2|2,3:2|0:2,0:0:0:0:
385,226,94037,2,0,P|382:260|394:293,1,70,10|2,0:2|3:2,0:0:0:0:
489,316,94484,2,0,P|507:249|482:184,1,140,2|10,0:2|0:2,0:0:0:0:
410,118,95156,1,2,0:2:0:0:
391,21,95380,6,0,P|425:22|459:33,2,70,2|0|10,3:2|0:0|0:2,0:0:0:0:
308,74,96052,2,0,P|279:93|245:100,1,70,2|0,3:2|0:0,0:0:0:0:
154,64,96499,1,2,0:2:0:0:
79,127,96723,1,10,0:2:0:0:
100,222,96947,1,2,0:2:0:0:
193,251,97171,6,0,P|201:215|222:187,1,70,2|2,3:2|0:2,0:0:0:0:
318,175,97619,2,0,P|344:199|358:232,1,70,10|2,0:2|3:2,0:0:0:0:
314,317,98066,2,0,B|239:307|259:354|178:344,1,140,2|10,0:2|0:2,0:0:0:0:
82,351,98738,6,0,P|72:314|55:286,1,70,2|0,0:2|3:2,0:0:0:0:
109,205,99186,2,0,P|145:215|177:213,1,70,2|8,0:2|0:2,0:0:0:0:
225,300,99633,2,0,P|199:326|184:355,1,70,2|0,3:2|0:0,0:0:0:0:
82,351,100081,1,2,3:2:0:0:
31,267,100305,1,10,0:2:0:0:
109,205,100529,1,2,3:2:0:0:
17,131,100753,6,0,P|93:126|163:98,1,146.999995513916,6|10,3:2|0:2,0:0:0:0:
226,22,101425,2,0,P|265:81|250:151,1,146.999995513916,2|2,3:2|3:2,0:0:0:0:
170,217,102096,2,0,P|196:241|231:252,1,73.4999977569581,10|2,0:2|0:2,0:0:0:0:
333,237,102544,5,2,3:2:0:0:
381,146,102768,1,2,0:2:0:0:
313,68,102992,1,10,0:2:0:0:
416,22,103216,2,0,B|419:100|465:75|466:155,1,146.999995513916,2|0,3:2|3:2,0:0:0:0:
416,245,103887,1,10,0:2:0:0:
314,228,104111,1,2,0:2:0:0:
276,323,104335,6,0,P|214:287|142:294,1,146.999995513916,2|10,3:2|0:2,0:0:0:0:
50,339,105007,2,0,B|34:314|40:271|40:271|70:242|64:201,1,146.999995513916,2|2,3:2|3:2,0:0:0:0:
37,101,105678,1,10,0:2:0:0:
110,29,105902,1,2,0:2:0:0:
194,87,106126,6,0,P|212:57|213:20,2,73.4999977569581,2|0|8,3:2|0:0|0:2,0:0:0:0:
157,184,106798,2,0,P|150:219|159:255,1,73.4999977569581,2|0,3:2|0:0,0:0:0:0:
237,322,107246,1,0,3:2:0:0:
326,271,107469,1,10,0:2:0:0:
426,318,107693,1,2,0:2:0:0:
426,318,107805,1,0,0:0:0:0:
426,318,107917,6,0,P|424:282|425:245,1,73.4999977569581,2|0,3:2|0:0,0:0:0:0:
434,197,108253,1,2,0:2:0:0:
434,197,108365,1,0,0:0:0:0:
483,106,108589,2,0,P|411:94|350:132,1,146.999995513916,2|2,3:2|3:2,0:0:0:0:
301,223,109261,2,0,P|272:200|254:168,1,73.4999977569581,10|0,0:2|0:0,0:0:0:0:
251,121,109596,1,0,0:0:0:0:
252,122,109708,6,0,P|249:85|235:51,1,73.4999977569581,2|0,3:2|0:0,0:0:0:0:
197,25,110044,1,2,0:2:0:0:
197,25,110156,1,0,0:0:0:0:
94,33,110380,2,0,P|50:90|54:162,1,146.999995513916,2|2,3:2|3:2,0:0:0:0:
135,225,111052,2,0,P|171:218|207:216,1,73.4999977569581,10|0,0:2|3:2,0:0:0:0:
308,237,111499,5,6,3:2:0:0:
401,280,111723,1,2,0:2:0:0:
484,219,111947,1,10,0:2:0:0:
503,318,112171,2,0,P|430:316|359:331,1,146.999995513916,2|2,0:2|3:2,0:0:0:0:
257,356,112843,2,0,P|256:320|267:285,1,73.4999977569581,10|2,0:2|0:2,0:0:0:0:
333,197,113290,5,6,3:2:0:0:
318,87,113514,1,2,3:2:0:0:
226,25,113738,1,10,0:2:0:0:
115,31,113962,2,0,P|118:86|118:142,1,110.249996635437,2|0,3:2|0:0,0:0:0:0:
96,192,114410,6,0,P|22:211|37:286,1,167.999994873047,6|0,3:2|0:0,0:0:0:0:
123,351,115081,5,6,3:2:0:0:
198,271,115305,1,2,0:2:0:0:
259,367,115529,1,10,0:2:0:0:
259,367,115753,1,2,3:2:0:0:
368,341,115977,2,0,P|365:278|370:215,1,125.999996154785,2|0,0:2|0:0,0:0:0:0:
375,160,116425,2,0,P|339:137|321:100,1,83.9999974365235,10|2,0:2|0:2,0:0:0:0:
365,0,116872,5,2,3:2:0:0:
466,38,117096,2,0,P|458:80|459:122,1,83.9999974365235,2|8,0:2|0:2,0:0:0:0:
487,228,117544,2,0,P|424:226|367:251,1,125.999996154785,2|0,3:2|0:0,0:0:0:0:
329,290,117992,1,2,3:2:0:0:
329,290,118104,1,2,0:0:0:0:
329,290,118216,2,0,P|333:310|336:331,2,41.9999987182618,10|2|2,0:2|0:0|0:2,0:0:0:0:
265,201,118663,5,2,3:2:0:0:
207,108,118887,1,2,0:2:0:0:
119,172,119111,1,10,0:2:0:0:
119,172,119335,1,2,3:2:0:0:
168,270,119559,2,0,P|140:325|82:344,1,125.999996154785,2|0,0:2|0:0,0:0:0:0:
27,337,120007,2,0,P|28:295|25:253,1,83.9999974365235,10|2,0:2|0:2,0:0:0:0:
9,144,120455,6,0,P|38:114|77:100,1,83.9999974365235,2|0,3:2|0:0,0:0:0:0:
186,109,120902,1,10,0:2:0:0:
270,39,121126,2,0,B|276:114|276:114|260:134|255:160,1,125.999996154785,2|0,3:2|0:0,0:0:0:0:
253,221,121574,1,2,3:2:0:0:
253,221,121686,1,2,0:0:0:0:
253,221,121798,2,0,P|232:226|211:224,2,41.9999987182618,10|2|2,0:2|0:0|3:2,0:0:0:0:
359,181,122246,5,2,3:2:0:0:
359,181,122358,1,2,0:0:0:0:
359,181,122469,1,2,0:0:0:0:
344,289,122693,1,10,0:2:0:0:
437,345,122917,2,0,B|428:283|469:291|461:224,1,125.999996154785,2|0,3:2|0:0,0:0:0:0:
455,168,123365,2,0,P|485:141|501:103,2,83.9999974365235,2|10|2,3:2|0:2|0:2,0:0:0:0:
345,164,124037,6,0,P|318:131|310:90,1,83.9999974365235,2|2,3:2|0:2,0:0:0:0:
317,39,124372,1,2,0:0:0:0:
317,39,124484,1,10,0:2:0:0:
212,71,124708,1,2,3:2:0:0:
113,24,124932,2,0,P|100:63|106:104,1,83.9999974365235,2|0,0:2|3:2,0:0:0:0:
185,181,125380,1,10,0:2:0:0:
112,262,125604,1,2,3:2:0:0:
35,198,125828,5,2,3:2:0:0:
35,198,125940,1,2,0:0:0:0:
35,198,126052,1,2,0:0:0:0:
0,301,126275,2,0,P|42:302|84:306,1,83.9999974365235,10|0,0:2|0:0,0:0:0:0:
179,362,126723,1,2,0:2:0:0:
272,305,126947,1,2,3:2:0:0:
277,195,127171,1,10,0:2:0:0:
191,125,127395,6,0,P|263:87|342:109,1,167.999994873047,2|2,0:2|0:2,0:0:0:0:
396,204,128066,1,10,0:2:0:0:
395,224,128178,1,0,0:0:0:0:
387,244,128290,1,2,3:2:0:0:
375,261,128402,1,0,0:0:0:0:
359,277,128514,2,0,P|341:295|330:321,3,41.9999987182618,2|0|0|0,3:2|3:0|0:2|0:0,3:0:0:0:
304,356,128962,2,0,P|241:345|178:345,1,125.999996154785,10|0,0:1|0:0,0:0:0:0:
125,357,129410,5,6,3:2:0:0:
64,266,129634,1,2,0:2:0:0:
158,208,129858,1,10,0:2:0:0:
158,208,130082,1,2,3:2:0:0:
251,262,130305,2,0,B|243:197|286:205|278:142,1,125.999996154785,2|0,0:2|0:0,0:0:0:0:
263,92,130753,2,0,P|227:73|185:73,1,83.9999974365235,10|2,0:2|0:2,0:0:0:0:
79,102,131201,5,2,3:2:0:0:
57,208,131425,2,0,P|61:250|63:292,1,83.9999974365235,2|8,0:2|0:2,0:0:0:0:
144,365,131872,2,0,P|189:322|251:318,1,125.999996154785,2|0,3:2|0:0,0:0:0:0:
310,344,132320,1,2,3:2:0:0:
310,344,132432,1,2,0:0:0:0:
310,344,132544,2,0,P|329:351|350:352,2,41.9999987182618,10|2|2,0:2|0:0|0:2,0:0:0:0:
261,245,132992,5,2,3:2:0:0:
336,166,133216,1,2,0:2:0:0:
375,272,133440,1,10,0:2:0:0:
375,272,133664,1,2,3:2:0:0:
476,311,133887,2,0,P|467:248|473:186,1,125.999996154785,2|0,0:2|0:0,0:0:0:0:
479,130,134335,2,0,P|438:141|396:141,1,83.9999974365235,10|2,0:2|0:2,0:0:0:0:
300,89,134783,6,0,P|285:128|288:169,1,83.9999974365235,2|0,3:2|0:0,0:0:0:0:
346,262,135231,1,10,0:2:0:0:
253,319,135455,2,0,B|226:322|199:308|199:308|185:310|185:310|157:293|131:299,1,125.999996154785,2|0,3:2|0:0,0:0:0:0:
85,318,135902,1,2,3:2:0:0:
85,318,136014,1,2,0:0:0:0:
85,318,136126,2,0,P|72:334|66:354,2,41.9999987182618,10|2|2,0:2|0:0|3:2,0:0:0:0:
80,216,136574,5,2,3:2:0:0:
80,216,136686,1,2,0:0:0:0:
80,216,136798,1,2,0:0:0:0:
5,135,137022,1,10,0:2:0:0:
104,90,137246,2,0,B|178:98|153:135|215:141,1,125.999996154785,2|0,3:2|0:0,0:0:0:0:
269,148,137693,2,0,P|263:189|264:231,2,83.9999974365235,2|10|2,3:2|0:2|0:2,0:0:0:0:
234,42,138365,6,0,P|275:37|315:48,1,83.9999974365235,2|2,3:2|0:2,0:0:0:0:
363,85,138701,1,2,0:0:0:0:
363,85,138813,1,10,0:2:0:0:
458,32,139037,1,2,3:2:0:0:
465,139,139261,2,0,P|469:181|468:223,1,83.9999974365235,2|0,0:2|3:2,0:0:0:0:
391,301,139708,1,10,0:2:0:0:
293,252,139932,1,2,3:2:0:0:
300,150,140156,5,2,3:2:0:0:
300,150,140268,1,2,0:0:0:0:
300,150,140380,1,2,0:0:0:0:
205,94,140604,2,0,P|164:98|120:95,1,83.9999974365235,10|0,0:2|0:0,0:0:0:0:
13,80,141052,1,2,0:2:0:0:
32,186,141275,1,2,3:2:0:0:
139,207,141499,1,10,0:2:0:0:
205,94,141723,6,0,B|233:64|286:90|268:142|268:142|205:190|240:273,1,251.999992309571,6|0,3:2|0:0,0:0:0:0:
298,355,142619,1,2,0:2:0:0:
400,315,142843,2,0,P|410:275|400:235,1,83.9999974365235,2|0,0:2|0:0,0:0:0:0:
343,164,143290,2,0,P|379:144|421:145,1,83.9999974365235,2|0,3:2|0:0,0:0:0:0:
506,214,143738,5,4,3:2:0:0:
407,108,150231,6,0,B|405:67|405:67|419:26,2,83.9999974365235,2|2|2,0:0|0:0|0:0,0:0:0:0:
451,207,150902,6,0,P|410:217|369:210,1,83.9999974365235,6|2,3:2|0:2,0:0:0:0:
328,181,151238,1,2,0:0:0:0:
328,181,151350,2,0,B|296:151|296:151|257:142,1,83.9999974365235,10|2,0:2|3:2,0:0:0:0:
156,171,151798,1,2,0:2:0:0:
156,171,151910,1,2,0:0:0:0:
156,171,152022,1,2,0:2:0:0:
83,253,152246,2,0,P|120:270|162:273,1,83.9999974365235,10|2,0:2|0:2,0:0:0:0:
218,260,152581,5,2,0:0:0:0:
218,260,152693,2,0,B|260:249|260:249|299:256,1,83.9999974365235,2|2,0:2|3:2,0:0:0:0:
416,270,153141,1,10,0:2:0:0:
416,270,153253,1,2,0:0:0:0:
416,270,153365,1,2,0:2:0:0:
363,173,153589,2,0,P|356:131|370:92,1,83.9999974365235,2|2,3:2|0:2,0:0:0:0:
400,46,153925,1,2,0:0:0:0:
400,46,154037,2,0,L|316:53,1,83.9999974365235,10|2,0:2|3:2,0:0:0:0:
207,49,154484,6,0,B|203:133|262:110|256:204,1,167.999994873047,2|10,3:2|0:2,0:0:0:0:
190,292,155156,2,0,P|108:288|51:229,1,167.999994873047,2|0,3:2|0:0,0:0:0:0:
70,121,155828,1,10,0:2:0:0:
151,194,156052,1,2,0:2:0:0:
226,115,156275,6,0,L|309:126,1,83.9999974365235,2|0,0:2|3:0,0:0:0:0:
367,136,156611,1,2,0:0:0:0:
367,136,156723,2,0,L|450:147,1,83.9999974365235,10|0,0:2|0:0,0:0:0:0:
503,162,157059,1,2,0:0:0:0:
503,162,157171,2,0,L|430:204,1,83.9999974365235,2|0,0:2|0:0,0:0:0:0:
386,236,157507,1,2,0:0:0:0:
386,236,157619,2,0,L|313:278,1,83.9999974365235,10|8,0:2|3:2,0:0:0:0:
268,308,157955,1,2,0:0:0:0:
268,308,158066,5,6,3:2:0:0:
184,377,158290,1,2,0:2:0:0:
156,272,158514,2,0,P|161:252|158:231,3,41.9999987182618,10|2|2|2,0:2|0:0|3:2|0:0,0:0:0:0:
119,193,158962,2,0,P|98:187|77:190,3,41.9999987182618,2|2|2|2,0:2|0:0|0:2|0:0,0:0:0:0:
42,232,159410,1,10,0:2:0:0:
42,232,159522,1,2,0:0:0:0:
42,232,159634,1,2,0:2:0:0:
48,341,159858,5,2,0:2:0:0:
68,336,159969,1,2,0:0:0:0:
88,331,160081,1,2,3:2:0:0:
108,326,160193,1,2,0:0:0:0:
128,322,160305,2,0,B|163:333|202:314|202:314|229:320|229:320|234:240|278:269|280:185,1,251.999992309571,10|0,0:2|0:0,0:0:0:0:
184,132,161201,2,0,P|174:158|173:186,2,55.9999982910157,10|2|2,0:2|0:0|0:0,0:0:0:0:
220,68,161649,6,0,P|280:88|343:91,1,125.999996154785,2|0,3:2|0:0,0:0:0:0:
397,81,162096,1,8,0:2:0:0:
495,128,162320,2,0,P|445:164|432:225,1,125.999996154785,2|0,3:2|0:0,0:0:0:0:
448,278,162768,1,2,0:2:0:0:
348,323,162992,1,10,0:2:0:0:
267,248,163216,6,0,P|229:230|187:233,1,83.9999974365235,2|0,0:2|0:0,0:0:0:0:
168,340,163663,2,0,P|205:357|247:354,1,83.9999974365235,2|0,3:2|0:0,0:0:0:0:
348,323,164111,2,0,B|344:283|344:283|367:241|367:241|362:203,1,125.999996154785,2|0,0:2|0:0,0:0:0:0:
372,149,164559,1,2,0:2:0:0:
399,43,164783,1,10,3:2:0:0:
294,10,165007,1,2,3:2:0:0:
267,116,165231,1,6,3:2:0:0:
127,279,172395,6,0,B|78:289|91:322|40:333,2,105,2|0|0,3:2|0:2|0:2,0:0:0:0:
287,342,173514,1,2,0:2:0:0:
287,342,173738,1,2,0:2:0:0:
422,242,174186,6,0,P|380:266|392:313,2,105,2|0|0,3:2|0:2|0:2,0:0:0:0:
466,83,175305,1,2,3:2:0:0:
466,83,175529,1,2,0:2:0:0:
283,52,175977,5,6,3:2:0:0:
227,138,176201,1,2,0:2:0:0:
124,130,176425,1,2,0:2:0:0:
59,50,176649,2,0,P|18:109|28:180,1,146.999995513916,2|2,0:2|3:2,0:0:0:0:
115,234,177320,2,0,P|151:233|188:237,1,73.4999977569581,2|2,0:2|0:2,0:0:0:0:
273,307,177768,5,6,3:2:0:0:
379,279,177992,1,2,3:2:0:0:
443,189,178216,1,10,0:2:0:0:
428,78,178440,2,0,P|375:96|321:101,1,110.249996635437,2|0,3:2|0:0,0:0:0:0:
269,83,178887,6,0,P|217:53|191:137,1,167.999994873047,6|0,0:2|0:0,0:0:0:0:
231,239,179559,5,0,3:0:0:0:
231,239,179783,2,0,B|275:222|293:184|293:184|311:223|352:238,1,167.999994873047,0|0,3:0|0:0,0:0:0:0:
394,136,180455,5,6,3:2:0:0:
396,27,180678,1,2,0:2:0:0:
292,46,180902,1,10,0:2:0:0:
292,46,181126,1,2,3:2:0:0:
183,36,181350,2,0,B|174:93|219:85|213:154,1,125.999996154785,2|0,0:2|0:0,0:0:0:0:
193,206,181798,2,0,P|157:227|115:229,1,83.9999974365235,10|2,0:2|0:2,0:0:0:0:
18,178,182246,5,2,3:2:0:0:
17,69,182469,2,0,P|59:71|101:76,1,83.9999974365235,2|8,0:2|0:2,0:0:0:0:
205,106,182917,2,0,P|266:119|319:88,1,125.999996154785,2|0,3:2|0:0,0:0:0:0:
354,47,183365,1,2,3:2:0:0:
354,47,183477,1,2,0:0:0:0:
354,47,183589,2,0,P|358:27|357:6,2,41.9999987182618,10|2|2,0:2|0:0|0:2,0:0:0:0:
428,128,184037,5,2,3:2:0:0:
366,217,184260,1,2,0:2:0:0:
426,313,184484,1,10,0:2:0:0:
426,313,184708,1,2,3:2:0:0:
315,333,184932,2,0,P|299:273|247:240,1,125.999996154785,2|0,0:2|0:0,0:0:0:0:
192,243,185380,2,0,P|157:266|137:302,1,83.9999974365235,10|2,0:2|0:2,0:0:0:0:
43,358,185828,6,0,P|41:316|38:274,1,83.9999974365235,2|0,3:2|0:0,0:0:0:0:
26,165,186275,1,10,0:2:0:0:
129,129,186499,2,0,B|155:146|155:146|187:144|187:144|216:153|216:153|246:142,1,125.999996154785,2|0,3:2|0:0,0:0:0:0:
302,122,186947,1,2,3:2:0:0:
302,122,187059,1,2,0:0:0:0:
302,122,187171,2,0,P|304:101|302:80,2,41.9999987182618,10|2|2,0:2|0:0|3:2,0:0:0:0:
274,233,187619,5,2,3:2:0:0:
274,233,187731,1,2,0:0:0:0:
274,233,187843,1,2,0:0:0:0:
345,314,188066,1,10,0:2:0:0:
452,330,188290,2,0,P|443:268|443:205,1,125.999996154785,2|0,3:2|0:0,0:0:0:0:
448,150,188738,2,0,P|486:132|511:98,2,83.9999974365235,2|10|2,3:2|0:2|0:2,0:0:0:0:
343,182,189410,6,0,P|346:140|345:98,1,83.9999974365235,2|2,3:2|0:2,0:0:0:0:
344,46,189746,1,2,0:0:0:0:
344,46,189857,1,10,0:2:0:0:
240,81,190081,1,2,3:2:0:0:
145,25,190305,2,0,P|103:26|66:46,1,83.9999974365235,2|0,0:2|3:2,0:0:0:0:
21,146,190753,1,10,0:2:0:0:
128,127,190977,1,2,3:2:0:0:
89,233,191201,5,2,3:2:0:0:
89,233,191313,1,2,0:0:0:0:
89,233,191425,1,2,0:0:0:0:
143,327,191649,2,0,P|174:300|193:262,1,83.9999974365235,10|0,0:2|0:0,0:0:0:0:
206,154,192096,1,2,0:2:0:0:
283,76,192320,1,2,3:2:0:0:
390,93,192544,1,10,0:2:0:0:
433,192,192768,6,0,P|410:270|336:304,1,167.999994873047,2|2,0:2|0:2,0:0:0:0:
230,277,193440,1,10,0:2:0:0:
210,269,193552,1,0,0:0:0:0:
189,266,193663,1,2,3:2:0:0:
168,269,193775,1,0,0:0:0:0:
148,278,193887,2,0,P|132:291|113:300,3,41.9999987182618,2|0|0|0,3:2|3:0|0:2|0:0,3:0:0:0:
61,317,194335,2,0,P|58:254|52:191,1,125.999996154785,10|0,0:1|0:0,0:0:0:0:
47,136,194783,5,6,3:2:0:0:
125,60,195007,1,2,0:2:0:0:
164,166,195231,1,10,0:2:0:0:
164,166,195455,1,2,3:2:0:0:
265,211,195678,2,0,P|262:148|266:85,1,125.999996154785,2|0,0:2|0:0,0:0:0:0:
292,36,196126,2,0,P|330:20|371:26,1,83.9999974365235,10|2,0:2|0:2,0:0:0:0:
448,104,196574,5,2,3:2:0:0:
402,203,196798,2,0,P|369:228|353:267,1,83.9999974365235,2|8,0:2|0:2,0:0:0:0:
341,376,197246,2,0,B|282:372|296:332|227:330,1,125.999996154785,2|0,3:2|0:0,0:0:0:0:
178,333,197693,1,2,3:2:0:0:
178,333,197805,1,2,0:0:0:0:
178,333,197917,2,0,P|170:352|169:373,2,41.9999987182618,10|2|2,0:2|0:0|0:2,0:0:0:0:
241,242,198365,5,2,3:2:0:0:
251,133,198589,1,2,0:2:0:0:
156,184,198813,1,10,0:2:0:0:
156,184,199037,1,2,3:2:0:0:
55,124,199260,2,0,P|68:186|70:249,1,125.999996154785,2|0,0:2|0:0,0:0:0:0:
57,303,199708,2,0,P|76:339|112:358,1,83.9999974365235,10|2,0:2|0:2,0:0:0:0:
207,305,200156,6,0,P|249:305|291:311,1,83.9999974365235,2|0,3:2|0:0,0:0:0:0:
400,326,200604,1,10,0:2:0:0:
466,239,200828,2,0,B|406:236|406:236|402:233|402:233|341:227,1,125.999996154785,2|0,3:2|0:0,0:0:0:0:
295,219,201275,1,2,3:2:0:0:
295,219,201387,1,2,0:0:0:0:
295,219,201499,2,0,P|280:232|261:242,2,41.9999987182618,10|2|2,0:2|0:0|3:2,0:0:0:0:
351,127,201947,5,2,3:2:0:0:
351,127,202059,1,2,0:0:0:0:
351,127,202171,1,2,0:0:0:0:
459,135,202395,1,10,0:2:0:0:
493,30,202619,2,0,P|430:40|367:41,1,125.999996154785,2|0,3:2|0:0,0:0:0:0:
313,46,203066,2,0,P|279:21|238:12,2,83.9999974365235,2|10|2,3:2|0:2|0:2,0:0:0:0:
329,154,203738,6,0,P|301:185|263:201,1,83.9999974365235,2|2,3:2|0:2,0:0:0:0:
211,207,204074,1,2,0:0:0:0:
211,207,204186,1,10,0:2:0:0:
145,119,204410,1,2,3:2:0:0:
37,135,204634,2,0,P|43:176|44:218,1,83.9999974365235,2|0,0:2|3:2,0:0:0:0:
35,327,205081,1,10,0:2:0:0:
136,286,205305,1,2,3:2:0:0:
230,359,205529,5,2,3:2:0:0:
230,359,205641,1,2,0:0:0:0:
230,359,205753,1,2,0:0:0:0:
250,251,205977,2,0,P|247:209|248:167,1,83.9999974365235,10|0,0:2|0:0,0:0:0:0:
300,70,206425,1,2,0:2:0:0:
407,48,206649,1,2,3:2:0:0:
485,122,206872,1,10,0:2:0:0:
482,231,207096,6,0,B|388:229|421:170|331:170,1,167.999994873047,2|0,3:2|0:0,0:0:0:0:
240,231,207768,1,8,0:0:0:0:
232,250,207880,1,0,0:0:0:0:
231,271,207992,1,2,0:2:0:0:
235,291,208104,1,0,0:0:0:0:
242,309,208216,2,0,P|258:323|277:333,3,41.9999987182618,2|0|0|0,3:2|3:0|0:0|0:0,3:0:0:0:
330,339,208663,2,0,P|390:319|453:312,1,125.999996154785,10|0,0:1|0:0,0:0:0:0:
506,318,209111,5,6,3:2:0:0:
439,231,209335,1,2,0:2:0:0:
477,131,209559,1,10,0:2:0:0:
477,131,209783,1,2,3:2:0:0:
441,27,210007,2,0,P|389:62|366:119,1,125.999996154785,2|0,0:2|0:0,0:0:0:0:
370,174,210455,2,0,P|378:214|376:256,1,83.9999974365235,10|2,0:2|0:2,0:0:0:0:
303,337,210902,5,2,3:2:0:0:
207,284,211126,2,0,P|178:315|140:328,1,83.9999974365235,2|8,0:2|0:2,0:0:0:0:
30,334,211574,2,0,B|24:276|64:276|59:213,1,125.999996154785,2|0,3:2|0:0,0:0:0:0:
54,167,212022,1,2,3:2:0:0:
54,167,212134,1,2,0:0:0:0:
54,166,212246,2,0,P|33:172|12:175,2,41.9999987182618,10|2|2,0:2|0:0|0:2,0:0:0:0:
119,79,212693,5,2,3:2:0:0:
192,159,212917,1,2,0:2:0:0:
299,127,213141,1,10,0:2:0:0:
299,127,213365,1,2,3:2:0:0:
324,20,213589,2,0,P|377:54|403:111,1,125.999996154785,2|0,0:2|0:0,0:0:0:0:
378,160,214037,2,0,P|346:185|327:222,1,83.9999974365235,10|2,0:2|0:2,0:0:0:0:
298,328,214484,6,0,P|340:322|382:320,1,83.9999974365235,2|0,3:2|0:0,0:0:0:0:
488,345,214932,1,10,0:2:0:0:
450,242,215156,2,0,B|446:198|446:198|467:163|467:163|462:122,1,125.999996154785,2|0,3:2|0:0,0:0:0:0:
459,74,215604,1,2,3:2:0:0:
459,74,215716,1,2,0:0:0:0:
459,74,215828,2,0,P|479:73|500:68,2,41.9999987182618,10|2|2,0:2|0:0|3:2,0:0:0:0:
363,43,216275,5,2,3:2:0:0:
363,43,216387,1,2,0:0:0:0:
363,43,216499,1,2,0:0:0:0:
256,66,216723,1,10,0:2:0:0:
326,148,216947,2,0,P|250:177|175:143,1,167.999994873047,2|2,3:2|3:2,0:0:0:0:
119,49,217619,1,10,0:2:0:0:
44,129,217843,1,2,0:2:0:0:
103,219,218066,6,0,P|105:260|106:302,1,83.9999974365235,2|2,3:2|0:2,0:0:0:0:
106,361,218402,1,2,0:0:0:0:
106,361,218514,1,10,0:2:0:0:
194,298,218738,1,2,3:2:0:0:
294,341,218962,2,0,P|303:300|295:259,1,83.9999974365235,2|0,0:2|3:2,0:0:0:0:
236,166,219410,1,10,0:2:0:0:
290,71,219634,1,2,3:2:0:0:
404,97,219857,5,2,3:2:0:0:
404,97,219969,1,2,0:0:0:0:
404,97,220081,1,2,0:0:0:0:
483,21,220305,2,0,P|481:63|481:105,1,83.9999974365235,10|0,0:2|0:0,0:0:0:0:
487,215,220753,1,2,0:2:0:0:
390,265,220977,1,2,3:2:0:0:
300,202,221201,1,10,0:2:0:0:
227,323,221425,6,0,B|194:355|148:320|148:320|155:262|204:260|204:260|222:163|136:96|47:128|4:175|-4:241|30:306|78:322,1,587.999982055665,6|0,3:2|0:0,0:0:0:0:
288,264,223440,6,0,P|307:294|312:328,2,70,2|2|2,0:2|0:2|0:2,0:0:0:0:
270,168,224111,2,0,B|196:175|224:218|145:223,1,140,2|2,0:2|0:2,0:0:0:0:
6,135,225007,1,2,0:2:0:0:
153,58,225455,2,0,P|143:91|141:126,1,70,2|2,0:2|0:2,0:0:0:0:
145,222,225902,1,2,0:2:0:0:
325,363,226574,6,0,P|336:329|336:295,1,70,2|2,0:2|0:2,0:0:0:0:
303,202,227022,2,0,P|290:169|290:134,2,70,2|2|2,0:2|0:2|0:2,0:0:0:0:
397,228,227693,2,0,P|451:187|459:119,1,140,2|2,0:2|0:2,0:0:0:0:
313,45,228589,6,0,B|271:35|231:60|231:60|200:53|200:53|162:80|112:63,1,210,2|2,0:2|0:2,0:0:0:0:
15,45,229484,1,2,0:2:0:0:
23,210,229932,1,2,3:2:0:0:
102,152,230156,1,8,0:2:0:0:
115,257,230380,1,8,0:2:0:0:
208,311,230604,6,0,P|245:316|283:311,2,77.0000023498536,2|2|10,3:2|0:2|0:2,0:0:0:0:
115,257,231275,2,0,B|126:220|126:220|196:190|196:190|207:152,1,154.000004699707,2|2,3:2|3:2,0:0:0:0:
156,56,231947,1,8,0:2:0:0:
258,21,232171,6,0,P|285:47|321:62,1,77.0000023498536,2|0,0:2|3:2,0:0:0:0:
429,57,232619,1,2,0:2:0:0:
480,151,232843,1,10,0:2:0:0:
398,222,233066,2,0,B|320:218|356:166|263:160,1,154.000004699707,2|0,3:2|3:2,0:0:0:0:
155,156,233738,1,10,0:2:0:0:
111,267,233962,5,2,3:2:0:0:
111,267,234074,1,2,0:0:0:0:
111,267,234186,1,6,3:2:0:0:
214,319,234410,1,2,0:2:0:0:
314,262,234634,1,10,0:2:0:0:
416,313,234857,2,0,P|412:255|420:198,1,115.50000352478,2|2,3:2|0:0,3:0:0:0:
438,153,235305,1,10,0:2:0:0:
438,153,235529,1,10,0:2:0:0:
353,48,235753,5,6,3:2:0:0:
256,192,235865,12,0,242246,0:0:0:0:
