osu file format v14

[General]
AudioFilename: audio.mp3
AudioLeadIn: 0
PreviewTime: 48790
Countdown: 0
SampleSet: Soft
StackLeniency: 0.7
Mode: 0
LetterboxInBreaks: 0
WidescreenStoryboard: 0

[Editor]
Bookmarks: 16540,30940,48940,63340,77740,84940,89440
DistanceSpacing: 1.6
BeatDivisor: 6
GridSize: 4
TimelineZoom: 1

[Metadata]
Title:Hoshi Furu Sora Aogi Mite TV ver.
TitleUnicode:星降る空仰ぎ見て TV ver.
Artist:Suara
ArtistUnicode:Suara
Creator:Pata-Mon
Version:Hard
Source:うたわれるもの 偽りの仮面
Tags:Shad0w1and Binguo Utawarerumono Itsuwari no Kamen Anime ED ending size AQUAPLUS
BeatmapID:948666
BeatmapSetID:440987

[Difficulty]
HPDrainRate:5
CircleSize:4
OverallDifficulty:6
ApproachRate:7
SliderMultiplier:2.5
SliderTickRate:1

[Events]
//Background and Video events
0,0,"BG.jpg",0,0
Video,0,"video.flv"
//Break Periods
//Storyboard Layer 0 (Background)
//Storyboard Layer 1 (Fail)
//Storyboard Layer 2 (Pass)
//Storyboard Layer 3 (Foreground)
//Storyboard Sound Samples

[TimingPoints]
2140,900.0000009,4,2,1,25,1,0
2140,-166.666666666667,4,2,1,25,0,0
16540,-100,4,2,1,30,0,0
23740,-100,4,2,1,35,0,0
48940,-83.3333333333333,4,2,1,60,0,1
62740,-83.3333333333333,4,2,1,30,0,1
63340,-83.3333333333333,4,2,1,60,0,1
82690,-83.3333333333333,4,2,1,30,0,1
83140,-83.3333333333333,4,2,1,60,0,1
84940,-100,4,2,1,60,0,0
85090,-100,4,2,1,5,0,0

[Colours]
Combo1 : 0,63,192
Combo2 : 255,175,0
Combo3 : 0,127,255
Combo4 : 242,24,57

[HitObjects]
263,168,2140,5,2,0:0:0:0:
149,238,3940,1,2,0:0:0:0:
263,168,5740,5,2,0:0:0:0:
149,238,7540,1,2,0:0:0:0:
267,302,9340,5,2,0:0:0:0:
401,302,11140,2,0,P|380:231|326:181,1,149.999995422363,2|0,0:0|0:0,0:0:0:0:
267,302,12940,6,0,P|192:181|267:61,1,299.999990844727,2|2,0:0|0:0,0:0:0:0:
326,181,15640,1,0,0:0:0:0:
159,368,16540,5,2,0:0:0:0:
104,304,16840,1,0,0:0:0:0:
131,225,17140,1,0,0:0:0:0:
77,161,17440,1,0,0:0:0:0:
162,142,17740,2,0,P|195:116|217:82,1,83.3333333333333
77,161,18340,5,2,0:0:0:0:
131,225,18640,1,0,0:0:0:0:
214,210,18940,1,0,0:0:0:0:
242,130,19240,1,0,0:0:0:0:
297,195,19540,2,0,P|313:232|315:274,1,83.3333333333333
242,130,20140,5,2,0:0:0:0:
325,115,20440,1,0,0:0:0:0:
353,36,20740,1,0,0:0:0:0:
436,21,21040,1,0,0:0:0:0:
404,98,21340,2,0,P|370:73|353:36,1,83.3333333333333
479,131,21940,5,2,0:0:0:0:
410,178,22240,1,0,0:0:0:0:
326,178,22540,1,0,0:0:0:0:
257,131,22840,1,0,0:0:0:0:
368,105,23140,2,0,P|351:67|322:37,1,83.3333333333333
349,201,23740,6,0,P|427:181|465:110,1,166.666666666667,2|0,0:0|0:0,0:0:0:0:
464,11,24640,1,0,0:0:0:0:
368,105,24940,1,0,0:0:0:0:
280,57,25240,1,0,0:0:0:0:
349,201,25540,6,0,P|309:273|244:324,1,166.666666666667,2|0,0:0|0:0,0:0:0:0:
177,252,26440,2,0,P|142:229|101:223,2,83.3333333333333
13,178,27340,5,2,0:0:0:0:
101,223,27640,1,0,0:0:0:0:
106,322,27940,1,0,0:0:0:0:
96,124,28240,5,2,0:0:0:0:
101,223,28540,1,0,0:0:0:0:
189,268,28840,1,0,0:0:0:0:
180,71,29140,5,2,0:0:0:0:
96,124,29440,1,0,0:0:0:0:
268,116,29740,1,0,0:0:0:0:
180,71,30040,5,2,0:0:0:0:
352,63,30340,1,2,0:0:0:0:
173,292,30940,5,6,0:0:0:0:
105,218,31240,1,0,0:0:0:0:
105,118,31540,1,0,0:0:0:0:
234,99,31840,2,0,P|218:137|190:167,1,83.3333333333333,2|0,0:0|0:0,0:0:0:0:
105,218,32440,1,0,0:0:0:0:
256,244,32740,6,0,P|297:240|336:225,1,83.3333333333333,6|0,0:0|0:0,0:0:0:0:
463,173,33340,2,0,P|421:169|382:154,1,83.3333333333333,2|0,0:0|0:0,0:0:0:0:
256,101,33940,2,0,P|297:97|336:82,1,83.3333333333333,2|0,0:0|0:0,0:0:0:0:
461,28,34540,6,0,P|469:109|429:181,1,166.666666666667,6|0,0:0|0:0,0:0:0:0:
300,255,35440,2,0,P|258:248|220:232,1,83.3333333333333,2|0,0:0|0:0,0:0:0:0:
134,180,36040,1,0,0:0:0:0:
300,170,36340,6,0,P|307:129|325:91,1,83.3333333333333,6|0,0:0|0:0,0:0:0:0:
392,16,36940,1,0,0:0:0:0:
258,16,37240,1,2,0:0:0:0:
190,91,37540,1,0,0:0:0:0:
154,184,37840,1,0,0:0:0:0:
87,55,38140,6,0,P|47:48|5:45,1,83.3333333333333,6|0,0:0|0:0,0:0:0:0:
176,7,38740,2,0,P|216:14|258:16,1,83.3333333333333
153,105,39340,2,0,P|115:86|88:55,1,83.3333333333333,2|0,0:0|0:0,0:0:0:0:
250,128,39940,6,0,P|231:165|200:192,1,83.3333333333333,6|0,0:0|0:0,0:0:0:0:
346,101,40540,2,0,P|364:63|395:37,1,83.3333333333333
321,198,41140,1,2,0:0:0:0:
250,128,41440,1,0,0:0:0:0:
417,171,41740,6,0,P|436:207|444:248,2,83.3333333333333,6|0|0,0:0|0:0|0:0,0:0:0:0:
250,128,42640,2,0,P|167:114|84:109,1,166.666666666667,2|0,0:0|0:0,0:0:0:0:
20,271,43540,5,6,0:0:0:0:
94,337,43840,1,0,0:0:0:0:
188,368,44140,1,0,0:0:0:0:
324,271,44440,5,6,0:0:0:0:
279,182,44740,1,0,0:0:0:0:
274,83,45040,1,0,0:0:0:0:
438,53,45340,5,6,0:0:0:0:
256,192,45490,12,6,48040,0:0:0:0:
355,59,48940,6,0,P|255:71|156:59,1,199.999993896485,4|0,0:0|0:0,0:0:0:0:
12,18,49840,2,0,P|7:67|18:116,1,99.9999969482423,8|0,0:0|0:0,0:0:0:0:
69,225,50440,1,0,0:0:0:0:
226,285,50740,6,0,P|231:236|251:191,1,99.9999969482423,4|0,0:0|0:0,0:0:0:0:
322,69,51340,1,8,0:0:0:0:
181,69,51640,1,8,0:0:0:0:
251,191,51940,1,0,0:0:0:0:
322,69,52240,1,0,0:0:0:0:
379,245,52540,6,0,P|312:316|214:325,1,199.999993896485,4|0,0:0|0:0,0:0:0:0:
86,269,53439,1,0,0:0:0:0:
87,75,53740,1,0,0:0:0:0:
16,171,54040,1,8,0:0:0:0:
201,113,54340,6,0,P|242:140|273:179,1,99.9999969482423,4|0,0:0|0:0,0:0:0:0:
240,295,54940,1,0,0:0:0:0:
201,113,55240,2,0,P|286:63|385:60,1,199.999993896485,8|0,0:0|0:0,0:0:0:0:
341,255,56139,5,4,0:0:0:0:
499,281,56440,1,0,0:0:0:0:
363,366,56740,1,8,0:0:0:0:
396,169,57040,1,8,0:0:0:0:
260,254,57340,1,0,0:0:0:0:
418,280,57640,1,8,0:0:0:0:
236,363,57940,6,0,P|186:355|142:332,1,99.9999969482423,12|0,0:0|0:0,0:0:0:0:
12,258,58540,2,0,P|43:219|85:192,1,99.9999969482423,0|8,0:0|0:0,0:0:0:0:
233,213,59140,1,0,0:0:0:0:
142,332,59440,1,0,0:0:0:0:
359,294,59740,6,0,P|382:199|342:110,1,199.999993896485,4|0,0:0|0:0,0:0:0:0:
163,219,60640,2,0,P|122:129|146:34,1,199.999993896485,4|0,0:0|0:0,0:0:0:0:
342,110,61540,5,4,0:0:0:0:
412,219,61840,1,0,0:0:0:0:
374,343,62140,1,0,0:0:0:0:
232,232,62440,1,8,0:0:0:0:
411,219,62740,2,0,P|435:211|454:195,1,49.9999984741211
484,126,63040,2,0,P|489:102|486:77,1,49.9999984741211
414,98,63339,6,0,P|367:84|317:78,1,99.9999969482423,4|0,0:0|0:0,0:0:0:0:
168,79,63940,1,0,0:0:0:0:
297,4,64240,1,8,0:0:0:0:
298,153,64540,2,0,P|266:192|223:218,1,99.9999969482423
51,253,65140,5,4,0:0:0:0:
155,322,65440,1,0,0:0:0:0:
120,149,65740,1,8,0:0:0:0:
224,218,66040,1,8,0:0:0:0:
232,93,66340,2,0,P|201:54|157:29,1,99.9999969482423
359,131,66940,5,4,0:0:0:0:
246,186,67240,2,0,P|276:224|320:249,1,99.9999969482423,0|8,0:0|0:0,0:0:0:0:
485,135,67840,1,8,0:0:0:0:
359,131,68140,2,0,P|367:179|394:221,1,99.9999969482423
246,186,68740,5,4,0:0:0:0:
146,269,69040,1,0,0:0:0:0:
268,314,69340,1,8,0:0:0:0:
124,141,69640,5,12,0:0:0:0:
246,186,69940,1,0,0:0:0:0:
146,269,70240,1,8,0:0:0:0:
224,57,70540,6,0,P|323:57|420:79,1,199.999993896485,12|0,0:0|0:0,0:0:0:0:
490,190,71440,1,0,0:0:0:0:
286,243,71740,1,8,0:0:0:0:
407,291,72040,1,8,0:0:0:0:
291,110,72340,6,0,P|196:82|96:77,1,199.999993896485,4|0,0:0|0:0,0:0:0:0:
291,110,73240,2,0,P|326:74|344:27,1,99.9999969482423,8|0,0:0|0:0,0:0:0:0:
172,163,73840,1,8,0:0:0:0:
364,216,74140,6,0,P|385:262|392:311,1,99.9999969482423,12|0,0:0|0:0,0:0:0:0:
231,271,74740,2,0,P|210:316|203:365,1,99.9999969482423,0|8,0:0|0:0,0:0:0:0:
79,316,75340,1,0,0:0:0:0:
48,190,75640,1,0,0:0:0:0:
231,271,75940,6,0,P|181:274|134:257,1,99.9999969482423,4|0,0:0|0:0,0:0:0:0:
200,145,76540,1,8,0:0:0:0:
355,307,76840,1,8,0:0:0:0:
324,181,77140,1,0,0:0:0:0:
231,271,77440,1,0,0:0:0:0:
403,373,77740,6,0,P|462:294|481:196,1,199.999993896485,4|0,0:0|0:0,0:0:0:0:
463,47,78640,1,0,0:0:0:0:
324,181,78940,1,8,0:0:0:0:
306,32,79240,1,0,0:0:0:0:
167,165,79540,6,0,P|135:204|114:249,1,99.9999969482423,12|0,0:0|0:0,0:0:0:0:
230,356,80140,1,8,0:0:0:0:
324,180,80440,2,0,P|303:84|229:20,1,199.999993896485,4|8,0:0|0:0,0:0:0:0:
66,180,81340,6,0,L|166:166,1,99.9999969482423,4|0,0:0|0:0,0:0:0:0:
16,108,81940,1,0,0:0:0:0:
41,266,82240,1,0,0:0:0:0:
249,153,82540,2,0,L|265:105,1,49.9999984741211,8|0,0:0|0:0,0:0:0:0:
339,90,82840,2,0,L|322:42,1,49.9999984741211
248,33,83140,6,0,P|198:26|148:30,2,99.9999969482423,4|0|0,0:0|0:0|0:0,0:0:0:0:
346,184,84040,2,0,P|411:109|427:12,1,199.999993896485,8|0,0:0|0:0,0:0:0:0:
249,153,84940,5,4,0:0:0:0:
256,192,85090,12,0,89440,0:0:0:0:
