osu file format v14

[General]
AudioFilename: audio.mp3
AudioLeadIn: 0
PreviewTime: 157150
Countdown: 0
SampleSet: Soft
StackLeniency: 0.7
Mode: 0
LetterboxInBreaks: 0
WidescreenStoryboard: 1

[Editor]
Bookmarks: 216372
DistanceSpacing: 1
BeatDivisor: 4
GridSize: 4
TimelineZoom: 1.8

[Metadata]
Title:Hikari
TitleUnicode:星灯
Artist:Suara
ArtistUnicode:Suara
Creator:Iceskulls
Version:Easy
Source:うたわれるもの 二人の白皇
Tags:utawarerumono mask of truth futari no hakuoro full opening op hoshiakari japanese pop video game visual novel aquaplus
BeatmapID:2304073
BeatmapSetID:1100497

[Difficulty]
HPDrainRate:2
CircleSize:3
OverallDifficulty:2
ApproachRate:3
SliderMultiplier:0.899999999999999
SliderTickRate:1

[Events]
//Background and Video events
0,0,"hoshiakari.jpg",0,0
//Break Periods
2,202350,207821
//Storyboard Layer 0 (Background)
//Storyboard Layer 1 (Fail)
//Storyboard Layer 2 (Pass)
//Storyboard Layer 3 (Foreground)
//Storyboard Layer 4 (Overlay)
//Storyboard Sound Samples

[TimingPoints]
3040,444.444444444444,4,2,99,50,1,0
10151,-100,4,2,99,65,0,0
16151,-100,4,2,99,50,0,0
16373,-100,4,2,99,55,0,0
16595,-100,4,2,99,60,0,0
16817,-100,4,2,99,65,0,0
17262,-100,4,2,99,70,0,0
22595,-100,4,2,99,75,0,0
25262,444.444444444444,4,2,99,60,1,0
25484,-100,4,3,42,55,0,0
37706,-100,4,2,99,65,0,0
39484,-100,4,2,99,57,0,0
50150,-100,4,2,99,60,0,0
53706,-100,4,2,99,57,0,0
64150,-100,4,2,99,60,0,0
64595,-100,4,2,99,65,0,0
64817,-100,4,2,99,70,0,0
65039,-100,4,2,99,75,0,0
65261,-100,4,2,99,80,0,0
67817,-100,4,2,99,70,0,0
68817,-100,4,2,99,80,0,0
69706,-100,4,2,99,80,0,1
83817,-100,4,2,99,80,0,0
83928,-100,4,2,99,80,0,1
98150,-100,4,2,99,50,0,0
104372,-100,4,2,99,65,0,0
105261,-100,4,2,99,70,0,0
110595,-100,4,2,99,75,0,0
113261,444.444444444444,4,2,99,60,1,0
113483,-100,4,3,42,55,0,0
125705,-100,4,2,99,65,0,0
126372,-100,4,2,99,65,0,0
127483,-100,4,2,99,57,0,0
138149,-100,4,2,99,60,0,0
141705,-100,4,2,99,57,0,0
152149,-100,4,2,99,60,0,0
152594,-100,4,2,99,65,0,0
152816,-100,4,2,99,70,0,0
153038,-100,4,2,99,75,0,0
153260,-100,4,2,99,80,0,0
155816,-100,4,2,99,70,0,0
156816,-100,4,2,99,80,0,0
157705,-100,4,2,99,80,0,1
171816,-100,4,2,99,80,0,0
171927,-100,4,2,99,80,0,1
186149,-100,4,2,99,70,0,0
201705,-100,4,2,99,60,0,0
202150,-100,4,2,1,60,0,0
209260,-100,4,2,99,63,0,0
214594,-100,4,2,99,75,0,0
216372,-100,4,2,99,80,0,1
230594,-100,4,2,99,60,0,0
236816,-100,4,2,99,70,0,0
243038,-100,4,2,99,75,0,0
244816,-100,4,2,99,67,0,0

[Colours]
Combo1 : 53,154,255
Combo2 : 255,128,128
Combo3 : 47,255,255
Combo4 : 255,156,108

[HitObjects]
84,316,374,5,2,0:0:0:0:
255,364,1263,2,0,P|292:307|292:241,1,135,2|2,0:0|0:0,0:0:0:0:
272,16,3041,6,0,P|437:22|461:187,1,360,4|2,0:0|0:0,0:0:0:0:
461,186,6596,6,0,B|280:272|280:156|111:199,1,360,4|4,0:0|0:0,0:0:0:0:
110,199,9263,1,2,0:0:0:0:
280,136,10152,6,0,P|347:125|415:123,2,135,4|8|8,0:0|0:0|0:0,0:0:0:0:
200,176,11929,1,4,0:0:0:0:
344,284,12818,6,0,P|386:298|430:304,2,89.9999999999999,2|2|4,0:0|0:3|0:0,0:0:0:0:
168,240,14596,2,0,P|132:239|72:257,1,89.9999999999999,2|8,0:0|0:0,0:0:0:0:
63,339,15485,6,0,P|147:364|225:324,1,180,4|2,0:0|0:0,0:0:0:0:
268,244,16818,1,2,0:3:0:0:
248,155,17263,6,0,P|304:120|371:115,1,135,4|4,0:2|0:0,0:0:0:0:
444,232,18596,2,0,P|453:270|463:326,1,89.9999999999999,8|2,0:0|0:3,0:0:0:0:
288,272,19929,6,0,P|290:230|296:176,2,89.9999999999999,2|8|4,0:3|0:0|0:0,0:0:0:0:
168,208,21485,2,0,P|110:192|32:180,1,135,2|8,0:0|0:0,0:0:0:0:
12,268,22596,6,0,P|21:302|40:340,2,67.4999999999999,4|8|4,0:0|0:0|0:0,0:0:0:0:
32,72,25262,5,4,0:3:0:0:
96,188,25928,2,0,P|164:167|205:120,1,135,2|8,3:0|0:2,0:0:0:0:
256,48,27040,2,0,P|322:43|374:84,2,135,4|2|8,0:3|0:0|0:2,0:0:0:0:
176,88,28818,6,0,P|93:102|42:105,1,135,4|2,0:0|0:0,0:0:0:0:
124,212,30150,2,0,P|168:224|212:232,1,89.9999999999999,8|2,0:2|0:0,0:0:0:0:
344,264,31261,2,0,P|376:232|412:204,1,89.9999999999999,0|2,0:0|0:0,0:0:0:0:
508,108,32374,5,4,0:0:0:0:
384,52,33040,2,0,B|284:40|284:128|164:108,1,225,4|4,0:1|0:0,0:0:0:0:
60,36,34818,1,4,0:0:0:0:
32,260,35929,6,0,P|98:257|153:219,1,135,4|4,0:0|0:0,0:0:0:0:
336,88,37707,2,0,P|331:54|329:20,2,67.4999999999999,4|4|4,0:0|0:0|0:0,0:0:0:0:
176,248,39484,5,4,0:0:0:0:
300,304,40150,2,0,P|365:289|419:249,1,135,2|2,0:0|0:1,0:0:0:0:
444,164,41261,2,0,P|436:112|418:31,2,135,4|4|2,0:3|0:0|0:1,0:0:0:0:
364,212,43040,5,4,0:3:0:0:
244,144,43706,2,0,P|199:153|96:172,1,135,2|2,0:0|0:1,0:0:0:0:
36,224,44817,1,4,0:3:0:0:
143,303,45484,2,0,P|210:313|273:291,1,135,2|8,0:0|0:0,0:0:0:0:
344,228,46596,5,4,0:0:0:0:
451,308,47262,2,0,P|458:241|426:184,1,135,2|8,0:0|0:0,0:0:0:0:
346,136,48373,2,0,P|303:145|267:171,1,89.9999999999999,4|2,0:0|0:3,0:0:0:0:
115,271,49707,2,0,P|75:254|44:221,1,89.9999999999999,8|4,0:0|0:0,0:0:0:0:
24,84,50818,5,4,0:0:0:0:
173,184,51707,2,0,B|332:228|328:120|479:186,1,315,4|0,0:0|0:0,0:0:0:0:
440,272,53707,6,0,P|395:278|351:286,2,89.9999999999999,4|2|8,0:0|0:3|0:0,0:0:0:0:
484,96,55485,2,0,P|395:104|305:113,1,180,2|8,0:3|0:0,0:0:0:0:
124,140,57262,6,0,P|176:212|211:295,1,180,2|8,0:3|0:0,0:0:0:0:
392,332,59040,2,0,P|419:296|439:255,2,89.9999999999999,4|2|8,0:0|0:0|0:0,0:0:0:0:
296,180,60818,6,0,P|366:126|454:132,1,180,4|8,0:0|0:0,0:0:0:0:
336,280,62596,2,0,P|292:292|236:292,2,89.9999999999999,2|2|8,0:3|0:3|0:0,0:0:0:0:
464,152,64373,6,0,P|432:132|368:120,1,89.9999999999999,4|8,0:0|0:0,0:0:0:0:
300,164,65262,1,8,0:3:0:0:
176,104,65928,2,0,P|69:177|80:305,1,270,4|0,0:0|0:0,0:0:0:0:
216,332,67928,2,0,P|259:325|304:316,2,89.9999999999999,8|2|8,0:0|0:3|0:0,0:0:0:0:
128,304,69261,1,2,0:3:0:0:
192,236,69707,6,0,P|280:220|334:151,1,180,4|2,0:0|0:3,0:0:0:0:
364,68,71040,1,8,0:0:0:0:
276,44,71485,2,0,P|186:57|99:78,1,180,4|2,0:1|0:3,0:0:0:0:
32,244,73262,6,0,P|36:280|53:339,2,89.9999999999999,4|8|2,0:0|0:0|0:3,0:0:0:0:
72,164,74596,1,8,0:0:0:0:
158,196,75040,2,0,B|252:232|252:160|331:181,1,180,4|2,0:0|0:3,0:0:0:0:
488,272,76818,6,0,P|502:320|494:360,1,89.9999999999999,4|8,0:0|0:0,0:0:0:0:
408,336,77707,2,0,P|360:336|304:348,1,89.9999999999999,2|8,0:3|0:0,0:0:0:0:
232,364,78596,2,0,P|143:349|62:310,1,180,4|2,0:0|0:3,0:0:0:0:
24,136,80373,6,0,P|99:93|178:130,1,180,4|2,0:0|0:3,0:0:0:0:
264,159,81707,2,0,P|303:140|352:132,2,89.9999999999999,8|4|8,0:0|0:0|0:0,0:0:0:0:
196,220,83040,1,8,0:0:0:0:
24,168,83929,6,0,P|56:88|140:80,1,180,4|2,0:0|0:3,0:0:0:0:
224,116,85262,1,8,0:0:0:0:
312,112,85707,2,0,P|327:69|338:26,2,89.9999999999999,4|8|2,0:0|0:0|0:3,0:0:0:0:
144,176,87485,6,0,P|120:256|112:360,1,180,4|2,0:0|0:3,0:0:0:0:
200,344,88818,1,8,0:0:0:0:
284,380,89262,2,0,P|370:353|453:320,1,180,4|2,0:0|0:3,0:0:0:0:
476,140,91040,6,0,P|460:84|452:28,1,89.9999999999999,4|8,0:0|0:0,0:0:0:0:
368,32,91929,2,0,P|322:47|280:44,1,89.9999999999999,2|8,0:3|0:0,0:0:0:0:
192,44,92818,2,0,P|120:24|4:12,1,180,4|2,0:0|0:3,0:0:0:0:
24,192,94596,6,0,P|19:236|16:292,2,89.9999999999999,4|8|2,0:0|0:0|0:3,0:0:0:0:
180,128,96373,2,0,P|268:110|283:108,2,89.9999999999999,4|8|2,0:0|0:0|0:3,0:0:0:0:
40,212,98151,6,0,B|37:311|121:343|121:343|161:247|273:239,1,360,4|2,0:0|0:0,0:0:0:0:
432,324,100818,1,2,0:0:0:0:
498,161,101707,6,0,B|520:65|443:18|443:18|386:104|274:90,1,360,4|0,0:0|0:0,0:0:0:0:
99,47,104373,6,0,P|58:31|13:27,2,89.9999999999999,2|2|4,0:3|0:3|0:0,0:0:0:0:
220,108,105929,2,0,P|328:102|394:188,1,225,4|2,0:0|0:3,0:0:0:0:
264,312,107929,2,0,P|223:316|174:320,1,89.9999999999999,2|8,0:3|0:0,0:0:0:0:
84,308,108818,5,4,0:0:0:0:
16,192,109484,2,0,P|40:128|72:60,1,135,2|8,0:0|0:0,0:0:0:0:
152,40,110596,6,0,P|174:65|191:94,2,67.4999999999999,4|2|4,0:0|0:0|0:0,0:0:0:0:
280,272,113261,5,4,0:3:0:0:
344,156,113927,2,0,P|299:107|233:98,1,135,2|8,0:0|0:2,0:0:0:0:
156,148,115038,2,0,P|83:188|12:204,2,135,2|4|8,0:0|0:0|0:2,0:0:0:0:
216,80,116816,5,4,0:0:0:0:
343,123,117484,2,0,P|414:210|435:319,1,225,2|0,0:0|0:0,0:0:0:0:
307,360,119262,2,0,P|242:345|175:335,1,135,4|8,0:0|0:2,0:0:0:0:
88,356,120373,5,4,0:0:0:0:
16,243,121038,2,0,P|82:160|188:179,1,225,2|4,0:0|0:0,0:0:0:0:
292,268,122816,2,0,P|299:312|303:357,2,89.9999999999999,2|2|2,0:0|0:0|0:0,0:0:0:0:
256,92,124594,5,4,0:0:0:0:
432,232,125705,2,0,P|469:213|500:192,2,67.4999999999999,4|4|4,0:2|0:0|0:0,0:0:0:0:
216,296,127483,5,4,0:0:0:0:
320,208,128149,2,0,P|264:156|200:144,1,135,2|2,0:0|0:1,0:0:0:0:
116,160,129260,2,0,P|130:94|147:28,2,135,4|2|2,0:3|0:0|0:1,0:0:0:0:
92,244,131039,5,4,0:3:0:0:
212,312,131706,2,0,P|277:321|345:333,1,135,2|2,0:0|0:1,0:0:0:0:
432,364,132817,1,4,0:3:0:0:
488,196,133706,2,0,P|484:152|476:104,2,89.9999999999999,2|2|4,0:3|0:1|0:3,0:0:0:0:
360,236,135261,6,0,P|303:248|227:262,1,135,2|8,0:0|0:0,0:0:0:0:
136,256,136372,1,4,0:3:0:0:
44,156,137039,2,0,P|65:93|125:67,1,135,2|2,0:0|0:3,0:0:0:0:
212,88,138150,6,0,P|282:70|360:56,1,135,4|4,0:0|0:0,0:0:0:0:
476,181,139706,2,0,B|504:264|460:312|460:312|376:264|290:300,1,315,4|8,0:0|0:0,0:0:0:0:
208,336,141705,6,0,P|156:346|100:360,2,89.9999999999999,4|0|8,0:0|0:0|0:0,0:0:0:0:
379,284,143484,2,0,P|407:198|425:110,1,180,2|8,0:0|0:0,0:0:0:0:
264,32,145261,6,0,P|200:103|124:159,1,180,4|8,0:0|0:0,0:0:0:0:
39,259,147039,2,0,P|29:304|20:352,2,89.9999999999999,4|2|8,0:0|0:1|0:0,0:0:0:0:
208,328,148817,6,0,P|287:315|368:244,1,180,4|8,0:0|0:0,0:0:0:0:
452,96,150595,2,0,P|444:58|438:6,2,89.9999999999999,2|2|8,0:3|0:3|0:0,0:0:0:0:
292,184,152372,6,0,P|247:188|202:194,1,89.9999999999999,4|8,0:0|0:0,0:0:0:0:
128,244,153261,1,8,0:3:0:0:
24,159,153927,6,0,P|143:51|292:92,1,315,4|0,0:0|0:0,0:0:0:0:
360,128,155927,2,0,P|404:116|447:107,2,89.9999999999999,8|2|8,0:0|0:3|0:0,0:0:0:0:
280,172,157260,1,2,0:3:0:0:
196,135,157706,6,0,P|147:208|170:293,1,180,4|2,0:0|0:3,0:0:0:0:
256,328,159039,1,8,0:0:0:0:
348,344,159484,2,0,P|366:255|382:167,1,180,4|2,0:1|0:3,0:0:0:0:
244,56,161261,6,0,P|205:33|162:18,2,89.9999999999999,4|8|2,0:0|0:0|0:3,0:0:0:0:
336,80,162595,1,8,0:0:0:0:
424,52,163039,2,0,P|438:140|453:229,1,180,4|2,0:0|0:3,0:0:0:0:
300,316,164817,6,0,P|257:340|205:360,1,89.9999999999999,4|8,0:0|0:0,0:0:0:0:
136,312,165706,2,0,P|143:267|153:223,1,89.9999999999999,2|8,0:3|0:0,0:0:0:0:
108,140,166595,2,0,P|211:115|292:108,1,180,4|2,0:0|0:3,0:0:0:0:
452,176,168372,6,0,P|470:264|477:353,1,180,4|2,0:0|0:3,0:0:0:0:
388,332,169706,1,8,0:0:0:0:
300,352,170150,2,0,P|262:366|212:373,2,89.9999999999999,4|8|4,0:0|0:0|0:0,0:0:0:0:
344,176,171928,6,0,P|262:140|173:146,1,180,4|2,0:0|0:3,0:0:0:0:
100,200,173261,1,8,0:0:0:0:
76,288,173706,2,0,P|157:322|241:296,1,180,4|2,0:0|0:3,0:0:0:0:
380,168,175484,6,0,P|392:112|404:60,2,89.9999999999999,4|8|2,0:0|0:0|0:3,0:0:0:0:
352,256,176817,1,8,0:0:0:0:
276,208,177261,2,0,B|187:175|191:231|99:207,1,180,4|2,0:0|0:3,0:0:0:0:
72,36,179039,6,0,P|112:60|142:96,1,89.9999999999999,4|8,0:0|0:0,0:0:0:0:
232,92,179928,2,0,P|276:83|320:84,1,89.9999999999999,2|8,0:3|0:0,0:0:0:0:
400,132,180817,2,0,P|448:204|428:292,1,180,4|2,0:0|0:3,0:0:0:0:
248,332,182595,6,0,P|206:313|164:298,2,89.9999999999999,4|8|2,0:0|0:0|0:3,0:0:0:0:
400,240,184372,2,0,P|401:195|407:150,2,89.9999999999999,4|8|2,0:0|0:0|0:3,0:0:0:0:
216,212,186150,6,0,P|183:204|150:194,2,67.4999999999999,4|2|4,0:0|0:0|0:1,0:0:0:0:
436,200,187928,2,0,B|468:156|468:156|460:48,2,135,12|4|8,0:0|0:1|0:0,0:0:0:0:
348,168,189706,6,0,P|258:158|169:148,1,180,4|2,0:0|0:3,0:0:0:0:
44,24,191484,2,0,P|1:96|12:200,1,180,2|2,0:3|0:3,0:0:0:0:
84,240,192817,1,2,0:3:0:0:
168,208,193261,6,0,P|235:214|301:227,1,135,4|4,0:0|0:0,0:0:0:0:
476,96,195039,2,0,P|484:48|496:8,2,89.9999999999999,4|8|2,0:0|0:0|0:3,0:0:0:0:
412,264,196817,6,0,P|338:313|249:313,1,180,4|4,0:0|0:0,0:0:0:0:
104,200,198595,2,0,P|60:212|25:239,2,89.9999999999999,4|8|2,0:0|0:0|0:3,0:0:0:0:
184,244,199928,1,8,0:0:0:0:
256,192,200372,5,4,0:0:0:0:
256,192,200483,12,4,202150,0:1:0:0:
152,252,209261,6,0,P|143:185|146:117,1,135,4|8,0:0|0:0,0:0:0:0:
352,28,211039,2,0,P|351:95|335:160,1,135,4|2,0:0|0:3,0:0:0:0:
160,304,212817,6,0,B|96:184|200:184|159:42,1,270,4|8,0:0|0:0,0:0:0:0:
72,28,214594,5,0,0:0:0:0:
28,204,215483,1,4,0:0:0:0:
168,316,216372,6,0,P|212:323|256:332,1,89.9999999999999,4|2,0:0|0:3,0:0:0:0:
344,356,217261,2,0,P|372:312|400:280,1,89.9999999999999,2|8,0:3|0:0,0:0:0:0:
448,208,218150,2,0,P|367:172|282:196,1,180,4|2,0:0|0:3,0:0:0:0:
112,256,219928,6,0,P|70:178|96:95,1,180,4|2,0:0|0:3,0:0:0:0:
268,36,221706,2,0,P|320:28|380:28,2,89.9999999999999,4|8|2,0:0|0:0|0:3,0:0:0:0:
104,108,223484,6,0,P|162:174|249:188,1,180,4|2,0:0|0:3,0:0:0:0:
420,128,225261,2,0,P|428:79|436:39,2,89.9999999999999,4|8|2,0:0|0:0|0:3,0:0:0:0:
412,216,226595,1,8,0:0:0:0:
360,288,227039,6,0,P|316:293|273:281,2,89.9999999999999,4|8|2,0:0|0:0|0:3,0:0:0:0:
472,148,228817,2,0,P|455:106|420:78,2,89.9999999999999,4|8|2,0:0|0:0|0:3,0:0:0:0:
312,232,230595,6,0,B|271:230|235:206|235:206|223:246|171:278,2,180,4|2|2,0:0|0:3|0:3,0:0:0:0:
496,268,233261,1,2,0:3:0:0:
340,180,234150,6,0,B|342:139|366:103|366:103|326:91|294:39,2,180,4|2|4,0:0|0:3|0:0,0:0:0:0:
388,356,236817,1,8,0:0:0:0:
224,284,237706,6,0,P|156:285|89:292,1,135,4|4,0:0|0:0,0:0:0:0:
28,172,239039,2,0,P|42:114|60:64,1,89.9999999999999,8|2,0:0|0:3,0:0:0:0:
216,12,240372,6,0,P|285:68|373:67,1,180,2|4,0:3|0:0,0:0:0:0:
472,156,241928,2,0,P|489:216|512:308,1,135,4|4,0:0|0:0,0:0:0:0:
432,336,243039,6,0,P|398:334|366:324,2,67.4999999999999,4|4|4,0:0|0:0|0:0,0:0:0:0:
412,248,244150,1,4,0:0:0:0:
300,176,244817,6,0,P|228:160|177:192,1,135,12|4,0:0|0:0,0:0:0:0:
96,296,246150,2,0,P|51:296|15:271,1,89.9999999999999,8|12,0:0|0:0,0:0:0:0:
52,144,247261,2,0,B|176:108|176:108|224:164,1,202.5,8|2,0:0|0:0,0:0:0:0:
