osu file format v14

[General]
AudioFilename: audio.mp3
AudioLeadIn: 0
PreviewTime: 77
Countdown: 0
SampleSet: Soft
StackLeniency: 0.3
Mode: 0
LetterboxInBreaks: 0
WidescreenStoryboard: 1

[Editor]
Bookmarks: 618,11052,24096,44965,65835,76270,86704,97139,104965,115400,125835,136270,157139,167574,178009,188444,196270,217139,219748,230183,240617
DistanceSpacing: 1.6
BeatDivisor: 8
GridSize: 32
TimelineZoom: 1.179681

[Metadata]
Title:Hanakotoba
TitleUnicode:花詞
Artist:Suara
ArtistUnicode:Suara
Creator:ImpurePug
Version:Blossom
Source:痕 -きずあと-
Tags:axarious leaf aquaplus SHINO kushiko 衣笠道雄 kinugasa michio eroge visual novel japanese pop
BeatmapID:3183504
BeatmapSetID:1558510

[Difficulty]
HPDrainRate:6
CircleSize:4.6
OverallDifficulty:7.2
ApproachRate:8.4
SliderMultiplier:3.2
SliderTickRate:1

[Events]
//Background and Video events
0,0,"bg1.jpg",0,0
//Break Periods
//Storyboard Layer 0 (Background)
//Storyboard Layer 1 (Fail)
//Storyboard Layer 2 (Pass)
//Storyboard Layer 3 (Foreground)
//Storyboard Layer 4 (Overlay)
//Storyboard Sound Samples

[TimingPoints]
476,652.173913043478,4,2,1,40,1,0
1046,-76.9230769230769,4,2,1,40,0,0
1780,-100,4,2,1,40,0,0
2432,-138.888888888889,4,2,1,40,0,0
3084,-138.888888888889,4,2,3,20,0,0
3410,-138.888888888889,4,2,1,40,0,0
5041,-100,4,2,1,40,0,0
5367,-125,4,2,1,40,0,0
5693,-117.647058823529,4,2,2,20,0,0
6263,-117.647058823529,4,2,1,20,0,0
6345,-107.52688172043,4,2,1,40,0,0
7323,-133.333333333333,4,2,1,40,0,0
7649,-147.058823529412,4,2,1,40,0,0
8302,-133.333333333333,4,2,3,20,0,0
8791,-133.333333333333,4,2,1,20,0,0
8954,-86.9565217391304,4,2,1,40,0,0
9932,-105.263157894737,4,2,1,40,0,0
10258,-83.3333333333333,4,2,1,50,0,0
10584,-111.111111111111,4,2,1,55,0,0
10910,-86.9565217391304,4,2,1,60,0,0
11562,-68.9655172413793,4,2,1,60,0,0
12215,-66.6666666666667,4,2,1,55,0,0
12541,-79.6812749003984,4,2,1,55,0,0
12867,-81.9672131147541,4,2,1,50,0,0
13519,-83.3333333333333,4,2,3,50,0,0
13845,-83.3333333333333,4,2,1,50,0,0
15475,-100,4,2,1,45,0,0
16128,-153.846153846154,4,2,1,40,0,0
16780,-100,4,2,1,40,0,0
17432,-86.9565217391304,4,2,1,45,0,0
18084,-133.333333333333,4,2,1,40,0,0
18736,-166.666666666667,4,2,3,40,0,0
18980,-166.666666666667,4,2,1,40,0,0
19062,-100,4,2,1,40,0,0
19389,-80,4,2,1,50,0,0
19715,-125,4,2,1,65,0,0
21345,-200,4,2,1,45,0,0
21997,-100,4,2,1,40,0,0
22323,-166.666666666667,4,2,1,40,0,0
24932,-200,4,2,1,40,0,0
25258,-250,4,2,1,35,0,0
26562,-250,4,2,3,20,0,0
27051,-250,4,2,1,20,0,0
27541,-125,4,2,1,40,0,0
27867,-125,4,2,2,15,0,0
28193,-111.111111111111,4,2,1,40,0,0
28845,-100,4,2,1,55,0,0
29171,-83.3333333333333,4,2,1,40,0,0
29823,-125,4,2,1,40,0,0
30475,-100,4,2,1,40,0,0
30802,-333.333333333333,4,2,1,40,0,0
30965,-333.333333333333,4,2,1,20,0,0
31128,-400,4,2,1,40,0,0
31291,-400,4,2,1,20,0,0
31780,-125,4,2,3,20,0,0
32350,-125,4,2,1,20,0,0
32432,-125,4,2,1,40,0,0
32758,-83.3333333333333,4,2,1,50,0,0
33084,-133.333333333333,4,2,2,40,0,0
33247,-133.333333333333,4,2,1,35,0,0
33410,-133.333333333333,4,2,1,30,0,0
33736,-133.333333333333,4,2,1,35,0,0
34062,-133.333333333333,4,2,1,45,0,0
34389,-285.714285714286,4,2,1,45,0,0
35041,-100,4,2,1,40,0,0
35693,-133.333333333333,4,2,1,40,0,0
36019,-147.058823529412,4,2,1,40,0,0
36345,-200,4,2,1,40,0,0
36997,-250,4,2,3,20,0,0
37567,-250,4,2,1,20,0,0
37649,-100,4,2,1,40,0,0
37975,-133.333333333333,4,2,1,40,0,0
38628,-105.263157894737,4,2,1,40,0,0
38954,-105.263157894737,4,2,1,50,0,0
39280,-86.9565217391304,4,2,1,50,0,0
39606,-83.3333333333333,4,2,1,40,0,0
40258,-100,4,2,1,35,0,0
40503,-100,4,2,1,20,0,0
40584,-125,4,2,1,45,0,0
40910,-100,4,2,1,40,0,0
41236,-133.333333333333,4,2,1,40,0,0
41399,-133.333333333333,4,2,1,30,0,0
41562,-250,4,2,1,40,0,0
42215,-166.666666666667,4,2,3,20,0,0
42704,-166.666666666667,4,2,1,20,0,0
42867,-83.3333333333333,4,2,1,40,0,0
43193,-100,4,2,1,40,0,0
43519,-200,4,2,1,40,0,0
44171,-100,4,2,1,50,0,0
44416,-100,4,2,1,30,0,0
44497,-76.9230769230769,4,2,1,55,0,0
44742,-76.9230769230769,4,2,1,35,0,0
44823,-133.333333333333,4,2,1,40,0,0
45475,-133.333333333333,4,2,1,45,0,0
45720,-133.333333333333,4,2,1,30,0,0
45802,-100,4,2,1,50,0,0
46046,-100,4,2,1,35,0,0
46128,-83.3333333333333,4,2,1,60,0,0
46780,-100,4,2,1,40,0,0
47024,-100,4,2,1,30,0,0
47106,-76.9230769230769,4,2,1,45,0,0
47350,-76.9230769230769,4,2,1,30,0,0
47432,-66.6666666666667,4,2,2,20,0,0
48002,-66.6666666666667,4,2,1,20,0,0
48084,-66.6666666666667,4,2,1,40,0,0
48329,-66.6666666666667,4,2,1,30,0,0
48410,-55.5555555555556,4,2,1,55,0,0
48655,-55.5555555555556,4,2,1,40,0,0
48736,-90.9090909090909,4,2,1,20,0,0
49062,-133.333333333333,4,2,1,45,0,0
49307,-133.333333333333,4,2,1,30,0,0
49389,-181.818181818182,4,2,1,35,0,0
49633,-181.818181818182,4,2,1,30,0,0
49715,-181.818181818182,4,2,1,35,0,0
50041,-181.818181818182,4,2,1,40,0,0
50367,-181.818181818182,4,2,1,30,0,0
50693,-181.818181818182,4,2,1,38,0,0
51019,-181.818181818182,4,2,1,45,0,0
51345,-333.333333333333,4,2,1,55,0,0
51916,-333.333333333333,4,2,1,30,0,0
51997,-133.333333333333,4,2,1,40,0,0
52242,-133.333333333333,4,2,1,25,0,0
52323,-166.666666666667,4,2,1,45,0,0
52568,-166.666666666667,4,2,1,30,0,0
52649,-86.9565217391304,4,2,3,20,0,0
53138,-86.9565217391304,4,2,1,20,0,0
53302,-80,4,2,1,50,0,0
53546,-80,4,2,1,30,0,0
53628,-76.9230769230769,4,2,1,60,0,0
53872,-83.3333333333333,4,2,1,40,0,0
54198,-83.3333333333333,4,2,1,25,0,0
54280,-80,4,2,1,45,0,0
54524,-80,4,2,1,30,0,0
54606,-156.25,4,2,1,40,0,0
54850,-156.25,4,2,1,25,0,0
54932,-133.333333333333,4,2,1,50,0,0
55095,-133.333333333333,4,2,1,35,0,0
55177,-133.333333333333,4,2,1,50,0,0
55258,-250,4,2,1,40,0,0
55910,-166.666666666667,4,2,1,50,0,0
56236,-133.333333333333,4,2,1,55,0,0
56481,-133.333333333333,4,2,1,30,0,0
56562,-125,4,2,1,60,0,0
56807,-125,4,2,1,35,0,0
56889,-125,4,2,1,60,0,0
57133,-125,4,2,1,35,0,0
57215,-111.111111111111,4,2,1,45,0,0
57459,-111.111111111111,4,2,1,30,0,0
57541,-111.111111111111,4,2,1,55,0,0
57785,-111.111111111111,4,2,1,40,0,0
57867,-66.6666666666667,4,2,2,35,0,0
58437,-66.6666666666667,4,2,1,20,0,0
58519,-83.3333333333333,4,2,1,55,0,0
58764,-83.3333333333333,4,2,1,30,0,0
58845,-74.0740740740741,4,2,1,65,0,0
59090,-74.0740740740741,4,2,1,35,0,0
59171,-166.666666666667,4,2,1,25,0,0
59497,-200,4,2,1,50,0,0
59742,-200,4,2,1,30,0,0
59823,-250,4,2,1,45,0,0
60068,-250,4,2,1,20,0,0
60149,-333.333333333333,4,2,1,40,0,0
61454,-333.333333333333,4,2,1,45,0,0
61780,-100,4,2,1,55,0,0
62432,-76.9230769230769,4,2,1,40,0,0
62758,-71.4285714285714,4,2,1,40,0,0
63084,-166.666666666671,4,2,1,40,0,0
63329,-166.666666666671,4,2,1,20,0,0
63410,-99.9999999999999,4,2,1,45,0,0
63655,-99.9999999999999,4,2,1,25,0,0
63736,-68.9655172413773,4,2,1,65,0,0
63981,-68.9655172413773,4,2,1,35,0,0
64062,-100,4,2,1,40,0,0
64389,-250,4,2,1,40,0,0
64715,-105.263157894737,4,2,1,35,0,0
64959,-105.263157894737,4,2,1,25,0,0
65041,-80,4,2,1,55,0,0
65285,-80,4,2,1,35,0,0
65367,-66.6666666666667,4,2,1,65,0,0
65611,-66.6666666666667,4,2,1,40,0,0
65693,-111.111111111111,4,2,1,50,0,1
66345,-53.1914893617021,4,2,1,50,0,1
66997,-57.0450656018254,4,2,1,50,0,1
67649,-133.333333333333,4,2,1,50,0,1
68302,-133.333333333333,4,2,3,50,0,1
68628,-133.333333333333,4,2,1,50,0,1
69606,-250,4,2,1,50,0,1
70258,-100,4,2,1,50,0,1
70584,-133.333333333333,4,2,1,50,0,1
71562,-83.3333333333333,4,2,1,50,0,1
72541,-100,4,2,1,50,0,1
72867,-111.111111111111,4,2,1,50,0,1
73193,-153.846153846154,4,2,1,50,0,1
73519,-125,4,2,1,50,0,1
74171,-80,4,2,1,50,0,1
74497,-117.647058823529,4,2,1,50,0,1
74823,-58.8235294117647,4,2,1,50,0,1
75475,-100,4,2,1,50,0,1
76128,-181.818181818182,4,2,1,50,0,1
76780,-54.054054054054,4,2,1,50,0,1
77432,-58.8235294117647,4,2,1,50,0,1
78084,-133.333333333333,4,2,1,50,0,1
78736,-133.333333333333,4,2,3,50,0,1
79062,-133.333333333333,4,2,1,50,0,1
80041,-222.222222222222,4,2,1,50,0,1
80693,-100,4,2,1,50,0,1
81019,-133.333333333333,4,2,1,50,0,1
81997,-80,4,2,1,50,0,1
82649,-71.4285714285714,4,2,1,50,0,1
83302,-250,4,2,1,50,0,1
83954,-125,4,2,1,50,0,1
84280,-76.9230769230769,4,2,1,50,0,1
84932,-100,4,2,1,50,0,1
85258,-83.3333333333333,4,2,1,50,0,1
85584,-133.333333333333,4,2,1,50,0,1
86562,-133.333333333333,4,2,1,50,0,1
87215,-57.1428571428571,4,2,1,50,0,1
87867,-60.6060606060606,4,2,1,50,0,1
88519,-153.846153846154,4,2,1,50,0,1
89171,-153.846153846154,4,2,3,50,0,1
89497,-153.846153846154,4,2,1,50,0,1
90475,-250,4,2,1,50,0,1
91128,-100,4,2,1,50,0,1
91454,-166.666666666667,4,2,1,50,0,1
91780,-133.333333333333,4,2,1,50,0,1
92432,-83.3333333333333,4,2,1,50,0,1
93736,-80,4,2,1,50,0,1
94389,-66.6666666666667,4,2,1,50,0,1
94715,-55.5555555555556,4,2,1,50,0,1
95041,-57.1428571428571,4,2,1,50,0,1
95367,-83.3333333333333,4,2,1,50,0,1
95693,-55.5555555555556,4,2,1,50,0,1
96345,-83.3333333333333,4,2,1,50,0,1
96671,-90.9090909090909,4,2,1,50,0,1
96997,-111.111111111111,4,2,1,50,0,1
97649,-54.054054054054,4,2,1,50,0,1
98302,-57.1428571428571,4,2,1,50,0,1
98954,-133.333333333333,4,2,1,50,0,1
99606,-133.333333333333,4,2,3,50,0,1
99932,-133.333333333333,4,2,1,50,0,1
100910,-285.714285714286,4,2,1,50,0,1
101562,-100,4,2,1,50,0,1
101889,-133.333333333333,4,2,1,50,0,1
102215,-90.9090909090909,4,2,1,50,0,1
102867,-74.0740740740741,4,2,1,50,0,1
103519,-71.4285714285714,4,2,1,50,0,1
103845,-66.6666666666667,4,2,1,50,0,1
104171,-80,4,2,1,50,0,1
104823,-153.846153846154,4,2,1,40,0,0
106128,-166.666666666667,4,2,1,40,0,0
106454,-117.647058823529,4,2,1,40,0,0
106780,-90.9090909090909,4,2,1,40,0,0
107106,-76.9230769230769,4,2,1,40,0,0
107432,-100,4,2,1,40,0,0
108410,-117.647058823529,4,2,1,40,0,0
108736,-66.6666666666667,4,2,1,40,0,0
109389,-74.0740740740741,4,2,1,40,0,0
109715,-100,4,2,1,40,0,0
110041,-133.333333333333,4,2,4,40,0,0
111019,-86.9565217391304,4,2,1,40,0,0
111345,-111.111111111111,4,2,1,40,0,0
113628,-500,4,2,4,40,0,0
114280,-500,4,2,1,40,0,0
117215,-250,4,2,1,40,0,0
118519,-153.846153846154,4,2,1,40,0,0
119171,-133.333333333333,4,2,1,40,0,0
119823,-142.857142857143,4,2,1,40,0,0
120475,-111.111111111111,4,2,1,40,0,0
121128,-133.333333333333,4,2,1,40,0,0
121454,-90.9090909090909,4,2,1,45,0,0
121698,-90.9090909090909,4,2,1,35,0,0
121780,-111.111111111111,4,2,1,40,0,0
122106,-133.333333333333,4,2,1,40,0,0
122269,-133.333333333333,4,2,1,25,0,0
122432,-181.818181818182,4,2,1,45,0,0
122921,-181.818181818182,4,2,1,20,0,0
123084,-133.333333333333,4,2,1,50,0,0
123655,-133.333333333333,4,2,1,25,0,0
123736,-90.9090909090909,4,2,1,50,0,0
123899,-90.9090909090909,4,2,1,35,0,0
124062,-76.9230769230769,4,2,1,55,0,0
124307,-76.9230769230769,4,2,1,30,0,0
124389,-100,4,2,1,55,0,0
124633,-100,4,2,1,35,0,0
124715,-100,4,2,1,60,0,0
124959,-100,4,2,1,35,0,0
125041,-86.9565217391304,4,2,1,55,0,0
125285,-86.9565217391304,4,2,1,30,0,0
125367,-76.9230769230769,4,2,1,50,0,0
125611,-76.9230769230769,4,2,1,20,0,0
125693,-105.263157894737,4,2,1,45,0,0
126997,-200,4,2,1,40,0,0
128302,-153.846153846154,4,2,1,40,0,0
129280,-105.263157894737,4,2,1,40,0,0
129524,-105.263157894737,4,2,1,20,0,0
129606,-133.333333333333,4,2,1,40,0,0
129850,-133.333333333333,4,2,1,25,0,0
129932,-181.818181818181,4,2,1,45,0,0
130177,-181.818181818182,4,2,1,25,0,0
130258,-250,4,2,1,50,0,0
130503,-250,4,2,1,25,0,0
130584,-400,4,2,1,50,0,0
130910,-153.846153846154,4,2,1,45,0,0
131481,-153.846153846154,4,2,1,25,0,0
131562,-100,4,2,1,55,0,0
131725,-100,4,2,1,35,0,0
131889,-83.3333333333333,4,2,1,45,0,0
132133,-83.3333333333333,4,2,1,25,0,0
132215,-133.333333333333,4,2,1,40,0,0
132541,-117.647058823529,4,2,1,40,0,0
132704,-117.647058823529,4,2,1,30,0,0
132867,-100,4,2,1,50,0,0
133437,-100,4,2,1,30,0,0
133519,-83.3333333333333,4,2,1,45,0,0
134090,-83.3333333333333,4,2,1,25,0,0
134171,-117.647058823529,4,2,1,50,0,0
134416,-117.647058823529,4,2,1,30,0,0
134497,-153.846153846154,4,2,1,40,0,0
134660,-153.846153846154,4,2,1,30,0,0
134823,-153.846153846154,4,2,1,40,0,0
135149,-133.333333333333,4,2,1,45,0,0
135475,-100,4,2,1,50,0,0
135720,-100,4,2,1,25,0,0
135802,-83.3333333333333,4,2,1,45,0,0
136046,-83.3333333333333,4,2,1,20,0,0
136128,-166.666666666667,4,2,1,45,0,0
136780,-133.333333333333,4,2,1,55,0,0
137024,-133.333333333333,4,2,1,30,0,0
137106,-100,4,2,1,50,0,0
137350,-100,4,2,1,30,0,0
137432,-83.3333333333333,4,2,1,65,0,0
138003,-83.3333333333333,4,2,1,35,0,0
138084,-100,4,2,1,45,0,0
138329,-100,4,2,1,25,0,0
138410,-76.9230769230769,4,2,1,45,0,0
138655,-76.9230769230769,4,2,1,25,0,0
138736,-100,4,2,3,25,0,0
139306,-90.9090909090909,4,2,1,20,0,0
139388,-83.3333333333333,4,2,1,45,0,0
139714,-58.1395348837209,4,2,1,45,0,0
140040,-71.4285714285714,4,2,1,25,0,0
140366,-90.9090909090909,4,2,1,40,0,0
140693,-200,4,2,1,40,0,0
141671,-200,4,2,1,25,0,0
141997,-200,4,2,1,35,0,0
142649,-333.333333333333,4,2,1,45,0,0
143220,-333.333333333333,4,2,1,25,0,0
143301,-133.333333333333,4,2,1,45,0,0
143546,-133.333333333333,4,2,1,25,0,0
143627,-111.111111111111,4,2,1,55,0,0
143872,-111.111111111111,4,2,1,30,0,0
143954,-100,4,2,1,50,0,0
144524,-100,4,2,1,30,0,0
144606,-90.9090909090909,4,2,1,40,0,0
144850,-90.9090909090909,4,2,1,20,0,0
144932,-66.6666666666667,4,2,1,60,0,0
145177,-66.6666666666667,4,2,1,25,0,0
145258,-68.9655172413793,4,2,1,50,0,0
145503,-68.9655172413793,4,2,1,25,0,0
145584,-111.111111111111,4,2,1,40,0,0
145910,-83.3333333333333,4,2,1,40,0,0
146155,-83.3333333333333,4,2,1,20,0,0
146236,-111.111111111111,4,2,1,40,0,0
146481,-111.111111111111,4,2,1,60,0,0
146562,-181.818181818182,4,2,2,20,0,0
147133,-181.818181818182,4,2,1,20,0,0
147214,-142.857142857143,4,2,1,30,0,0
147459,-142.857142857143,4,2,1,10,0,0
147541,-142.857142857143,4,2,1,40,0,0
147785,-142.857142857143,4,2,1,20,0,0
147866,-111.111111111111,4,2,1,50,0,0
148111,-111.111111111111,4,2,1,25,0,0
148193,-90.9090909090909,4,2,1,50,0,0
148437,-90.9090909090909,4,2,1,25,0,0
148519,-100,4,2,1,40,0,0
148764,-100,4,2,1,20,0,0
148845,-83.3333333333333,4,2,1,50,0,0
149090,-83.3333333333333,4,2,1,25,0,0
149171,-66.6666666666667,4,2,3,30,0,0
149741,-66.6666666666667,4,2,1,20,0,0
149823,-83.3333333333333,4,2,1,50,0,0
150068,-83.3333333333333,4,2,1,25,0,0
150149,-111.111111111111,4,2,1,50,0,0
150394,-111.111111111111,4,2,1,25,0,0
150475,-166.666666666667,4,2,1,40,0,0
150720,-166.666666666667,4,2,1,20,0,0
150801,-250,4,2,1,40,0,0
151046,-250,4,2,1,20,0,0
151127,-285.714285714286,4,2,1,35,0,0
151372,-285.714285714286,4,2,1,15,0,0
151453,-357.142857142857,4,2,1,25,0,0
151698,-357.142857142857,4,2,1,5,0,0
151780,-357.142857142857,4,2,1,30,0,0
152106,-357.142857142857,4,2,1,25,0,0
152432,-357.142857142857,4,2,1,30,0,0
152758,-357.142857142857,4,2,1,35,0,0
153084,-166.666666666667,4,2,1,50,0,0
153655,-166.666666666667,4,2,1,25,0,0
153736,-133.333333333333,4,2,1,40,0,0
153981,-133.333333333333,4,2,1,20,0,0
154062,-83.3333333333333,4,2,1,50,0,0
154307,-83.3333333333333,4,2,1,25,0,0
154388,-100,4,2,3,40,0,0
154959,-66.6666666666667,4,2,1,20,0,0
155041,-66.6666666666667,4,2,1,55,0,0
155285,-66.6666666666667,4,2,1,30,0,0
155366,-125,4,2,1,50,0,0
155611,-125,4,2,1,25,0,0
155693,-250,4,2,1,40,0,0
155937,-250,4,2,1,20,0,0
156019,-133.333333333333,4,2,1,40,0,0
156264,-133.333333333333,4,2,1,20,0,0
156345,-80,4,2,1,50,0,0
156590,-80,4,2,1,25,0,0
156671,-66.6666666666667,4,2,1,60,0,0
156916,-66.6666666666667,4,2,1,30,0,0
156997,-166.666666666667,4,2,1,55,0,1
157649,-50,4,2,1,55,0,1
158301,-66.6666666666667,4,2,1,55,0,1
158954,-133.333333333333,4,2,1,55,0,1
159606,-133.333333333333,4,2,3,55,0,1
159932,-250,4,2,1,55,0,1
161562,-100,4,2,1,55,0,1
161888,-133.333333333333,4,2,1,55,0,1
162215,-250,4,2,1,55,0,1
162867,-76.9230769230769,4,2,1,55,0,1
163519,-60.6060606060606,4,2,1,55,0,1
163845,-76.9230769230769,4,2,1,55,0,1
164171,-100,4,2,1,55,0,1
164823,-111.111111111111,4,2,1,55,0,1
165475,-60.6060606060606,4,2,1,55,0,1
166128,-50,4,2,1,55,0,1
166780,-66.6666666666667,4,2,1,55,0,1
167106,-100,4,2,1,55,0,1
167432,-166.666666666667,4,2,1,55,0,1
168084,-54.6448087431694,4,2,1,55,0,1
168736,-68.9655172413793,4,2,1,55,0,1
169389,-166.666666666667,4,2,1,55,0,1
170041,-133.333333333333,4,2,3,55,0,1
170367,-222.222222222222,4,2,1,55,0,1
171997,-83.3333333333333,4,2,1,55,0,1
172649,-133.333333333333,4,2,1,55,0,1
173302,-60.6060606060606,4,2,1,55,0,1
173954,-111.111111111111,4,2,1,55,0,1
174280,-83.3333333333333,4,2,1,55,0,1
174606,-111.111111111111,4,2,1,55,0,1
174932,-71.4285714285714,4,2,1,55,0,1
175584,-62.5,4,2,1,55,0,1
175910,-47.6190476190476,4,2,1,55,0,1
176889,-66.6666666666667,4,2,1,55,0,1
177867,-111.111111111111,4,2,1,55,0,1
178519,-53.1914893617021,4,2,1,55,0,1
179171,-57.0450656018254,4,2,1,55,0,1
179497,-80,4,2,1,55,0,1
179823,-100,4,2,1,55,0,1
180475,-100,4,2,3,55,0,1
180802,-250,4,2,1,55,0,1
182432,-83.3333333333333,4,2,1,55,0,1
183084,-153.846153846154,4,2,1,55,0,1
184389,-74.0740740740741,4,2,1,55,0,1
185367,-90.9090909090909,4,2,1,55,0,1
185693,-76.9230769230769,4,2,1,55,0,1
186345,-58.8235294117647,4,2,1,55,0,1
186671,-50,4,2,1,55,0,1
187323,-62.5,4,2,1,55,0,1
187649,-90.9090909090909,4,2,1,55,0,1
187975,-76.9230769230769,4,2,1,55,0,1
188302,-111.111111111111,4,2,1,55,0,1
188954,-52.6315789473684,4,2,1,55,0,1
189606,-57.0450656018254,4,2,1,55,0,1
189932,-66.6666666666667,4,2,1,55,0,1
190258,-100,4,2,1,55,0,1
190584,-100,4,2,1,55,0,1
190910,-100,4,2,3,55,0,1
191236,-294.117647058824,4,2,1,55,0,1
192867,-100,4,2,1,55,0,1
193193,-117.647058823529,4,2,1,55,0,1
193519,-90.9090909090909,4,2,1,55,0,1
194171,-74.0740740740741,4,2,1,55,0,1
194823,-71.4285714285714,4,2,1,55,0,1
196128,-90.9090909090909,4,2,1,55,0,1
196617,-59.2592608290964,4,2,1,55,0,1
197432,-55.5555555555556,4,2,1,50,0,0
197758,-142.857142857143,4,2,1,50,0,0
198084,-83.3333333333333,4,2,1,50,0,0
198410,-90.9090909090909,4,2,1,50,0,0
198818,-76.9230769230769,4,2,1,50,0,0
199389,-86.9565217391304,4,2,1,50,0,0
200041,-66.6666666666667,4,2,1,50,0,0
200367,-58.8235294117647,4,2,1,50,0,0
200774,-133.333333333333,4,2,1,50,0,0
201345,-158.730158730159,4,2,4,50,0,0
201916,-158.730158730159,4,2,4,25,0,0
201997,-76.9230769230769,4,2,1,50,0,0
202568,-76.9230769230769,4,2,1,25,0,0
202649,-62.5,4,2,1,50,0,0
203139,-62.5,4,2,1,25,0,0
203220,-50,4,2,1,50,0,0
203872,-50,4,2,1,25,0,0
203954,-66.6666666666667,4,2,1,50,0,0
204280,-55.5555555555556,4,2,1,50,0,0
205258,-90.9090909090909,4,2,1,50,0,0
205584,-66.6666666666667,4,2,1,50,0,0
205910,-90.9090909090909,4,2,1,50,0,0
206562,-83.3333333333333,4,2,4,50,0,0
206889,-100,4,2,1,50,0,0
207215,-83.3333333333333,4,2,1,50,0,0
207541,-133.333333333333,4,2,1,50,0,0
209253,-117.647058823529,4,2,1,50,0,0
209823,-83.3333333333333,4,2,1,50,0,0
210149,-100,4,2,1,50,0,0
210475,-71.4285714285714,4,2,1,50,0,0
210802,-100,4,2,1,50,0,0
211128,-105.263157894737,4,2,1,50,0,0
211780,-111.111111111111,4,2,2,35,0,0
211943,-111.111111111111,4,2,1,50,0,0
212106,-80,4,2,1,50,0,0
212840,-62.5,4,2,1,50,0,0
213736,-58.8235294117647,4,2,1,50,0,0
214062,-50,4,2,1,50,0,0
214389,-62.5,4,2,1,65,0,0
214715,-100,4,2,1,60,0,0
215041,-62.5,4,2,1,60,0,0
215367,-86.9565217391304,4,2,1,60,0,0
215693,-50,4,2,1,55,0,0
216019,-43.4782608695652,4,2,1,60,0,0
216345,-40,4,2,1,65,0,0
216997,-40,4,2,1,40,0,0
219606,-111.111111111111,4,2,1,60,0,1
220258,-47.6190476190476,4,2,1,60,0,1
220910,-57.0450656018254,4,2,1,60,0,1
221236,-80,4,2,1,60,0,1
221562,-133.333333333333,4,2,1,60,0,1
222215,-133.333333333333,4,2,3,60,0,1
222541,-133.333333333333,4,2,1,60,0,1
224171,-86.9565217391304,4,2,1,60,0,1
224497,-71.4285714285714,4,2,1,60,0,1
224823,-111.111111111111,4,2,1,60,0,1
225475,-74.0740740740741,4,2,1,60,0,1
226128,-64.5161290322581,4,2,1,60,0,1
226454,-64.5161290322581,4,2,1,60,0,1
226780,-76.9230769230769,4,2,1,60,0,1
227106,-83.3333333333333,4,2,1,60,0,1
227432,-100,4,2,1,60,0,1
228084,-57.1428571428571,4,2,1,60,0,1
228410,-100,4,2,1,60,0,1
228736,-50,4,2,1,60,0,1
230041,-111.111111111111,4,2,1,60,0,1
230693,-50,4,2,1,60,0,1
231345,-48.780487804878,4,2,1,60,0,1
231671,-76.9230769230769,4,2,1,60,0,1
231997,-100,4,2,1,60,0,1
232649,-100,4,2,3,60,0,1
232975,-117.647058823529,4,2,1,60,0,1
234606,-100,4,2,1,60,0,1
234932,-71.4285714285714,4,2,1,60,0,1
235258,-166.666666666667,4,2,1,60,0,1
235910,-83.3333333333333,4,2,1,60,0,1
236562,-66.6666666666667,4,2,1,60,0,1
236889,-83.3333333333333,4,2,1,60,0,1
237215,-66.6666666666667,4,2,1,60,0,1
237867,-83.3333333333333,4,2,1,60,0,1
239171,-76.9230769230769,4,2,1,60,0,1
240475,-250,4,2,1,60,0,0
241698,-250,4,2,1,5,0,0
241780,-250,4,2,1,50,0,0
243003,-250,4,2,1,5,0,0
243084,-500,4,2,1,40,0,0
244389,-400,4,2,1,40,0,0
245693,-312.5,4,2,1,55,0,0
246345,697.674418604651,4,2,1,55,1,0
247042,-250,4,2,1,35,0,0
247739,909.090909090909,4,2,1,35,1,0
248193,1090.90909090909,4,2,1,40,1,0
248738,3908.79478827362,4,2,1,40,1,0
248738,-80,4,2,1,40,0,0
256066,-80,4,2,1,25,0,0

[Colours]
Combo1 : 255,157,206
Combo2 : 230,151,255
Combo3 : 147,147,255
Combo4 : 255,140,140

[HitObjects]
229,266,476,6,0,B|216:325|285:381|338:356|338:356|341:308|291:286,1,240,4|0,2:0|2:0,2:0:0:0:
310,297,1046,6,0,B|264:244|201:251|142:290|122:336|122:336|181:311|204:343|258:318|256:231,1,415.999980957032,0|0,2:0|2:0,2:0:0:0:
256,241,1780,6,0,B|224:211|236:166|272:173|290:123|245:78,1,160,0|0,2:0|2:0,2:0:0:0:
198,32,2269,1,0,2:0:0:0:
169,98,2432,2,0,P|189:147|255:175,1,115.2000028125,0|0,2:0|2:0,2:0:0:0:
377,18,3084,5,4,2:0:0:0:
332,37,3410,1,0,2:0:0:0:
335,88,3736,1,0,2:0:0:0:
384,100,4062,1,0,2:0:0:0:
409,59,4389,1,0,2:0:0:0:
409,59,5041,6,0,P|406:112|329:148,1,120,0|0,2:0|2:0,2:0:0:0:
292,113,5367,2,0,P|312:88|342:77,1,64,0|0,2:0|2:0,2:0:0:0:
341,77,5693,6,0,B|297:95|251:60|287:47|241:-28|151:-5|134:112|264:85|249:56|225:44,1,238.00000453949,4|0,2:0|2:0,2:0:0:0:
227,45,6345,6,0,P|182:3|143:113,1,223.200006981812,0|0,2:0|2:0,2:0:0:0:
186,216,6997,6,0,P|185:281|149:320,1,111.600003490906,0|0,2:0|2:0,2:0:0:0:
110,371,7323,6,0,P|87:324|94:292,1,60.0000022888184,0|0,2:0|2:0,2:0:0:0:
115,247,7649,6,0,P|79:282|5:282,1,108.800000664063,0|0,2:0|2:0,2:0:0:0:
45,211,8302,6,0,B|58:172|37:106|1:100|1:100|3:125|30:138,1,180.000006866455,4|0,2:0|2:0,2:0:0:0:
28,137,8954,6,0,B|71:131|116:153|128:204|120:257|72:269|72:269|38:251|45:210,1,276.000005264282,0|0,2:0|2:0,2:0:0:0:
94,159,9606,6,0,B|94:133|112:111|114:124|133:107|132:79,1,92.0000017547608,0|0,2:0|2:0,2:0:0:0:
51,0,9932,2,0,P|37:35|85:66,1,75.9999979705811,0|0,2:0|2:0,2:0:0:0:
179,179,10177,5,0,2:0:0:0:
179,179,10258,2,0,P|230:147|331:165,1,143.999995605469,0|0,2:0|2:0,2:0:0:0:
383,110,10584,6,0,P|344:81|270:66,1,107.999996704102,0|0,2:0|2:0,2:0:0:0:
446,66,10910,6,0,B|485:114|453:180|428:150|392:231|444:280|444:280|499:262|497:206,1,322.000006141663,6|0,2:0|2:0,2:0:0:0:
456,141,11562,6,0,P|351:182|446:59,1,406.000012390137,0|0,2:0|2:0,2:0:0:0:
383,110,12215,6,0,B|385:141|355:167|346:146|316:170|323:212,1,120.000004577637,0|0,2:0|2:0,2:0:0:0:
289,325,12541,2,0,P|328:369|393:351,1,100.400000612793,0|0,2:0|2:0,2:0:0:0:
444,365,12867,6,0,B|416:311|352:311|325:337|325:337|333:363|372:370,1,195.199991958008,0|0,2:0|2:0,2:0:0:0:
493,301,13519,5,4,2:0:0:0:
459,234,13845,1,0,2:0:0:0:
383,248,14171,1,0,2:0:0:0:
371,324,14497,1,0,2:0:0:0:
441,362,14823,1,0,2:0:0:0:
441,362,15475,6,0,P|475:325|449:247,1,120,0|0,2:0|2:0,2:0:0:0:
464,261,15802,2,0,P|448:212|472:161,1,80,0|0,2:0|2:0,2:0:0:0:
470,86,16128,6,0,B|474:68|491:63|491:63|494:78|483:109|446:135|395:124|367:91,1,181.999991668702,0|0,2:0|2:0,2:0:0:0:
359,152,16780,6,0,B|388:115|385:43|348:18|348:18|336:68|386:107,1,240,0|0,2:0|2:0,2:0:0:0:
413,219,17432,6,0,B|399:251|359:259|359:259|322:201|361:151,1,184.000003509522,0|0,2:0|2:0,2:0:0:0:
421,59,17921,1,0,2:0:0:0:
310,85,18084,2,0,P|361:56|421:59,1,120.000004577637,0|0,2:0|2:0,2:0:0:0:
489,95,18573,5,0,2:0:0:0:
489,95,18655,1,0,2:0:0:0:
489,95,18736,2,0,P|487:125|504:164,1,71.9999978027344,4|0,2:0|2:0,2:0:0:0:
509,169,19062,6,0,P|516:214|500:248,1,80,0|0,2:0|2:0,2:0:0:0:
449,365,19389,6,0,P|385:362|349:291,1,150,0|0,2:0|2:0,2:0:0:0:
371,198,19715,6,0,B|409:172|397:121|397:121|346:113|289:144|287:220,1,256,0|0,2:0|2:0,2:0:0:0:
190,286,20693,6,0,B|162:278|155:256|155:256|180:247|209:257|222:285,1,128,0|0,2:0|2:0,2:0:0:0:
250,351,21182,1,0,2:0:0:0:
291,295,21345,2,0,P|299:251|274:205,1,80,0|0,2:0|2:0,2:0:0:0:
211,169,21997,6,0,L|242:163,2,26.6666666666667,0|0|0,2:0|2:0|2:0,2:0:0:0:
184,148,22215,1,0,2:0:0:0:
175,116,22323,2,0,P|177:78|204:44,1,71.9999978027344,0|0,2:0|2:0,2:0:0:0:
206,39,22649,6,0,P|269:90|264:7,1,191.999994140625,0|0,2:0|2:0,2:0:0:0:
15,121,23954,5,6,2:0:0:0:
15,121,24606,5,0,2:0:0:0:
75,161,24932,2,0,P|101:160|126:149,1,40,0|0,2:0|2:0,2:0:0:0:
157,93,25258,6,0,L|138:26,2,64,0|0|0,2:0|2:0|2:0,2:0:0:0:
204,0,26236,5,0,2:0:0:0:
157,93,26562,2,0,L|123:185,1,96,4|0,2:0|2:0,2:0:0:0:
63,220,27215,5,0,2:0:0:0:
133,187,27541,2,0,B|132:204|138:217|149:216|156:227|155:244,1,64,0|0,2:0|2:0,2:0:0:0:
70,143,27867,5,4,2:0:0:0:
63,220,28193,2,0,B|45:208|28:207|24:218|9:218|-6:208,1,71.9999978027344,0|0,2:0|2:0,2:0:0:0:
191,64,28519,5,0,2:0:0:0:
70,143,28845,2,0,B|88:132|99:116|91:106|99:92|117:82,1,80,0|0,2:0|2:0,2:0:0:0:
154,244,29171,6,0,B|190:286|182:355|138:359|128:382|128:382|84:373|63:321|94:276,1,287.999991210938,4|0,2:0|2:0,2:0:0:0:
154,244,29823,6,0,B|182:249|197:265|190:279|203:293|228:299,1,96,0|0,2:0|2:0,2:0:0:0:
325,272,30149,6,0,B|328:260|322:248|322:248|301:255|296:277,1,64,0|0,2:0|2:0,2:0:0:0:
264,366,30475,6,0,B|298:346|324:361|317:380|343:392|376:379,1,120,0|0,2:0|2:0,2:0:0:0:
403,313,30802,6,0,L|396:277,1,23.9999992675781,0|0,2:0|2:0,2:0:0:0:
474,338,31128,2,0,L|479:317,1,20,0|0,2:0|2:0,2:0:0:0:
448,368,31454,1,0,2:0:0:0:
478,193,31780,6,0,B|493:143|462:120|435:122|414:104|405:59|438:22|496:32|505:107|463:118|446:90,1,224,4|0,2:0|2:0,2:0:0:0:
459,101,32432,6,0,P|423:86|417:43,1,64,0|0,2:0|2:0,2:0:0:0:
346,7,32758,6,0,B|336:61|282:83|251:61|251:61|265:60|279:50,1,143.999995605469,0|0,2:0|2:0,2:0:0:0:
266,51,33084,2,0,P|282:36|281:-1,1,60.0000022888184,4|0,2:0|2:0,2:0:0:0:
201,0,33410,5,0,2:0:0:0:
271,235,33736,5,0,2:0:0:0:
183,320,34062,5,0,2:0:0:0:
83,326,34389,6,0,L|-10:314,1,83.9999974365235,6|0,2:0|2:0,2:0:0:0:
0,315,35041,6,0,B|0:356|45:373|45:373|94:329|84:235|12:198,1,280,0|0,2:0|2:0,2:0:0:0:
4,109,35693,6,0,B|8:87|26:86|26:86|32:117|4:132,1,90.0000034332277,0|0,2:0|2:0,2:0:0:0:
18,201,36019,2,0,P|56:210|80:236,1,54.4000003320313,0|0,2:0|2:0,2:0:0:0:
115,269,36345,2,0,P|142:239|192:229,1,80,0|0,2:0|2:0,2:0:0:0:
254,200,36997,6,0,P|217:167|207:95,1,112,4|0,2:0|2:0,2:0:0:0:
143,113,37649,6,0,B|131:123|130:139|130:139|158:158|198:129|205:104,1,120,0|0,2:0|2:0,2:0:0:0:
204,108,37975,2,0,P|220:75|260:50,1,60.0000022888184,0|0,2:0|2:0,2:0:0:0:
303,20,38302,5,4,2:0:0:0:
308,185,38628,2,0,P|265:190|227:171,1,75.9999979705811,0|0,2:0|2:0,2:0:0:0:
135,114,38954,5,0,2:0:0:0:
355,127,39280,2,0,P|384:154|393:216,1,92.0000017547608,0|0,2:0|2:0,2:0:0:0:
394,379,39606,6,0,B|424:337|383:287|325:298|341:315|257:340|186:283|245:136|400:189|337:306|302:269,1,335.999989746094,2|0,2:0|2:0,2:0:0:0:
274,365,40258,6,0,P|234:344|198:265,1,120,0|0,2:0|2:0,2:0:0:0:
201,272,40584,6,0,P|192:230|162:205,1,64,0|0,2:0|2:0,2:0:0:0:
28,238,40910,6,0,P|42:305|102:305,1,120,0|0,2:0|2:0,2:0:0:0:
92,319,41236,2,0,P|104:288|133:265,1,60.0000022888184,0|0,2:0|2:0,2:0:0:0:
183,375,41562,6,0,P|174:352|160:333,1,48,0|0,2:0|2:0,2:0:0:0:
92,319,41889,1,0,2:0:0:0:
28,238,42133,5,0,2:0:0:0:
28,238,42215,2,0,B|21:192|50:176|70:189|107:163|100:120,1,143.999995605469,4|0,2:0|2:0,2:0:0:0:
36,61,42867,6,0,P|18:97|66:180,1,143.999995605469,0|0,2:0|2:0,2:0:0:0:
64,179,43193,2,0,P|99:203|112:251,1,80,0|0,2:0|2:0,2:0:0:0:
119,246,43437,1,0,2:0:0:0:
129,251,43519,2,0,L|187:237,1,60.0000022888184,2|0,2:0|2:0,2:0:0:0:
195,229,43845,1,0,2:0:0:0:
319,191,44171,6,0,B|340:205|334:229|334:229|322:231|292:220|287:178,1,120,0|0,2:0|2:0,2:0:0:0:
173,116,44497,6,0,B|139:108|122:137|122:137|127:149|171:167|214:134,1,155.999992858887,0|0,2:0|2:0,2:0:0:0:
286,112,44823,6,0,B|332:90|319:44|284:67|287:12|316:-30|394:-18|395:44|378:51,1,210.000008010865,4|0,2:0|2:0,2:0:0:0:
379,50,45475,6,0,P|356:22|407:-4,1,90.0000034332277,0|0,2:0|2:0,2:0:0:0:
484,37,45802,6,0,P|515:61|468:114,1,120,0|0,2:0|2:0,2:0:0:0:
393,148,46128,6,0,B|400:173|413:197|456:202|456:202|490:147|451:60|377:50,1,287.999991210938,0|0,2:0|2:0,2:0:0:0:
185,131,46780,6,0,B|148:126|128:152|143:162|122:189|77:181,1,120,0|0,2:0|2:0,2:0:0:0:
64,195,47106,2,0,P|23:166|87:107,1,155.999992858887,0|0,2:0|2:0,2:0:0:0:
64,195,47432,6,0,B|47:246|82:285|111:291|134:308|139:346|139:346|208:281|185:212|153:233|136:165|186:129,1,420.000016021729,4|0,2:0|2:0,2:0:0:0:
169,63,48084,6,0,P|239:80|218:187,1,180.000006866455,0|0,2:0|2:0,2:0:0:0:
117,214,48410,6,0,B|84:221|63:198|63:198|69:149|126:116|184:130,1,215.999993408203,0|0,2:0|2:0,2:0:0:0:
301,216,48736,6,0,P|246:249|187:225,1,132.00000402832,2|0,2:0|2:0,2:0:0:0:
247,91,49062,6,0,P|257:134|237:175,1,90.0000034332277,0|0,2:0|2:0,2:0:0:0:
227,275,49389,6,0,P|201:254|187:224,1,66.0000020141602,0|0,2:0|2:0,2:0:0:0:
117,214,49715,5,0,2:0:0:0:
206,384,50041,5,4,2:0:0:0:
227,275,50367,1,0,2:0:0:0:
294,217,50693,1,0,2:0:0:0:
368,203,51019,1,0,2:0:0:0:
434,223,51345,2,0,B|456:217|477:234|464:240|485:255|514:249,1,83.9999974365235,0|0,2:0|2:0,2:0:0:0:
509,250,51997,6,0,P|478:273|467:335,1,90.0000034332277,0|0,2:0|2:0,2:0:0:0:
435,383,52323,2,0,P|400:353|400:309,1,71.9999978027344,0|0,2:0|2:0,2:0:0:0:
328,307,52649,6,0,B|321:246|380:212|373:245|448:216|442:146|391:99|324:161|369:203,1,276.000005264282,4|0,2:0|2:0,2:0:0:0:
447,271,53302,6,0,P|489:184|454:103,1,150,0|0,2:0|2:0,2:0:0:0:
476,66,53628,6,0,B|466:39|470:6|508:-4|508:-4|533:30|506:62,1,155.999992858887,0|0,2:0|2:0,2:0:0:0:
478,136,53954,6,0,B|436:140|407:107|427:104|398:73|354:77,1,143.999995605469,2|0,2:0|2:0,2:0:0:0:
306,21,54280,6,0,P|278:66|327:148,1,150,0|0,2:0|2:0,2:0:0:0:
419,110,54606,6,0,P|392:84|355:77,1,76.8,0|0,2:0|2:0,2:0:0:0:
306,21,54932,6,0,P|285:43|258:55,1,60,0|0,2:0|2:0,2:0:0:0:
255,64,55177,1,0,2:0:0:0:
252,74,55258,6,0,L|197:65,1,48,4|0,2:0|2:0,2:0:0:0:
185,58,55584,2,0,L|130:67,1,48,0|0,2:0|2:0,2:0:0:0:
92,14,55910,6,0,P|71:45|76:97,1,71.9999978027344,0|0,2:0|2:0,2:0:0:0:
105,142,56236,2,0,P|135:110|138:66,1,90.0000034332277,0|0,2:0|2:0,2:0:0:0:
52,81,56562,6,0,P|63:127|99:157,1,96,0|0,2:0|2:0,2:0:0:0:
161,126,56889,2,0,P|161:79|135:40,1,96,0|0,2:0|2:0,2:0:0:0:
0,185,57215,6,0,P|37:222|90:228,1,107.999996704102,0|0,2:0|2:0,2:0:0:0:
220,162,57541,2,0,P|248:118|243:65,1,107.999996704102,0|0,2:0|2:0,2:0:0:0:
187,237,57867,6,0,B|156:269|159:317|183:358|219:366|219:366|218:338|196:298|151:280|90:278|42:302|12:348,1,420.000016021729,4|0,2:0|2:0,2:0:0:0:
12,347,58519,6,0,P|47:353|51:268,1,143.999995605469,0|0,2:0|2:0,2:0:0:0:
84,146,58845,6,0,P|14:128|0:199,1,162.000000617981,0|0,2:0|2:0,2:0:0:0:
51,260,59171,6,0,L|129:251,1,71.9999978027344,2|0,2:0|2:0,2:0:0:0:
173,175,59497,6,0,L|198:230,1,60,0|0,2:0|2:0,2:0:0:0:
272,263,59823,6,0,L|236:299,1,48,0|0,2:0|2:0,2:0:0:0:
228,375,60149,6,0,L|195:357,1,35.9999989013672,0|0,2:0|2:0,2:0:0:0:
121,328,60475,5,4,2:0:0:0:
122,251,60802,1,0,2:0:0:0:
197,229,61128,1,0,2:0:0:0:
238,296,61454,1,0,2:0:0:0:
196,357,61780,2,0,B|156:323|180:321|181:269|78:232|39:301|39:301|49:332|80:344|104:345,1,280
86,342,62432,6,0,P|146:334|168:235,1,155.999992858887
208,172,62758,6,1,P|165:133|172:73,1,111.999996582031,0|0,0:0|0:0,0:0:0:0:
177,69,63003,1,0,0:0:0:0:
188,59,63084,38,1,B|202:47|225:52|225:52|227:57|241:72|227:93,1,71.9999999999982,0|0,0:0|0:0,0:0:0:0:
169,142,63410,6,1,P|129:126|104:53,1,120,0|0,0:0|0:0,0:0:0:0:
240,60,63736,6,1,P|260:111|186:212,1,174.000005310059,0|0,0:0|0:0,0:0:0:0:
140,245,64062,6,1,B|113:256|87:243|79:234|79:234|102:218|131:233,1,120,0|0,0:0|0:0,0:0:0:0:
202,290,64389,38,0,P|202:314|193:336,1,48,2|0,2:0|2:0,2:0:0:0:
96,326,64715,6,0,P|143:356|194:336,1,113.999996955872,0|0,2:0|2:0,2:0:0:0:
364,312,65041,6,0,P|298:300|256:229,1,150,0|0,2:0|2:0,2:0:0:0:
167,217,65367,6,0,B|162:166|205:144|233:168|280:142|272:90,1,180.000006866455,0|0,2:0|2:0,2:0:0:0:
198,48,65693,6,0,P|195:137|273:93,1,215.999993408203,14|0,2:0|2:0,2:0:0:0:
198,48,66345,6,0,B|155:68|140:148|229:185|212:115|316:163|306:274|253:352|150:316|150:316|123:283|136:238|167:216,1,526.399991967774,8|0,2:0|2:0,2:0:0:0:
167,216,66997,6,0,B|231:182|299:241|265:328|265:328|219:329|195:276,1,280.479993944104,8|0,1:1|2:0,2:0:0:0:
244,190,67486,5,0,2:0:0:0:
167,216,67649,2,0,P|174:148|216:113,1,120.000004577637,0|0,2:0|2:0,2:0:0:0:
466,126,68302,5,12,2:0:0:0:
396,223,68628,1,0,2:0:0:0:
282,186,68954,1,0,2:0:0:0:
281,66,69280,1,8,2:0:0:0:
395,29,69606,2,0,B|425:24|449:46|432:57|459:79|492:74,1,112,8|0,1:1|2:0,2:0:0:0:
490,74,70258,6,0,P|516:36|447:15,1,120,0|0,2:0|2:0,2:0:0:0:
395,29,70584,6,0,P|368:40|385:103,1,90.0000034332277,0|0,2:0|2:0,2:0:0:0:
411,153,70910,6,0,B|425:201|400:254|359:266|346:261|346:261|357:249|360:221|389:214,1,210.000008010865,10|0,2:0|2:0,2:0:0:0:
387,214,71562,6,0,B|425:204|477:218|502:267|502:331|459:370|459:370|417:359|400:323|413:292,1,335.999989746094,8|0,2:0|2:0,2:0:0:0:
387,214,72215,6,0,B|390:179|421:164|446:180|479:164|486:124,1,143.999995605469,8|0,1:1|2:0,2:0:0:0:
506,118,72541,2,0,P|492:74|429:77,1,80,0|0,2:0|2:0,2:0:0:0:
327,165,72867,6,0,P|307:207|343:276,1,107.999996704102,0|0,2:0|2:0,2:0:0:0:
326,279,73193,2,0,L|385:290,1,51.999997619629,0|0,2:0|2:0,2:0:0:0:
501,314,73519,6,0,B|525:328|554:297|521:259|463:271|423:305|476:327|453:361|403:377|371:365,1,224,10|0,2:0|2:0,2:0:0:0:
375,366,74171,6,0,P|325:312|393:238,1,150,0|0,2:0|2:0,2:0:0:0:
359,246,74497,2,0,P|384:209|375:141,1,102.000001945496,8|0,2:0|2:0,2:0:0:0:
312,184,74823,6,0,B|313:228|352:250|352:250|382:234|422:190|416:72|312:55|241:100|212:121|296:179|218:170|156:197|113:166|103:115,1,476.00000907898,12|0,1:0|2:0,2:0:0:0:
136,161,75475,6,0,P|102:77|233:49,1,240,8|0,2:3|2:0,2:0:0:0:
313,200,76128,6,0,P|268:220|258:141,1,154.000004699707,14|0,2:0|2:0,2:0:0:0:
255,142,76780,6,0,B|298:92|375:92|487:142|480:265|480:265|443:242|411:253|374:271|323:237|312:196,1,517.999998023987,8|0,2:0|2:0,2:0:0:0:
239,224,77432,6,0,B|211:241|201:279|215:310|215:310|293:316|333:250|311:192,1,272.000005187988,8|0,1:1|2:0,2:0:0:0:
234,72,77921,5,0,2:0:0:0:
255,142,78084,2,0,P|274:182|321:201,1,90.0000034332277,0|0,2:0|2:0,2:0:0:0:
345,268,78410,2,0,L|415:254,1,60.0000022888184,0|0,2:0|2:0,2:0:0:0:
503,261,78736,5,12,2:0:0:0:
501,356,79062,1,0,2:0:0:0:
409,383,79389,1,0,2:0:0:0:
354,306,79715,1,8,2:0:0:0:
411,229,80041,2,0,B|412:190|437:173|454:191|480:173|481:136,1,125.999996154785,8|0,1:1|2:0,2:0:0:0:
511,75,80693,6,0,P|503:23|434:18,1,120,0|0,2:0|2:0,2:0:0:0:
436,25,81019,2,0,P|397:40|414:96,1,90.0000034332277,0|0,2:0|2:0,2:0:0:0:
409,170,81345,6,0,B|418:226|466:251|504:239|504:239|515:216|508:178|473:165,1,210.000008010865,10|0,2:0|2:0,2:0:0:0:
485,171,81997,2,0,B|442:137|391:133|333:152|306:191|302:225|302:225|344:205|351:168|344:137|319:111,1,350,8|0,2:0|2:0,2:0:0:0:
328,122,82649,2,0,B|314:91|289:84|278:100|246:88|241:48,1,111.999996582031,8|0,1:1|2:0,2:0:0:0:
202,1,82975,1,0,2:0:0:0:
148,141,83139,5,0,2:0:0:0:
209,111,83302,2,0,P|231:88|243:59,1,64,0|0,2:0|2:0,2:0:0:0:
148,141,83954,6,0,P|143:172|174:232,1,96,10|0,2:0|2:0,2:0:0:0:
169,228,84280,6,0,B|143:203|138:178|118:166|76:144|11:160|-7:200|-7:200|7:264|70:292|113:275,1,363.999983337403,2|0,2:1|2:0,2:0:0:0:
195,324,84932,6,0,B|218:324|234:309|234:309|212:289|177:293|165:312,1,120,8|0,2:0|2:0,2:0:0:0:
102,278,85258,6,0,P|93:328|120:371,1,95.9999970703126,8|0,1:3|2:0,2:0:0:0:
169,228,85584,6,0,P|171:199|143:162,1,60.0000022888184,4|0,2:3|2:0,2:0:0:0:
12,66,85910,5,0,1:0:0:0:
214,126,86073,1,0,1:0:0:0:
81,208,86236,5,8,0:3:0:0:
144,0,86399,1,0,0:0:0:0:
222,137,86562,6,0,B|258:188|224:263|158:272|133:206|160:180,1,210.000008010865,14|0,0:0|0:0,0:0:0:0:
214,126,87215,6,0,B|253:102|309:109|338:149|338:149|353:217|466:236|531:171|506:49|429:5|374:97|406:125,1,490.000004673004,8|0,2:0|2:0,2:0:0:0:
342,155,87867,6,0,B|311:226|383:285|436:271|436:271|457:219|396:178,1,264.0000025177,8|0,1:1|2:0,2:0:0:0:
342,155,88356,5,0,2:0:0:0:
433,268,88519,2,0,P|458:323|439:373,1,103.999995239258,0|0,2:0|2:0,2:0:0:0:
307,283,89171,5,12,2:0:0:0:
236,198,89497,1,0,2:0:0:0:
127,242,89823,1,0,2:0:0:0:
140,354,90149,1,8,2:0:0:0:
254,384,90475,2,0,B|287:389|312:367|293:357|321:334|355:342,1,112,8|0,1:1|2:0,2:0:0:0:
384,273,91128,6,0,P|427:326|405:394,1,120,0|0,2:0|2:0,2:0:0:0:
420,373,91454,2,0,P|431:334|466:314,1,71.9999978027344,0|0,2:0|2:0,2:0:0:0:
455,316,91780,6,0,B|512:302|542:224|481:164|426:187|433:219|472:219,1,210.000008010865,10|0,2:0|2:0,2:0:0:0:
472,219,92432,6,0,P|507:189|386:191,1,335.999989746094,8|0,2:0|2:0,2:0:0:0:
472,219,93084,6,0,P|475:286|368:246,1,191.999994140625,8|0,1:1|2:0,2:0:0:0:
280,337,93573,5,0,2:0:0:0:
380,181,93736,2,0,P|370:251|297:258,1,150,0|0,2:0|2:0,2:0:0:0:
280,337,94062,6,0,B|249:342|227:322|243:318|219:297|181:302,1,100,0|0,2:0|2:0,2:0:0:0:
57,274,94389,6,0,B|11:291|-7:327|1:364|1:364|35:374|62:361,1,180.000006866455,10|0,2:0|2:0,2:0:0:0:
63,361,94715,2,0,P|119:312|87:184,1,215.999993408203,2|0,2:1|2:0,2:0:0:0:
36,116,95041,6,0,B|0:113|-11:84|39:42|101:70|113:149|86:195,1,210.000002002716,0|0,2:0|2:0,2:0:0:0:
57,274,95367,2,0,P|27:258|19:192,1,95.9999970703126,8|0,2:0|2:0,2:0:0:0:
197,63,95693,6,0,B|228:49|227:25|232:20|237:13|237:13|209:-11|155:-12|108:11|83:62|88:132,1,287.999991210938,8|8,1:1|2:0,2:0:0:0:
63,278,96182,1,0,1:0:0:0:
88,112,96345,6,0,P|110:159|197:159,1,143.999995605469,8|0,2:3|2:0,2:0:0:0:
199,152,96671,6,0,P|219:122|277:105,1,88.000002685547,4|0,2:3|2:0,2:0:0:0:
287,226,96997,6,0,P|210:172|314:145,1,251.999992309571,14|0,2:0|2:0,2:0:0:0:
287,226,97649,6,0,B|290:275|258:307|248:289|205:328|240:380|240:380|269:331|317:350|369:363|415:268|392:175|310:141,1,517.999998023987,8|0,2:0|2:0,2:0:0:0:
313,142,98302,6,0,P|276:84|389:115,1,280.000002670288,8|0,1:1|2:0,2:0:0:0:
467,144,98791,5,0,2:0:0:0:
392,107,98954,2,0,P|385:152|435:221,1,120.000004577637,0|0,2:0|2:0,2:0:0:0:
489,292,99606,5,12,2:0:0:0:
421,213,99932,1,0,2:0:0:0:
328,252,100258,1,0,2:0:0:0:
334,353,100584,1,8,2:0:0:0:
433,378,100910,2,0,B|457:364|462:334|443:336|450:304|478:288,1,97.9999970092774,8|0,1:1|2:0,2:0:0:0:
489,292,101562,6,0,P|456:331|396:298,1,120,0|0,2:0|2:0,2:0:0:0:
395,299,101889,2,0,P|369:267|325:262,1,60.0000022888184,0|0,2:0|2:0,2:0:0:0:
231,273,102215,6,0,B|195:273|158:296|165:336|157:351|157:351|199:369|249:355|286:307|263:241,1,308.000009399414,10|0,2:0|2:0,2:0:0:0:
266,249,102867,6,0,B|251:188|203:166|131:203|190:215|108:251|30:150|76:51|165:47|249:100|206:196|132:194|125:128,1,378.000001441956,8|0,2:0|2:0,2:0:0:0:
45,118,103519,6,0,P|73:65|122:38,1,111.999996582031,8|0,1:1|2:0,2:0:0:0:
295,178,103845,2,0,B|292:219|266:246|266:246|301:282,1,120.000004577637,0|8,2:0|2:3,2:0:0:0:
461,72,104171,6,0,B|472:48|495:40|495:40|478:24|442:26|411:51|412:88,1,150,0|0,2:0|2:0,2:0:0:0:
338,80,104497,6,0,P|363:130|416:145,1,100,4|0,2:3|2:0,2:0:0:0:
476,180,104823,6,0,B|458:220|407:232|367:216|367:216|382:240|416:247|445:230,1,207.999990478516,4|0,2:1|2:0,2:0:0:0:
478,166,105802,5,0,2:0:0:0:
491,343,106128,6,0,P|471:353|454:380,1,47.9999985351563,0|0,1:2|2:0,2:0:0:0:
383,353,106454,6,0,P|346:325|289:318,1,102.000001945496,0|0,2:0|2:0,2:0:0:0:
231,359,106780,6,0,B|227:374|212:378|212:378|200:368|203:338|221:325,1,88.000002685547,0|0,2:0|2:0,2:0:0:0:
202,177,107106,6,0,P|253:227|239:278,1,103.999995239258,0|0,2:0|2:0,2:0:0:0:
153,231,107432,6,0,B|126:218|136:190|99:162|54:170|38:176|38:176|59:189|95:202|81:227|106:277|163:289|183:269,1,320,10|0,2:0|2:0,2:0:0:0:
109,115,108410,6,0,P|61:131|37:175,1,102.000001945496,8|0,2:0|2:0,2:0:0:0:
37,174,108736,6,0,B|73:211|82:267|71:310|49:345|17:353|17:353|11:321|34:281|82:255|147:255|195:281,1,420.000016021729,4|0,1:0|2:0,2:0:0:0:
177,273,109389,6,0,P|226:281|272:192,1,162.000000617981,0|0,2:0|2:0,2:0:0:0:
305,131,109715,2,0,B|310:110|296:92|288:101|271:82|279:53,1,80,0|0,2:0|2:0,2:0:0:0:
353,24,110041,6,0,B|328:70|272:97|219:88|219:88|205:43|163:32,1,240.000009155274,4|0,2:0|2:0,2:0:0:0:
36,46,111019,6,0,B|34:87|57:126|113:129|143:98|118:90|73:84,1,138.000002632141,0|0,2:0|2:0,2:0:0:0:
107,92,111345,6,0,B|95:115|102:143|133:202|223:190|256:106|222:44|158:31,1,287.999991210938,0|0,1:2|2:0,2:0:0:0:
37,175,112323,6,0,P|18:201|16:252,1,71.9999978027344,0|0,2:0|2:0,2:0:0:0:
20,313,112568,5,0,1:0:0:0:
20,313,112649,1,0,1:0:0:0:
107,226,112975,5,8,2:3:0:0:
217,253,113302,5,4,2:3:0:0:
257,326,113628,6,0,L|390:343,1,128,4|0,2:0|2:0,2:0:0:0:
445,306,115258,5,0,1:0:0:0:
402,252,115910,1,0,1:0:0:0:
456,206,116562,1,0,1:0:0:0:
459,203,116889,1,0,2:0:0:0:
411,150,117215,2,0,P|403:111|441:54,1,112,0|0,1:0|2:0,2:0:0:0:
441,54,117867,6,0,P|470:31|478:-12,1,64,0|0,1:0|2:0,2:0:0:0:
506,55,118356,1,0,2:0:0:0:
432,57,118519,6,0,P|437:93|470:127,1,77.9999964294435,0|0,1:0|2:0,2:0:0:0:
474,128,118845,2,0,P|466:152|462:178,1,51.999997619629,0|0,2:0|2:0,2:0:0:0:
399,298,119171,6,0,P|388:254|369:213,1,90.0000034332277,0|0,1:0|2:0,2:0:0:0:
363,205,119497,2,0,P|332:203|300:173,1,60.0000022888184,0|0,2:0|2:0,2:0:0:0:
295,81,119823,6,0,B|290:56|306:34|356:38|366:112|327:117|318:91|283:130|288:178|324:202,1,195.999994018555,0|0,1:0|2:0,2:0:0:0:
383,212,120475,6,0,P|365:130|302:114,1,143.999995605469,0|0,1:0|2:0,2:0:0:0:
262,155,120965,5,0,2:0:0:0:
257,150,121128,2,0,P|227:157|186:221,1,90.0000034332277,0|0,1:0|2:0,2:0:0:0:
259,219,121454,6,0,P|269:269|209:335,1,132.00000402832,0|0,2:0|2:0,2:0:0:0:
167,379,121780,6,0,B|114:366|143:334|81:319,1,107.999996704102,0|0,1:0|2:0,2:0:0:0:
70,318,122106,6,0,P|45:350|67:376,1,60.0000022888184,0|0,2:0|2:0,2:0:0:0:
149,279,122432,6,0,P|108:228|51:246,1,132.00000402832,0|0,1:0|2:0,2:0:0:0:
216,335,123084,6,0,P|274:296|192:216,1,210.000008010865,0|0,1:0|2:0,2:0:0:0:
202,213,123736,6,0,B|197:235|174:248|175:236|153:250|149:281,1,88.000002685547,0|0,1:0|2:0,2:0:0:0:
387,273,124062,6,0,B|413:276|421:256|421:256|396:234|346:246|326:287,1,155.999992858887,0|0,2:0|2:0,2:0:0:0:
202,213,124389,6,0,B|184:203|187:184|187:184|207:177|236:197|240:241,1,120,0|0,1:0|2:0,2:0:0:0:
350,157,124715,6,0,P|387:129|387:51,1,120,0|0,2:0|2:0,2:0:0:0:
281,90,125041,6,0,P|301:135|383:105,1,138.000002632141,0|0,1:0|2:0,2:0:0:0:
391,59,125367,6,0,P|320:27|269:97,1,155.999992858887,0|0,2:0|2:0,2:0:0:0:
363,209,125693,6,0,B|390:159|341:120|315:169|200:94|283:-45|466:15|361:155|325:79,1,303.999991882324,10|0,2:0|1:0,2:0:0:0:
248,28,126671,5,8,2:0:0:0:
393,156,126997,2,0,P|424:131|439:81,1,80,8|0,2:0|2:0,2:0:0:0:
319,24,127649,6,0,B|326:54|354:69|354:69|371:100,1,80,0|0,1:0|2:0,2:0:0:0:
509,129,128302,6,0,P|456:128|382:228,1,181.999991668702,8|0,2:0|2:0,2:0:0:0:
387,226,128954,2,0,L|401:292,1,51.999997619629,0|0,1:0|2:0,2:0:0:0:
467,375,129280,6,0,B|489:377|501:357|501:357|507:314|472:293,1,113.999996955872,8|0,2:0|2:0,2:0:0:0:
402,281,129606,6,0,B|345:290|376:310|316:320,1,90.0000034332277,8|0,2:0|2:0,2:0:0:0:
322,318,129932,6,0,P|306:292|299:247,1,66.0000020141602
231,296,130258,6,0,P|216:324|210:351,1,48,0|0,1:0|0:0,0:0:0:0:
213,345,130584,1,0,0:0:0:0:
131,303,130910,6,0,P|68:358|3:305,1,181.999991668702,8|0,2:0|2:0,2:0:0:0:
3,305,131562,6,0,P|19:256|58:235,1,80,0|0,1:0|2:0,2:0:0:0:
67,163,131889,6,0,P|132:159|182:220,1,143.999995605469,8|0,0:0|0:0,0:0:0:0:
181,225,132215,6,0,B|236:215|207:196|262:186,1,90.0000034332277,8|0,2:0|2:0,2:0:0:0:
331,178,132541,6,0,P|317:137|285:119,1,68.0000012969971
260,186,132867,6,0,B|254:232|289:274|352:283|387:252|387:252|380:194|332:178,1,280,0|0,1:0|0:0,0:0:0:0:
260,186,133519,6,0,P|143:151|272:85,1,335.999989746094,10|0,0:0|0:0,0:0:0:0:
268,80,134171,6,0,P|302:107|364:94,1,102.000001945496,0|0,1:0|0:0,0:0:0:0:
413,64,134497,2,0,L|399:6,1,51.999997619629,8|0,0:0|0:0,0:0:0:0:
331,178,134823,5,0,1:0:0:0:
429,6,135149,2,0,L|413:63,1,60.0000022888184,8|0,0:3|0:0,0:0:0:0:
339,170,135475,6,0,P|382:166|424:232,1,120,8|0,0:3|0:0,0:0:0:0:
490,321,135802,6,0,P|518:313|478:313,1,143.999995605469,4|0,0:3|0:0,0:0:0:0:
411,339,136128,6,0,B|413:351|429:366|429:366|394:332|340:331|295:357,1,167.999994873047,14|0,0:0|0:0,0:0:0:0:
303,352,136780,6,0,P|289:320|334:289,1,90.0000034332277
261,240,137106,6,0,P|221:198|154:229,1,120
126,270,137432,6,0,P|256:315|226:180,1,335.999989746094,0|0,1:0|0:0,0:0:0:0:
177,128,138084,6,0,B|140:123|120:149|135:159|114:186|69:178,1,120,0|0,2:0|2:0,2:0:0:0:
12,216,138410,2,0,B|0:228|2:249|2:249|50:256|82:221|77:177,1,155.999992858887
112,119,138736,6,0,B|86:98|80:73|105:65|95:10|46:-4|4:1|4:1|-9:49|22:83|69:78,1,280,12|0,0:0|0:0,0:0:0:0:
112,119,139389,6,0,P|167:120|176:36,1,143.999995605469
45,77,139715,6,0,P|31:115|146:194,1,206.400003149414,8|0,0:0|0:0,0:0:0:0:
226,73,140041,6,0,P|193:15|103:26,1,167.999994873047,0|0,1:0|0:0,0:0:0:0:
92,207,140367,6,0,P|158:197|186:124,1,132.00000402832
226,73,140693,6,0,P|214:37|195:16,1,60,2|0,0:1|0:0,0:0:0:0:
155,79,141019,5,0,0:0:0:0:
255,175,141345,5,12,2:0:0:0:
272,93,141671,1,0,2:0:0:0:
340,45,141997,1,0,2:0:0:0:
407,49,142323,1,0,2:0:0:0:
442,74,142649,2,0,B|463:77|483:57|468:53|487:35|517:37,1,83.9999974365235,0|0,1:0|2:0,2:0:0:0:
442,74,143302,6,0,P|402:89|356:50,1,90.0000034332277
363,66,143628,6,0,P|335:36|265:34,1,107.999996704102
261,106,143954,6,0,B|221:153|239:236|303:246|303:246|342:210|332:163|306:144,1,280,10|0,2:0|2:0,2:0:0:0:
210,47,144606,6,0,P|180:101|241:176,1,132.00000402832
395,151,144932,6,0,P|343:84|261:106,1,180.000006866455
208,257,145258,6,0,P|296:262|326:192,1,174.000005310059,0|0,1:0|0:0,0:0:0:0:
261,106,145584,6,0,B|228:98|203:118|219:127|191:148|164:143,1,107.999996704102
166,143,145910,6,0,P|128:197|43:161,1,143.999995605469,2|0,0:1|0:0,0:0:0:0:
28,130,146236,6,0,P|50:141|51:195,1,71.9999978027344
81,255,146481,5,0,0:0:0:0:
81,255,146562,2,0,B|55:270|18:264|-11:234|-11:234|-17:261|25:285,1,154.000004699707,12|0,0:0|0:0,0:0:0:0:
55,331,147215,6,0,P|58:290|81:255,1,83.9999974365235
92,341,147541,2,0,P|54:359|13:357,1,83.9999974365235
96,259,147867,6,0,P|142:266|175:334,1,107.999996704102,0|0,1:0|0:0,0:0:0:0:
92,341,148193,2,0,P|84:263|138:197,1,132.00000402832
258,331,148519,6,0,P|218:374|160:384,1,120
236,253,148845,2,0,P|291:255|329:361,1,143.999995605469
170,296,149171,6,0,B|129:266|117:181|219:125|207:219|315:190|342:59|224:-25|111:29|122:115|169:103,1,420.000016021729,12|0,0:0|0:0,0:0:0:0:
248,174,149823,6,0,P|313:157|327:67,1,143.999995605469
278,42,150149,6,0,P|267:95|300:146,1,107.999996704102,8|0,0:0|0:0,0:0:0:0:
340,187,150475,6,0,P|370:218|376:263,1,71.9999978027344,0|0,1:0|0:0,0:0:0:0:
284,293,150802,6,0,P|288:270|302:250,1,48
408,309,151128,6,0,P|425:323|435:342,1,41.9999987182618
352,375,151454,6,0,P|330:383|312:383,1,33.6000004101563
315,383,151780,5,10,0:0:0:0:
315,362,152106,1,0,0:0:0:0:
337,355,152432,1,0,0:0:0:0:
352,375,152758,1,0,0:0:0:0:
233,372,153084,6,0,B|237:326|189:300|173:335|129:311|128:260,1,167.999994873047,0|0,1:0|0:0,0:0:0:0:
116,258,153736,6,0,P|139:213|197:220,1,90.0000034332277,0|0,2:0|2:0,2:0:0:0:
189,319,154062,6,0,P|121:317|99:254,1,143.999995605469,8|0,0:0|0:0,0:0:0:0:
174,207,154389,6,0,B|185:174|179:129|148:93|106:78|64:83|64:83|59:111|80:148|111:163,1,280,12|0,0:0|0:0,0:0:0:0:
249,177,155041,6,0,B|268:171|274:146|274:146|239:126|180:148|174:206,1,180.000006866455
112,231,155367,6,0,B|105:257|126:277|135:266|157:283|151:315,1,96,8|0,0:0|0:0,0:0:0:0:
210,375,155693,6,0,L|219:327,1,48,2|0,0:0|0:0,0:0:0:0:
227,320,156019,6,0,P|260:310|295:265,1,90.0000034332277
218,245,156345,6,0,P|173:216|180:106,1,150
330,148,156671,6,0,P|404:122|390:28,1,180.000006866455
323,19,156997,6,0,P|281:86|330:148,1,167.999994873047,14|0,0:0|0:0,0:0:0:0:
349,82,157649,6,0,B|286:88|256:152|307:151|255:240|115:287|-16:185|3:-15|184:-58|273:29|251:108,1,560,8|0,0:0|0:0,0:0:0:0:
246,60,158302,6,0,P|237:146|106:86,1,240.000009155274,8|0,1:1|0:0,0:0:0:0:
14,24,158791,5,0,0:0:0:0:
180,94,158954,2,0,P|137:50|68:63,1,120.000004577637
14,209,159606,5,12,0:0:0:0:
114,248,159932,1,0,0:0:0:0:
181,164,160258,1,0,0:0:0:0:
123,74,160584,1,8,0:0:0:0:
18,102,160910,2,0,B|21:132|49:149|55:130|83:150|87:184,1,112,8|0,1:1|2:0,2:0:0:0:
87,181,161562,6,0,B|100:167|95:145|95:145|74:139|40:160|39:195,1,120,2|0,0:1|0:0,0:0:0:0:
72,256,161889,2,0,L|133:268,1,60.0000022888184
213,319,162215,6,0,P|199:354|201:312,1,112,10|0,0:0|0:0,0:0:0:0:
210,212,162867,6,0,B|247:287|177:350|79:315|107:288|129:263|42:228|-30:286|2:367,1,363.999983337403,8|0,0:0|0:0,0:0:0:0:
87,354,163519,6,0,B|118:302|78:258|49:281|22:227|58:174,1,198.000001888275,8|0,1:0|0:0,0:0:0:0:
94,111,163845,6,0,B|117:107|141:121|141:121|155:152|142:178,1,103.999995239258
56,269,164171,6,0,B|34:266|22:241|22:241|24:197|56:178,1,120
94,111,164497,6,0,P|145:128|159:179,1,80
268,274,164823,6,0,B|188:235|114:301|122:359|122:359|147:375|182:357,1,251.999992309571,10|0,0:0|0:0,0:0:0:0:
167,363,165475,6,0,P|217:315|189:181,1,198.000001888275
158,115,165802,6,0,B|144:124|135:136|134:160|134:160|149:136|166:123|197:117,1,132.00000125885,8|0,0:0|0:0,0:0:0:0:
429,100,166128,6,0,B|408:177|310:201|269:158|269:158|275:112|318:91|353:91,1,320,12|0,1:0|2:0,2:0:0:0:
399,30,166617,5,8,0:3:0:0:
464,237,166780,2,0,B|485:268|521:261|521:261|540:224|522:181|480:163,1,180.000006866455
432,103,167106,6,0,L|409:183,1,80,4|0,0:3|0:0,0:0:0:0:
346,373,167350,5,0,0:0:0:0:
346,373,167432,2,0,B|337:327|376:306|405:310|405:310|418:347|378:368,1,167.999994873047,14|0,0:0|0:0,0:0:0:0:
482,345,168084,6,0,B|444:363|389:321|430:263|347:190|240:144|90:252|122:399|217:404|266:339,1,512.399990813141,8|0,0:0|0:0,0:0:0:0:
252,353,168736,6,0,B|286:301|258:249|204:230|202:213|251:210|283:226|292:301,1,232.000007080078,8|0,1:0|0:0,0:0:0:0:
328,349,169225,5,0,0:0:0:0:
173,311,169389,2,0,B|143:302|120:312|131:324|107:334|81:326,1,95.9999970703126
174,104,170041,5,12,0:0:0:0:
231,192,170367,1,0,0:0:0:0:
165,273,170693,1,0,0:0:0:0:
67,235,171019,1,8,0:0:0:0:
73,131,171345,2,0,P|89:85|48:9,1,125.999996154785,8|0,1:0|0:0,0:0:0:0:
59,17,171997,6,0,B|35:74|141:97|109:68|142:23|217:6|262:91|248:159|187:180|140:160,1,335.999989746094,2|0,0:1|0:0,0:0:0:0:
151,163,172649,6,0,P|111:98|213:82,1,210.000008010865,8|0,0:0|0:0,0:0:0:0:
287,154,173302,6,0,B|308:206|250:296|139:243|151:163|151:163|86:145|88:46|176:31|210:77,1,462.000004405975,8|0,0:0|0:0,0:0:0:0:
221,172,173954,6,0,L|209:243,1,71.9999978027344,8|0,1:1|0:0,0:0:0:0:
199,375,174280,6,0,B|157:384|125:353|149:346|114:316|70:326,1,143.999995605469
16,365,174606,6,0,P|49:353|72:326,1,71.9999978027344
209,243,174932,6,0,P|183:181|114:196,1,111.999996582031
80,195,175177,5,0,0:0:0:0:
70,208,175258,2,0,P|146:229|160:150,1,167.999994873047,8|0,0:0|0:0,0:0:0:0:
262,130,175584,6,0,P|172:122|220:27,1,192,2|0,0:0|0:0,0:0:0:0:
293,43,175910,6,0,P|282:157|167:159,1,251.999992309571,2|0,0:1|0:0,0:0:0:0:
38,103,176236,5,0,1:0:0:0:
182,41,176399,1,0,1:0:0:0:
100,175,176562,1,8,0:3:0:0:
83,21,176725,1,8,0:3:0:0:
187,141,176889,2,0,B|208:162|204:194|204:194|201:167|164:133,1,120.000004577637,8|0,0:3|0:0,0:0:0:0:
38,103,177215,6,0,B|11:117|3:148|3:148|51:104|109:86|166:100,1,180.000006866455,4|0,0:3|0:0,0:0:0:0:
205,44,177541,2,0,P|185:18|202:52,1,120.000004577637,4|0,0:3|0:0,0:0:0:0:
293,337,177867,6,0,P|351:367|301:281,1,251.999992309571,14|0,0:0|0:0,0:0:0:0:
293,337,178519,6,0,B|319:389|383:385|427:340|389:334|424:308|490:311|526:334|526:334|518:275|431:213|367:222|316:269,1,526.399991967774,8|0,0:0|0:0,0:0:0:0:
227,290,179171,6,0,B|204:318|209:348|209:348|259:358|315:323|321:235,1,210.359995458078,8|0,1:1|0:0,0:0:0:0:
382,236,179497,2,0,B|358:218|363:197|375:189|377:162|350:145,1,100
253,38,179823,6,0,B|218:39|209:71|209:71|217:81|264:87|297:44,1,160,0|0,2:0|2:0,2:0:0:0:
414,4,180475,5,12,0:0:0:0:
490,104,180802,1,0,0:0:0:0:
419,207,181128,1,0,0:0:0:0:
298,170,181454,1,8,0:0:0:0:
296,45,181780,2,0,B|330:37|352:55|342:66|364:85|398:76,1,112,8|0,1:1|0:0,0:0:0:0:
403,82,182432,6,0,P|527:62|435:148,1,335.999989746094,2|0,0:1|0:0,0:0:0:0:
282,57,183084,6,0,B|265:34|271:7|271:7|306:10|339:54|328:111,1,181.999991668702,10|0,0:0|0:0,0:0:0:0:
285,162,183736,1,8,0:0:0:0:
343,215,183899,1,0,0:0:0:0:
284,346,184062,6,0,L|299:269,1,77.9999964294435
299,270,184389,6,0,P|349:319|445:281,1,162.000000617981,8|0,1:1|0:0,0:0:0:0:
470,224,184715,2,0,B|426:197|390:223|390:223|374:249,1,108.000000411987
303,273,184959,1,0,0:0:0:0:
303,273,185041,2,0,B|321:315|285:347|285:347|239:343|230:296,1,162.000000617981
159,270,185367,2,0,P|195:234|248:229,1,88.000002685547
164,352,185693,6,0,B|127:355|81:330|80:278|93:294|99:236|45:183|-20:204|-20:204|-3:221|-19:238|-22:273|6:304,1,363.999983337403,10|0,0:0|0:0,0:0:0:0:
0,296,186345,6,0,P|98:333|157:216,1,204.000003890991
218,200,186671,6,0,B|217:165|149:160|118:225|167:279,1,160,8|0,0:0|0:0,0:0:0:0:
317,219,186997,6,0,P|231:95|100:121,1,240,10|0,1:1|0:0,0:0:0:0:
96,135,187323,6,0,B|102:163|48:183|8:136|36:81,1,128
6,22,187568,5,0,0:0:0:0:
22,14,187649,2,0,L|86:-10,1,44.0000013427735,0|0,1:0|0:0,0:0:0:0:
102,140,187812,6,0,L|168:126,1,44.0000013427735,0|0,1:0|0:0,0:0:0:0:
304,62,187975,6,0,B|306:37|329:22|329:22|266:42|271:140,1,155.999992858887,8|0,0:3|0:0,0:0:0:0:
218,200,188302,6,0,B|213:247|269:286|279:243|368:248|370:347|319:367,1,251.999992309571,14|0,0:0|0:0,0:0:0:0:
321,367,188954,6,0,B|252:401|180:332|200:198|333:209|369:259|383:308|381:242|444:363|573:254|524:83|393:127,1,531.999985794068,8|0,0:0|0:0,0:0:0:0:
392,81,189606,6,0,P|398:179|494:200,1,210.359995458078,8|0,1:0|0:0,0:0:0:0:
457,129,189932,6,0,P|394:68|331:88,1,120.000004577637
352,209,190258,6,0,P|428:199|457:129,1,160
368,69,190910,5,12,0:0:0:0:
320,144,191236,1,0,0:0:0:0:
234,123,191562,1,0,0:0:0:0:
227,33,191889,1,8,0:0:0:0:
310,0,192215,2,0,P|273:30|227:33,1,95.2000005810547,8|0,1:0|0:0,0:0:0:0:
220,26,192867,6,0,P|265:27|283:112,1,120,2|0,0:1|0:0,0:0:0:0:
268,157,193193,2,0,L|184:171,1,68.0000012969971
38,103,193519,6,0,B|8:87|-12:64|-5:32|-5:32|39:20|97:32|126:76|130:145|103:193,1,308.000009399414,8|0,0:0|0:0,0:0:0:0:
157,227,194171,6,0,P|86:237|47:146,1,162.000000617981,8|0,0:0|0:0,0:0:0:0:
115,164,194497,6,0,P|88:214|40:236,1,108.000000411987,8|0,0:3|0:0,0:0:0:0:
2,327,194742,5,0,0:0:0:0:
2,327,194823,2,0,B|32:291|86:299|107:338|107:338|102:362|119:383,1,167.999994873047,0|0,1:0|0:0,0:0:0:0:
180,346,195149,6,0,B|209:358|240:339|221:327|253:310|284:317,1,111.999996582031,4|0,0:3|0:0,0:0:0:0:
354,345,195475,5,8,0:3:0:0:
175,277,195639,1,8,0:3:0:0:
335,132,195802,6,0,B|365:160|359:206|359:206|349:222|332:230,1,111.999996582031,4|0,0:3|0:0,0:0:0:0:
264,247,196046,5,0,0:0:0:0:
264,247,196128,2,0,B|212:253|180:291|204:302|180:363|138:385|83:400|32:333|-9:337|-9:337|-13:291|47:254|99:267|99:267|46:246|46:197|72:167|72:167|108:158|128:187,1,660.000020141602,12|0,0:0|0:0,0:0:0:0:
99,267,197432,6,0,P|47:243|59:93,1,215.999993408203,4|0,1:0|0:0,0:0:0:0:
44,96,197758,6,0,L|27:37,1,55.9999982910157
213,92,198084,6,0,P|189:158|123:176,1,143.999995605469
122,101,198410,6,0,B|150:73|127:52|153:19,1,88.000002685547
265,23,198736,5,8,0:0:0:0:
265,23,198818,2,0,B|274:62|321:96|371:89|396:69|396:69|384:14|347:4|312:9,1,259.999988098145
213,92,199389,6,0,P|219:136|253:166,1,92.0000017547608
456,32,199715,6,0,B|476:70|462:101|462:101|443:129|411:140,1,138.000002632141,8|0,0:0|0:0,0:0:0:0:
286,99,200041,6,0,B|320:109|350:90|336:82|362:61|396:69,1,120.000004577637,0|0,1:1|0:0,0:0:0:0:
369,222,200367,6,0,B|358:272|406:318|441:322|492:306|483:263|460:251,1,204.000003890991,2|0,0:1|0:0,0:0:0:0:
454,246,200693,5,0,0:0:0:0:
445,242,200774,2,0,P|374:249|337:356,1,180.000006866455
256,372,201345,6,0,P|225:300|159:340,1,176.399994616699,4|0,0:0|0:0,0:0:0:0:
159,341,201997,6,0,B|132:386|69:370|69:370|58:338|69:298|103:271|147:269|147:269|189:268|220:230|215:194,1,363.999983337403,8|0,0:0|0:0,0:0:0:0:
216,194,202649,6,0,B|213:135|165:102|111:117|143:146|85:161|5:139|-38:81|-24:-23|143:-34|131:101|71:102|64:71,1,384,0|0,1:0|0:0,0:0:0:0:
64,72,203220,5,0,0:0:0:0:
64,72,203302,2,0,P|216:222|140:37,1,560,2|0,0:0|0:0,0:0:0:0:
57,155,203954,6,0,P|93:218|168:230,1,120.000004577637,4|0,0:1|0:0,0:0:0:0:
257,70,204280,6,0,P|206:20|127:17,1,143.999995605469,8|0,0:3|0:0,0:0:0:0:
145,313,204606,6,0,B|193:313|221:267|202:267|222:221|274:189|317:219,1,215.999993408203,4|0,0:3|0:0,0:0:0:0:
357,126,204932,6,0,P|297:155|316:218,1,143.999995605469,4|0,0:1|0:0,0:0:0:0:
357,302,205177,5,0,0:0:0:0:
428,298,205258,2,0,P|446:287|459:269,1,44.0000013427735,0|0,1:0|0:0,0:0:0:0:
431,203,205421,6,0,P|412:214|399:232,1,44.0000013427735,0|0,1:0|0:0,0:0:0:0:
318,335,205584,6,0,P|398:334|384:256,1,180.000006866455,8|0,0:0|0:0,0:0:0:0:
444,151,205910,6,0,P|422:190|452:156,1,132.00000402832,8|0,0:3|0:0,0:0:0:0:
508,114,206236,5,0,0:3:0:0:
384,256,206399,1,0,0:3:0:0:
414,83,206562,6,0,P|393:35|310:68,1,143.999995605469,4|0,0:0|0:0,0:0:0:0:
316,52,206889,2,0,P|295:80|322:123,1,80
76,175,207215,6,0,P|97:127|180:160,1,143.999995605469,8|0,0:0|0:0,0:0:0:0:
174,144,207541,2,0,P|195:172|163:218,1,90.0000034332277
167,221,207867,5,0,1:1:0:0:
168,291,208193,1,0,0:0:0:0:
235,311,208519,1,0,0:0:0:0:
273,253,208845,1,0,0:0:0:0:
234,200,209171,5,10,0:0:0:0:
234,200,209253,2,0,B|214:252|284:301|290:253|353:298|331:353,1,204.000003890991
265,379,209823,2,0,P|276:301|328:271,1,143.999995605469
390,216,210149,6,0,B|384:187|358:180|358:180|345:205|375:234,1,80,8|0,0:0|0:0,0:0:0:0:
441,360,210475,6,0,B|461:383|495:374|495:374|519:335|494:292|456:285,1,167.999994873047,0|0,1:0|0:0,0:0:0:0:
391,307,210802,2,0,B|346:313|365:333|320:339,1,80
164,220,211128,6,0,B|200:208|241:216|275:235|300:268|300:268|295:218|250:204,1,227.999993911743
164,220,211780,6,0,B|165:242|178:253|186:246|199:255|204:277,1,71.9999978027344,12|0,0:0|0:0,0:0:0:0:
434,110,212106,6,0,P|401:71|305:98,1,150
235,142,212432,2,0,B|263:136|276:118|266:106|281:88|313:87,1,100,12|0,0:0|0:0,0:0:0:0:
489,84,212758,5,0,0:0:0:0:
489,84,212840,2,0,B|466:87|451:97|451:97|426:78|425:43|448:18,1,128
294,12,213084,6,0,P|367:31|321:159,1,192,4|0,1:0|0:0,0:0:0:0:
321,207,213410,6,0,P|321:266|324:206,1,192
270,145,213736,6,0,B|239:161|219:199|219:239|219:239|192:205|232:181|234:146,1,204.000003890991,2|0,0:0|0:0,0:0:0:0:
155,106,214062,6,0,B|149:98|133:94|133:94|127:110|142:137|177:142,1,80,8|0,0:0|0:0,0:0:0:0:
280,324,214225,1,0,0:0:0:0:
410,72,214389,6,0,B|399:29|357:21|357:21|318:49|322:116|369:153,1,192,2|0,1:0|0:0,0:0:0:0:
346,221,214715,6,0,P|387:244|456:217,1,120
400,173,215041,6,0,P|338:151|280:251,1,192,10|0,0:0|0:0,0:0:0:0:
452,221,215367,6,0,P|470:186|455:128,1,92.0000017547608,0|0,1:0|0:0,0:0:0:0:
300,364,215693,6,0,B|251:352|225:289|227:223|276:184|321:210|314:237|276:241,1,240,8|0,1:3|0:0,0:0:0:0:
177,313,216019,6,0,B|143:362|63:360|23:330|23:330|86:319|112:277,1,276.000005264282,4|0,1:3|0:0,0:0:0:0:
264,146,216345,6,0,B|291:120|295:78|265:51|265:51|227:53|174:74|154:146|179:193,1,300,4|0,1:3|0:0,0:0:0:0:
349,295,216671,6,0,B|376:349|411:323|444:352|444:352|464:320|460:262|423:215|376:208,1,300,4|0,1:3|0:0,0:0:0:0:
272,229,216997,5,2,0:0:0:0:
270,236,217323,1,0,0:0:0:0:
276,240,217649,1,0,0:0:0:0:
281,235,218302,5,0,1:0:0:0:
80,69,218465,1,8,0:0:0:0:
71,59,218791,1,8,0:3:0:0:
48,151,218954,5,8,0:3:0:0:
192,92,219117,1,8,0:0:0:0:
136,276,219280,5,4,0:3:0:0:
149,198,219443,1,0,0:0:0:0:
333,360,219606,22,0,P|350:261|265:313,1,251.999992309571,14|0,0:0|0:0,0:0:0:0:
333,360,220258,6,0,B|413:383|449:280|384:233|384:233|299:209|290:102|343:41|440:64|440:64|454:99|434:137|397:147,1,587.999982055665,8|0,0:0|0:0,0:0:0:0:
405,145,220910,6,0,B|351:159|311:124|322:97|279:60|220:72,1,210.359995458078,8|0,1:0|0:0,0:0:0:0:
145,57,221236,6,0,P|173:16|219:-1,1,100
122,214,221562,6,0,P|80:159|23:153,1,120.000004577637
28,319,222215,5,12,0:0:0:0:
111,366,222541,1,0,0:0:0:0:
182,301,222867,1,0,0:0:0:0:
143,214,223193,1,8,0:0:0:0:
48,225,223519,2,0,B|48:268|85:294|151:287|103:276|143:253|197:263|219:292|219:332,1,210.000008010865,8|0,1:0|0:0,0:0:0:0:
139,372,224171,6,0,P|147:312|215:306,1,138.000002632141
283,327,224497,6,0,B|280:345|300:359|319:356|319:356|297:325|315:289,1,111.999996582031
384,251,224742,5,0,0:0:0:0:
384,251,224823,2,0,B|421:242|463:263|485:316|466:352|466:352|433:358|398:346|384:313,1,251.999992309571,10|0,0:0|0:0,0:0:0:0:
384,251,225475,6,0,B|356:190|278:166|202:206|191:263|191:263|243:273|228:295|274:314|312:300,1,378.000001441956,8|0,0:0|0:0,0:0:0:0:
384,251,226128,6,0,P|430:185|360:133,1,186.000001419067,8|0,1:0|0:0,0:0:0:0:
300,75,226454,6,0,B|289:83|281:101|281:101|249:99|225:68|230:32,1,124.000000946045
301,2,226698,5,0,0:0:0:0:
306,8,226780,2,0,P|323:75|252:146,1,155.999992858887
267,143,227106,2,0,P|228:194|241:255,1,95.9999970703126
128,302,227432,6,0,B|175:307|205:271|182:264|206:222|260:191|309:237|328:277|279:327|248:316,1,280,10|0,0:0|0:0,0:0:0:0:
250,317,228084,6,0,P|197:290|284:226,1,210.000002002716
328,327,228410,6,0,P|288:382|257:384,1,80,8|0,0:0|0:0,0:0:0:0:
87,169,228736,6,0,B|45:158|-4:185|2:211|-12:225|-12:225|5:246|54:260|120:253|165:200|169:107|99:36|14:69,1,480,12|0,1:1|0:0,0:0:0:0:
34,63,229389,5,0,1:0:0:0:
205,139,229552,1,0,1:0:0:0:
326,32,229715,1,8,0:3:0:0:
371,370,230041,6,0,B|409:346|406:304|382:330|381:283|417:250|457:225|506:246|524:303|493:338|450:333,1,251.999992309571,14|0,0:0|0:0,0:0:0:0:
474,329,230693,6,0,B|417:354|308:323|268:204|327:92|425:73|485:97|485:97|487:119|475:162|422:180,1,560,8|0,0:0|0:0,0:0:0:0:
474,329,231345,6,0,P|526:239|423:180,1,246.000003753662,8|0,1:0|0:0,0:0:0:0:
357,272,231671,6,0,P|391:282|456:238,1,103.999995239258
413,76,231997,6,0,P|362:105|358:179,1,120
448,251,232323,2,0,P|461:199|396:139,1,120
338,97,232649,5,12,0:0:0:0:
272,177,232975,1,0,0:0:0:0:
176,140,233302,1,0,0:0:0:0:
182,37,233628,1,8,0:0:0:0:
279,11,233954,6,0,P|259:131|242:253,1,238.00000453949,8|0,1:0|0:0,0:0:0:0:
247,261,234606,6,0,B|280:268|311:247|291:237|318:217|354:222,1,120
411,177,234932,6,0,P|454:188|451:262,1,111.999996582031
508,314,235177,5,0,0:0:0:0:
508,314,235258,2,0,B|505:355|478:364|478:364|417:375|374:321,1,167.999994873047,10|0,0:0|0:0,0:0:0:0:
347,260,235910,6,0,B|310:280|293:311|297:354|319:383|319:383|297:364|274:371|247:306|277:284|300:250|258:205,1,335.999989746094,8|0,0:0|0:0,0:0:0:0:
218,164,236562,6,0,B|160:151|126:191|115:235|115:235|130:220|155:216,1,180.000006866455,8|0,1:0|0:0,0:0:0:0:
222,153,236889,6,0,P|265:119|244:48,1,95.9999970703126
409,6,237215,6,0,P|474:26|408:120,1,180.000006866455
374,72,237541,6,0,P|393:24|455:20,1,120.000004577637
503,206,237867,22,1,B|447:230|357:223|353:133|280:118|221:152|221:152|230:201|261:229|291:237|291:237|269:271|288:322|288:322|323:320|345:284,1,575.999982421876,2|0,0:0|0:0,0:0:0:0:
488,32,239171,6,0,P|497:112|403:67,1,207.999990478516,0|0,1:0|0:0,0:0:0:0:
337,28,239660,5,0,0:0:0:0:
266,40,239823,5,0,0:0:0:0:
233,110,239986,5,0,0:0:0:0:
268,196,240149,5,0,0:0:0:0:
346,244,240312,5,0,0:0:0:0:
348,343,240475,6,0,P|307:375|203:258,1,240
279,239,241780,6,0,P|309:357|229:348,1,240
158,334,243084,6,0,L|128:316,1,32
213,275,243736,6,0,L|196:237,1,32
302,275,244389,6,0,L|321:192,1,80
353,123,245367,5,0,0:0:0:0:
320,197,245693,2,0,B|327:222|346:220|354:235|354:235|364:215|349:193|330:188,1,102.4
320,197,246693,5,0,0:0:0:0:
353,123,247042,2,0,B|336:92|310:85|294:97|266:91|255:51,1,128
311,6,248193,5,0,0:0:0:0:
176,167,248738,6,0,B|112:188|50:111|94:26|192:18|219:78|180:61|234:115|309:127|342:57|306:-14|247:-1|226:44|263:56,1,400
256,192,252891,12,0,256066,0:0:0:0:
