osu file format v14

[General]
AudioFilename: hanakotoba.mp3
AudioLeadIn: 0
PreviewTime: 44
Countdown: 0
SampleSet: Soft
StackLeniency: 0.3
Mode: 0
LetterboxInBreaks: 0
WidescreenStoryboard: 0

[Editor]
Bookmarks: 698,11132,21567,24176,34611,45045,55480,65915,76350,86784,97219,105045,107654,112871,115480,125915,136350,146784,157219,167654,178089,188524,198958,209393,219828,230263,240697,245915
DistanceSpacing: 1.2
BeatDivisor: 8
GridSize: 8
TimelineZoom: 2.37968

[Metadata]
Title:Hanakotoba
TitleUnicode:花詞
Artist:Suara
ArtistUnicode:Suara
Creator:Axarious
Version:Language of Flowers
Source:
Tags:
BeatmapID:1548708
BeatmapSetID:733890

[Difficulty]
HPDrainRate:4
CircleSize:5
OverallDifficulty:6.2
ApproachRate:8.5
SliderMultiplier:3.2
SliderTickRate:1

[Events]
//Background and Video events
0,0,"hanakotoba.png",0,0
//Break Periods
//Storyboard Layer 0 (Background)
//Storyboard Layer 1 (Fail)
//Storyboard Layer 2 (Pass)
//Storyboard Layer 3 (Foreground)
//Storyboard Sound Samples

[TimingPoints]
44,652.173913043478,4,2,1,40,1,0
44,-50,4,2,1,40,0,0
698,652.173913043478,4,2,1,40,1,0
698,-100,4,2,1,40,0,1
1268,-66.6666666666667,4,2,1,40,0,1
2002,-80,4,2,1,40,0,0
2328,-100,4,2,1,40,0,0
2654,-133.333333333333,4,2,1,40,0,0
3306,-133.333333333333,4,2,3,20,0,0
3632,-133.333333333333,4,2,1,40,0,0
5263,-100,4,2,1,40,0,0
5915,-133.333333333333,4,2,2,20,0,0
6567,-100,4,2,1,40,0,0
7545,-133.333333333333,4,2,1,40,0,0
8197,-100,4,2,1,40,0,0
8524,-133.333333333333,4,2,3,20,0,0
9094,-133.333333333333,4,2,1,40,0,0
9176,-80,4,2,1,40,0,0
10480,-100,4,2,1,40,0,0
10806,-80,4,2,1,40,0,0
11132,-80,4,2,1,40,0,1
11784,-57.1428571428571,4,2,1,40,0,1
12437,-66.6666666666667,4,2,1,40,0,1
12763,-79.6812749003984,4,2,1,40,0,0
13089,-100,4,2,1,40,0,0
13741,-100,4,2,3,40,0,0
14067,-100,4,2,1,40,0,0
16350,-133.333333333333,4,2,1,40,0,0
17002,-100,4,2,1,40,0,0
17980,-133.333333333333,4,2,1,40,0,0
18632,-200,4,2,1,40,0,0
18958,-133.333333333333,4,2,3,20,0,0
19203,-133.333333333333,4,2,1,40,0,0
19284,-100,4,2,1,40,0,0
19937,-133.333333333333,4,2,1,40,0,0
21567,-200,4,2,1,40,0,0
23524,-200,4,2,1,40,0,0
24176,-100,4,2,1,40,0,0
24828,-100,4,2,1,40,0,0
26132,-133.333333333333,4,2,1,40,0,0
26458,-200,4,2,1,40,0,0
26784,-133.333333333333,4,2,3,20,0,0
27355,-133.333333333333,4,2,1,20,0,0
27437,-133.333333333333,4,2,1,40,0,0
28089,-133.333333333333,4,2,1,20,0,0
28415,-133.333333333333,4,2,1,40,0,0
29067,-100,4,2,1,40,0,0
29393,-80,4,2,1,40,0,0
30045,-100,4,2,1,40,0,0
30697,-80,4,2,1,40,0,0
31024,-100,4,2,1,40,0,0
31676,-66.6666666666667,4,2,1,40,0,0
32002,-100,4,2,3,20,0,0
32572,-100,4,2,1,20,0,0
32654,-100,4,2,1,40,0,0
33306,-133.333333333333,4,2,2,20,0,0
33551,-133.333333333333,4,2,1,20,0,0
33632,-133.333333333333,4,2,1,40,0,0
33958,-100,4,2,1,40,0,0
34284,-133.333333333333,4,2,1,40,0,0
34611,-100,4,2,1,40,0,0
35263,-80,4,2,1,40,0,0
35589,-66.6666666666667,4,2,1,40,0,0
35915,-80,4,2,1,40,0,0
36241,-66.6666666666667,4,2,1,40,0,0
36567,-80,4,2,1,40,0,0
36893,-66.6666666666667,4,2,1,40,0,0
37219,-80,4,2,3,20,0,0
37790,-80,4,2,1,20,0,0
37871,-100,4,2,1,40,0,0
38524,-133.333333333333,4,2,1,20,0,0
38850,-133.333333333333,4,2,1,40,0,0
39176,-100,4,2,1,40,0,0
39502,-66.6666666666667,4,2,1,40,0,0
40806,-100,4,2,1,40,0,0
41132,-66.6666666666667,4,2,1,40,0,0
41458,-100,4,2,1,40,0,0
41784,-66.6666666666667,4,2,1,40,0,0
42111,-100,4,2,1,40,0,0
42437,-66.6666666666667,4,2,3,20,0,0
43007,-66.6666666666667,4,2,1,20,0,0
43089,-57.1428571428571,4,2,1,40,0,0
43415,-50,4,2,1,40,0,0
43741,-80,4,2,1,20,0,0
44393,-100,4,2,1,40,0,0
45045,-133.333333333333,4,2,1,40,0,0
45697,-100,4,2,1,40,0,0
46024,-80,4,2,1,40,0,0
46350,-66.6666666666667,4,2,1,40,0,0
47328,-57.1428571428571,4,2,1,40,0,0
47654,-50,4,2,2,20,0,0
48225,-50,4,2,1,20,0,0
48306,-57.1428571428571,4,2,1,40,0,0
48632,-66.6666666666667,4,2,1,40,0,0
48958,-66.6666666666667,4,2,1,20,0,0
49284,-80,4,2,1,40,0,0
49611,-100,4,2,1,40,0,0
49937,-133.333333333333,4,2,1,40,0,0
50263,-200,4,2,1,40,0,0
50915,-133.333333333333,4,2,1,40,0,0
51241,-100,4,2,1,40,0,0
51567,-66.6666666666667,4,2,1,40,0,0
52871,-66.6666666666667,4,2,3,20,0,0
53442,-66.6666666666667,4,2,1,20,0,0
53524,-80,4,2,1,40,0,0
53850,-66.6666666666667,4,2,1,40,0,0
54176,-66.6666666666667,4,2,1,20,0,0
54502,-80,4,2,1,40,0,0
54828,-100,4,2,1,40,0,0
55154,-133.333333333333,4,2,1,40,0,0
55480,-200,4,2,1,40,0,0
56132,-133.333333333333,4,2,1,40,0,0
56458,-100,4,2,1,40,0,0
56784,-66.6666666666667,4,2,1,40,0,0
57111,-100,4,2,1,40,0,0
57437,-66.6666666666667,4,2,1,40,0,0
57763,-57.1428571428571,4,2,1,40,0,0
58089,-50,4,2,2,20,0,0
58659,-50,4,2,1,20,0,0
58741,-66.6666666666667,4,2,1,40,0,0
59067,-100,4,2,1,40,0,0
59393,-50,4,2,1,20,0,0
59719,-66.6666666666667,4,2,1,40,0,0
60045,-100,4,2,1,40,0,0
60371,-133.333333333333,4,2,1,40,0,0
60697,-100,4,2,1,40,0,0
62002,-80,4,2,1,40,0,0
62654,-66.6666666666667,4,2,1,40,0,0
62980,-57.1428571428571,4,2,1,40,0,0
63306,-50,4,2,3,20,0,0
63551,-50,4,2,1,20,0,0
63632,-50,4,2,1,40,0,0
63958,-57.1428571428571,4,2,1,40,0,0
64284,-66.6666666666667,4,2,1,40,0,0
64611,-80,4,2,1,20,0,0
64937,-80,4,2,1,40,0,0
65263,-66.6666666666667,4,2,1,40,0,0
65589,-50,4,2,1,40,0,0
65915,-66.6666666666667,4,2,1,40,0,1
66567,-50,4,2,1,40,0,1
67219,-57.0450656018254,4,2,1,40,0,1
67871,-100,4,2,1,40,0,1
68524,-133.333333333333,4,2,3,20,0,1
68850,-133.333333333333,4,2,1,40,0,1
70480,-100,4,2,1,40,0,1
70806,-133.333333333333,4,2,1,40,0,1
71132,-200,4,2,1,40,0,1
71784,-100,4,2,1,40,0,1
72437,-133.333333333333,4,2,1,40,0,1
72763,-100,4,2,1,40,0,1
73089,-200,4,2,1,40,0,1
73741,-100,4,2,1,40,0,1
74393,-66.6666666666667,4,2,1,40,0,1
75045,-57.1428571428571,4,2,1,40,0,1
76350,-66.6666666666667,4,2,1,40,0,1
77002,-50,4,2,1,40,0,1
77654,-57.1428571428571,4,2,1,40,0,1
78306,-100,4,2,1,40,0,1
78958,-133.333333333333,4,2,3,20,0,1
79284,-133.333333333333,4,2,1,40,0,1
80915,-100,4,2,1,40,0,1
81241,-133.333333333333,4,2,1,40,0,1
81567,-200,4,2,1,40,0,1
82219,-100,4,2,1,40,0,1
82871,-66.6666666666667,4,2,1,40,0,1
83197,-57.1428571428571,4,2,1,40,0,1
83524,-50,4,2,1,40,0,1
83850,-80,4,2,1,40,0,1
84176,-200,4,2,1,40,0,1
84828,-133.333333333333,4,2,1,40,0,1
86132,-100,4,2,1,40,0,1
86784,-66.6666666666667,4,2,1,40,0,1
87437,-50,4,2,1,40,0,1
88089,-57.1428571428571,4,2,1,40,0,1
88741,-100,4,2,1,40,0,1
89393,-133.333333333333,4,2,3,20,0,1
89719,-133.333333333333,4,2,1,40,0,1
91350,-100,4,2,1,40,0,1
92002,-66.6666666666667,4,2,1,40,0,1
92654,-50,4,2,1,40,0,1
93306,-57.1428571428571,4,2,1,40,0,1
93958,-80,4,2,1,40,0,1
94611,-66.6666666666667,4,2,1,40,0,1
95263,-57.1428571428571,4,2,1,40,0,1
95915,-50,4,2,1,40,0,1
97219,-66.6666666666667,4,2,1,40,0,1
97871,-50,4,2,1,40,0,1
98524,-57.1428571428571,4,2,1,40,0,1
99176,-100,4,2,1,40,0,1
99828,-133.333333333333,4,2,3,20,0,1
100154,-133.333333333333,4,2,1,40,0,1
101784,-100,4,2,1,40,0,1
102111,-66.6666666666667,4,2,1,40,0,1
102437,-133.333333333333,4,2,1,40,0,1
103089,-80,4,2,1,40,0,1
103741,-66.6666666666667,4,2,1,40,0,1
104067,-50,4,2,1,40,0,1
104393,-100,4,2,1,40,0,1
105045,-133.333333333333,4,2,1,40,0,0
106024,-100,4,2,1,40,0,0
106350,-80,4,2,1,40,0,0
106676,-66.6666666666667,4,2,1,40,0,0
107328,-57.1428571428571,4,2,1,40,0,0
107654,-100,4,2,1,40,0,0
108632,-133.333333333333,4,2,1,40,0,0
125915,-100,4,2,1,40,0,0
127219,-133.333333333333,4,2,1,40,0,0
127871,-200,4,2,1,40,0,0
128524,-100,4,2,1,40,0,0
129828,-133.333333333333,4,2,1,40,0,0
130480,-100,4,2,1,40,0,0
131132,-66.6666666666667,4,2,1,40,0,0
132437,-100,4,2,1,40,0,0
133089,-133.333333333333,4,2,1,40,0,0
133741,-80,4,2,1,40,0,0
134719,-133.333333333333,4,2,1,40,0,0
135045,-66.6666666666667,4,2,1,40,0,0
136350,-133.333333333333,4,2,1,40,0,0
137002,-100,4,2,1,40,0,0
137328,-80,4,2,1,40,0,0
137654,-66.6666666666667,4,2,1,40,0,0
138632,-57.1428571428571,4,2,1,40,0,0
138958,-50,4,2,1,40,0,0
139611,-57.1428571428571,4,2,1,40,0,0
139937,-66.6666666666667,4,2,1,40,0,0
140589,-80,4,2,1,40,0,0
140915,-100,4,2,1,40,0,0
141241,-133.333333333333,4,2,1,40,0,0
141567,-200,4,2,1,40,0,0
142219,-133.333333333333,4,2,1,40,0,0
142545,-100,4,2,1,40,0,0
142871,-80,4,2,1,40,0,0
144176,-66.6666666666667,4,2,1,40,0,0
146784,-100,4,2,1,40,0,0
157219,-66.6666666666667,4,2,3,40,0,1
157790,-66.6666666666667,4,2,1,20,0,1
157871,-66.6666666666667,4,2,3,40,0,1
158442,-66.6666666666667,4,2,1,20,0,1
158524,-66.6666666666667,4,2,0,40,0,1
167654,-66.6666666666667,4,2,3,40,0,1
168225,-66.6666666666667,4,2,1,20,0,1
168306,-66.6666666666667,4,2,3,40,0,1
168877,-66.6666666666667,4,2,1,20,0,1
168958,-66.6666666666667,4,2,0,40,0,1
178089,-66.6666666666667,4,2,3,40,0,1
178659,-66.6666666666667,4,2,1,20,0,1
178741,-66.6666666666667,4,2,3,40,0,1
179312,-66.6666666666667,4,2,1,20,0,1
179393,-66.6666666666667,4,2,0,40,0,1
188524,-66.6666666666667,4,2,3,40,0,1
189094,-66.6666666666667,4,2,1,20,0,1
189176,-66.6666666666667,4,2,3,40,0,1
189746,-66.6666666666667,4,2,1,20,0,1
189828,-66.6666666666667,4,2,0,40,0,1
196350,-100,4,2,1,40,0,0
219828,-66.6666666666667,4,2,1,40,0,1
230263,-66.6666666666667,4,2,3,40,0,1
230833,-66.6666666666667,4,2,1,20,0,1
230915,-66.6666666666667,4,2,3,40,0,1
231486,-66.6666666666667,4,2,1,20,0,1
231567,-66.6666666666667,4,2,1,40,0,1
240697,-66.6666666666667,4,2,1,40,0,0
246567,697.674418604651,4,2,1,40,1,0
247961,909.090909090909,4,2,1,40,1,0
248415,1000,4,2,1,40,1,0
248915,750,4,2,1,40,1,0
250227,769.230769230769,4,2,1,40,1,0
250419,789.473684210526,4,2,1,40,1,0
250616,810.810810810811,4,2,1,40,1,0
250818,882.352941176471,4,2,1,40,1,0
250928,769.230769230769,4,2,1,40,1,0
251312,789.473684210526,4,2,1,40,1,0
251509,750,4,2,1,40,1,0
252071,789.473684210526,4,2,1,40,1,0
252268,666.666666666667,4,2,1,40,1,0
252434,909.090909090909,4,2,1,40,1,0
252661,1000,4,2,1,40,1,0
252911,1111.11111111111,4,2,1,40,1,0

[HitObjects]
195,185,534,6,0,B|200:174|190:164|190:164|183:170|183:178,3,40
170,246,698,6,0,B|147:273|145:311|166:341|166:341|211:328|239:286|237:236,1,240,4|0,0:0|0:0,0:0:0:0:
237,236,1268,6,0,B|220:128|117:82|20:139|20:139|125:154|70:235|170:246,1,480.000018310548
170,246,2002,6,0,B|247:237|219:181|294:173,1,150
354,130,2328,6,0,P|322:105|283:101,1,80
432,210,2654,6,0,P|438:152|486:118,1,120.000004577637
381,56,3306,5,4,0:0:0:0:
379,16,3632,1,0,0:0:0:0:
416,2,3958,1,0,0:0:0:0:
441,33,4284,1,0,0:0:0:0:
420,67,4611,1,0,0:0:0:0:
405,175,5263,6,0,B|402:268|369:235|365:328,1,160
183,338,5915,6,0,B|164:369|128:368|128:368|95:326|97:275|133:238,1,210.000008010865,4|0,0:0|0:0,0:0:0:0:
183,338,6567,6,0,B|214:268|57:282|81:215|81:215|96:175|149:195|134:238,1,280
134,238,7219,6,0,P|141:296|183:337,1,120
251,348,7545,6,0,P|280:342|305:326,1,60.0000022888184
340,237,7871,2,0,P|315:200|311:155,1,90.0000034332277
389,154,8197,6,0,P|403:117|402:77,1,80
312,156,8524,6,0,B|316:112|357:76|402:78|402:78|407:104|404:129|389:154,1,210.000008010865,4|0,0:0|0:0,0:0:0:0:
389,154,9176,6,0,B|337:235|232:215|217:117|217:117|257:106|292:119|312:157,1,350
312,157,9828,6,0,B|337:204|335:262|303:236|301:294|328:349,1,200
260,284,10480,6,0,B|234:278|223:252|223:252|260:245|287:273,1,120
382,255,10806,6,0,B|419:253|432:215|432:215|388:200|357:234,1,150
261,183,11132,6,0,B|177:162|137:81|172:2|172:2|216:7|247:34|254:74,1,350,6|0,0:0|0:0,0:0:0:0:
261,183,11784,6,0,B|365:198|445:129|443:21|443:21|371:0|300:17|254:74,1,490.000004673004
254,74,12437,6,0,B|212:149|276:177|237:248,1,180.000006866455
100,251,12763,6,0,P|147:239|176:200,1,100.400000612793
2,91,13089,6,0,P|29:162|104:177,1,160
152,68,13741,5,4,0:0:0:0:
154,28,14067,1,0,0:0:0:0:
117,14,14393,1,0,0:0:0:0:
92,45,14719,1,0,0:0:0:0:
113,79,15045,1,0,0:0:0:0:
151,169,15697,6,0,B|172:259|125:245|147:326,1,160
92,118,16350,6,0,B|40:119|4:82|7:31|7:31|30:22|52:21|78:29,1,210.000008010865,4|0,0:0|0:0,0:0:0:0:
78,29,17002,6,0,B|154:55|150:164|68:183|68:183|69:148|93:118,1,280
92,118,17654,6,0,P|146:94|203:109,1,120
198,203,17980,6,0,P|178:180|151:168,1,60.0000022888184
136,241,18306,6,0,P|146:268|144:298,1,60.0000022888184
71,280,18632,6,0,L|31:284,1,40
24,295,18877,1,0,0:0:0:0:
21,309,18958,6,0,P|47:343|90:344,1,90.0000034332277,4|0,0:0|0:0,0:0:0:0:
144,298,19284,6,0,B|156:284|175:287|175:287|176:311|154:324,1,80
347,347,19611,6,0,P|396:317|399:259,1,120
334,237,19937,6,0,B|286:264|226:246|203:193|203:193|231:179|260:183|281:204,1,240.000009155274
140,242,20915,6,0,P|133:300|161:352,1,120.000004577637
246,152,21567,6,0,P|249:191|232:227,1,80
175,94,22219,6,0,P|173:100|174:107,2,13.3333333333333
186,76,22437,1,0,0:0:0:0:
205,72,22545,6,0,P|233:78|262:70,1,60
327,85,22871,6,0,B|347:42|395:45|395:45|416:67|444:66,1,140
507,93,23524,6,0,P|512:73|511:53,1,40
481,186,23850,2,0,P|486:205|485:225,1,40
382,254,24176,6,0,B|372:253|366:248|366:248|402:241|437:253|461:283|461:283|434:248|442:205|481:186|481:186|487:197|488:210|485:225,1,280,6|0,0:0|0:0,0:0:0:0:
485,226,24828,6,0,B|476:315|435:292|427:373,1,160
321,273,25480,6,0,B|272:280|240:226|213:299|257:284,1,120
321,273,25806,6,0,P|358:260|380:227,1,80
312,202,26132,6,0,P|311:158|283:125,1,90.0000034332277
244,185,26458,6,0,P|226:178|206:175,1,40
142,205,26784,6,0,B|123:230|121:266|140:297|140:297|160:327|116:355|81:317|119:282,1,210.000008010865,4|0,0:0|0:0,0:0:0:0:
119,280,27437,6,0,P|157:258|201:253,1,90.0000034332277
261,286,27763,6,0,B|266:265|286:259|286:259|291:270|288:281,1,60.0000022888184
425,321,28089,6,0,B|437:335|455:333|455:333|464:305|440:283,1,90.0000034332277,2|2,0:0|0:0,0:0:0:0:
468,218,28415,6,0,P|494:229|508:256,1,60.0000022888184
369,296,28741,6,0,P|365:266|381:241,1,60.0000022888184
437,134,29067,6,0,B|421:89|377:102|377:102|364:120|341:122,1,120
341,122,29393,6,0,B|294:126|271:74|304:37|304:37|373:46|392:119|346:142|333:187|353:229,1,350,4|0,0:0|0:0,0:0:0:0:
421,192,30045,6,0,P|396:139|341:122,1,120.000004577637
353,228,30371,6,0,P|379:256|417:267,1,80
491,164,30697,6,0,P|483:236|418:267,1,150
389,336,31024,6,0,P|428:341|464:326,1,80
332,286,31350,6,0,B|266:273|284:319|217:308,1,120
218,309,31676,6,0,P|170:275|168:217,1,120.000004577637
218,309,32002,6,0,B|256:313|260:381|298:383|298:383|305:344|287:303|246:322|226:278|233:241,1,280,4|0,0:0|0:0,0:0:0:0:
218,309,32654,6,0,B|181:292|175:321|140:304,1,80
302,250,32980,6,0,B|341:253|356:215|356:215|331:207|311:224,1,120
196,182,33306,6,0,B|163:176|163:144|163:144|183:141|191:158,1,90.0000034332277,4|0,0:0|0:0,0:0:0:0:
304,110,33632,6,0,P|324:86|337:59,1,60.0000022888184
263,97,33958,6,0,B|257:78|257:55|264:38|264:38|286:57|319:62,1,120
315,151,34284,6,0,P|345:156|375:153,1,60.0000022888184
232,126,34611,6,0,B|181:177|106:158|81:93|81:93|112:83|145:93|163:122,1,280,6|0,0:0|0:0,0:0:0:0:
163,122,35263,6,0,P|170:195|117:243,1,150
45,221,35589,6,0,P|45:167|100:167,1,120.000004577637
160,303,35915,6,0,P|130:359|88:311,1,150
117,243,36241,6,0,P|159:203|218:205,1,120.000004577637
340,249,36567,6,0,P|289:196|218:205,1,150
185,274,36893,6,0,P|226:309|264:269,1,120.000004577637
218,205,37219,6,0,B|197:164|202:118|244:106|249:60|234:15|234:15|256:80|294:113|281:155,1,350,4|0,0:0|0:0,0:0:0:0:
281,154,37871,6,0,P|338:143|383:180,1,120
466,231,38197,6,0,P|426:235|396:261,1,80
432,379,38524,6,0,P|476:380|513:355,1,90.0000034332277,2|0,0:0|0:0,0:0:0:0:
361,335,38850,6,0,P|332:338|304:329,1,60.0000022888184
217,283,39176,6,0,B|191:284|182:260|182:260|222:244|250:275,1,120
371,244,39502,6,0,B|407:229|404:191|404:191|339:195|320:254,1,180.000006866455
303,328,39828,6,0,B|305:362|320:384|320:384|347:351|341:304|270:283|270:184|330:153|326:110|303:76|303:76|321:86|331:106,1,420.000016021729,4|0,0:0|0:0,0:0:0:0:
331,105,40480,6,0,P|297:174|243:119,1,180.000006866455
218,19,40806,6,0,B|228:2|245:5|245:5|254:28|230:46,1,80
139,105,41132,6,0,B|97:114|76:77|76:77|133:47|173:91,1,180.000006866455
242,170,41458,6,0,P|243:209|227:246,1,80
158,317,41784,6,0,B|151:344|141:339|133:367|133:367|126:317|101:287|140:250,1,180.000006866455
199,182,42111,6,0,P|205:143|190:107,1,80
132,154,42437,6,0,B|104:127|70:136|45:109|45:109|96:165|46:220|101:276|101:276|124:216|177:238|199:182,1,420.000016021729,4|0,0:0|0:0,0:0:0:0:
199,183,43089,6,0,B|216:132|179:111|168:72|168:72|161:108|137:118|132:155,1,210.000002002716
173,302,43415,6,0,B|191:361|240:355|278:384|278:384|261:346|275:320|256:284,1,240
138,227,43741,6,0,B|57:235|84:159|1:167|1:167|64:220|7:284|67:339,1,350,2|0,0:0|0:0,0:0:0:0:
138,358,44393,6,0,B|205:351|181:322|249:317,1,120
310,280,44719,6,0,P|345:295|362:331,1,80
448,294,45045,6,0,B|458:325|439:350|439:350|414:284|477:269|453:206,1,210.000008010865,4|0,0:0|0:0,0:0:0:0:
386,234,45697,6,0,P|417:184|404:126,1,120
405,127,46024,6,0,P|339:97|278:135,1,150
278,134,46350,6,0,B|242:210|324:250|315:356|315:356|317:273|375:238|344:174,1,420.000016021729
254,59,47002,6,0,B|212:31|184:61|155:54|155:54|184:73|176:99|203:114,1,180.000006866455
346,98,47328,6,0,B|403:93|397:145|454:140|454:140|476:114|472:81|445:63,1,210.000002002716
346,98,47654,6,0,B|256:104|205:191|256:279|256:279|261:191|336:150|370:197|440:157|445:62,1,560,4|0,0:0|0:0,0:0:0:0:
445,61,48306,6,0,B|445:26|424:0|424:0|372:3|336:42|346:98,1,210.000002002716
346,98,48632,6,0,B|345:152|398:144|396:203|396:203|406:178|422:176|428:155,1,180.000006866455
445,61,48958,6,0,B|415:24|372:20|333:49|333:49|328:77|346:98,1,180.000006866455,2|0,0:0|0:0,0:0:0:0:
346,98,49284,6,0,B|375:149|447:116|475:161,1,150
472,249,49611,6,0,P|418:271|365:246,1,120
420,202,49937,5,0,0:0:0:0:
365,246,50263,6,0,P|338:233|308:237,1,60,4|0,0:0|0:0,0:0:0:0:
254,280,50589,6,0,P|244:296|241:316,1,40
244,211,50915,6,0,P|239:167|204:140,1,90.0000034332277
136,141,51241,6,0,P|99:154|61:145,1,80
94,82,51567,6,0,B|123:83|142:109|136:141|136:141|52:185|62:300|152:324|152:324|174:296|171:260|147:236,1,420.000016021729
136,141,52219,6,0,B|171:132|204:145|204:145|195:208|147:236,1,180.000006866455
148,235,52545,6,0,P|61:245|1:182,1,180.000006866455
136,141,52871,6,0,B|194:80|240:161|298:104|298:104|305:176|243:184|248:251|248:251|219:233|221:204|189:189,1,420.000016021729,4|0,0:0|0:0,0:0:0:0:
62,128,53524,6,0,B|46:85|83:76|87:30|87:30|93:56|104:53|108:69,1,150
87,201,53850,6,0,B|64:243|21:230|3:263|3:263|14:242|4:219|16:191,1,180.000006866455
209,119,54176,6,0,B|299:149|303:68|338:93|338:93|338:111|325:113|325:129,1,180.000006866455,2|0,0:0|0:0,0:0:0:0:
144,147,54502,6,0,B|106:140|109:109|83:95|83:95|100:96|119:73|147:76,1,150
287,190,54828,6,0,B|287:215|273:240|269:266|269:266|267:250|259:241|255:227,1,120
245,53,55154,6,0,P|267:32|294:19,1,60.0000022888184
181,13,55480,6,0,P|151:16|124:3,1,60,4|0,0:0|0:0,0:0:0:0:
52,36,55806,6,0,P|45:54|45:74,1,40
91,187,56132,6,0,P|86:157|91:127,1,60.0000022888184
181,13,56458,6,0,P|169:51|166:90,1,80
178,101,56703,1,0,0:0:0:0:
176,117,56784,6,0,B|194:114|198:143|137:153|128:79|212:67|220:139|297:129,1,180.000006866455
294,128,57111,6,0,P|331:116|355:84,1,80
288,61,57437,6,0,B|271:157|223:118|202:213,1,180.000006866455
141,173,57763,6,0,B|234:238|169:270|259:339,1,210.000002002716
325,355,58089,6,0,P|416:151|202:213,1,560,4|0,0:0|0:0,0:0:0:0:
281,265,58741,6,0,P|360:273|361:193,1,180.000006866455
201,214,59067,6,0,P|206:273|239:322,1,120.000004577637
382,340,59393,6,0,P|435:283|443:205,1,160,2|0,0:0|0:0,0:0:0:0:
335,37,59719,6,0,P|247:54|175:106,1,180.000006866455
138,173,60045,6,0,P|132:212|133:252,1,80
267,329,60371,6,0,P|273:300|275:270,1,60.0000022888184
294,252,60616,1,0,0:0:0:0:
278,234,60697,6,0,P|269:174|244:120,1,120.000004577637,4|0,0:0|0:0,0:0:0:0:
191,63,61024,6,0,P|158:39|121:24,1,80
267,46,61350,6,0,P|306:43|345:33,1,80
244,121,61676,6,0,P|218:151|203:188,1,80
203,296,62002,6,0,B|203:350|256:367|256:367|309:266|223:213|244:119,1,350
281,54,62654,6,0,B|327:12|373:55|373:55|345:91|305:70,1,180.000006866455
244,120,62980,6,0,B|206:56|138:81|138:81|158:127|205:122,1,210.000002002716
276,190,63306,6,0,B|333:173|367:212|422:193|422:193|398:206|380:233|338:220,1,240,4|0,0:0|0:0,0:0:0:0:
214,236,63632,6,0,B|172:242|166:220|139:214|121:226|102:228|102:228|119:229|131:238|145:239,1,160
258,366,63958,6,0,P|299:281|215:236,1,210.000002002716
276,190,64284,6,0,P|221:204|183:161,1,120.000004577637
127,79,64611,6,0,P|174:133|244:120,1,150,2|0,0:0|0:0,0:0:0:0:
281,54,64937,6,0,P|236:35|198:64,1,100
232,302,65263,6,0,P|316:282|346:201,1,180.000006866455
243,129,65589,6,0,P|168:212|233:302,1,240
365,291,65915,6,0,P|332:105|147:142,1,420.000016021729,6|0,0:0|0:0,0:0:0:0:
147,142,66567,6,0,B|120:186|114:264|165:313|238:320|304:287|273:242|335:209|408:213|458:257|458:257|423:302|365:291,1,560
365,291,67219,6,0,B|274:279|282:167|215:133|146:142,1,280.479993944104,8|0,0:0|0:0,0:0:0:0:
146,142,67708,1,0,0:0:0:0:
285,117,67871,6,0,P|216:154|187:227,1,160
264,355,68524,5,4,0:0:0:0:
408,322,68850,1,0,0:0:0:0:
420,174,69176,1,0,0:0:0:0:
285,117,69502,1,0,0:0:0:0:
187,228,69828,6,0,B|177:264|199:290|199:290|223:242|163:204|189:151,1,210.000008010865,8|0,0:0|0:0,0:0:0:0:
285,117,70480,6,0,P|323:158|316:216,1,120
187,228,70806,6,0,P|212:192|254:181,1,90.0000034332277
254,251,71132,6,0,B|278:301|335:281|359:335,1,140,2|0,0:0|0:0,0:0:0:0:
294,363,71784,6,0,B|368:241|435:330|512:201,1,280
463,134,72437,6,0,P|418:138|381:163,1,90.0000034332277,8|0,0:0|0:0,0:0:0:0:
431,106,72763,6,0,P|398:127|381:163,1,80
385,105,73089,6,0,P|377:133|381:163,1,60
358,133,73415,6,0,P|366:151|381:163,1,40
357,164,73741,6,0,B|369:166|381:163|381:163|390:221|344:246|345:306|345:306|339:234|317:237|302:213,1,280,2|0,0:0|0:0,0:0:0:0:
302,213,74393,6,0,B|260:167|267:96|321:50|392:47|457:73|475:129|464:196|439:249,1,420.000016021729
439,248,75045,6,0,B|411:293|428:330|404:374|404:374|385:265|201:296|187:183|187:183|251:169|302:213|302:213|228:124|292:34|292:34|345:78|338:149|338:149|368:102|422:102|422:102|429:133|414:163,1,1050.00001001358,8|0,0:0|0:0,0:0:0:0:
414,163,76350,6,0,B|363:268|281:287|234:262|183:293|185:353|185:353|216:364|252:359|283:338,1,420.000016021729,6|0,0:0|0:0,0:0:0:0:
282,338,77002,6,0,B|408:271|414:93|276:25|276:25|253:80|265:143|310:179,1,560
310,179,77654,6,0,B|210:233|219:357|219:357|251:357|282:338,1,280.000002670288,8|0,0:0|0:0,0:0:0:0:
282,338,78143,1,0,0:0:0:0:
238,210,78306,6,0,B|265:279|329:239|357:308,1,160
219,357,78958,5,4,0:0:0:0:
129,241,79284,1,0,0:0:0:0:
211,119,79611,1,0,0:0:0:0:
352,159,79937,1,0,0:0:0:0:
357,307,80263,6,0,B|355:349|327:371|327:371|287:342|277:289|305:249,1,210.000008010865,8|0,0:0|0:0,0:0:0:0:
356,135,80915,6,0,B|357:106|332:97|332:97|316:133|352:159,1,120
419,209,81241,6,0,B|412:243|377:240|377:240|380:222|397:218,1,90.0000034332277
429,125,81567,6,0,P|490:115|496:177,1,140,2|0,0:0|0:0,0:0:0:0:
419,209,82219,6,0,P|323:155|429:125,1,280
495,177,82871,6,0,P|481:252|418:209,1,180.000006866455,8|0,0:0|0:0,0:0:0:0:
429,125,83197,6,0,P|490:115|496:177,1,140
419,209,83524,6,0,P|338:155|430:125,1,240
495,177,83850,6,0,P|479:239|419:208,1,150
429,125,84176,6,0,P|490:115|496:177,1,140,2|0,0:0|0:0,0:0:0:0:
419,209,84828,5,0,0:0:0:0:
322,42,85154,1,0,0:0:0:0:
134,82,85480,1,0,0:0:0:0:
114,274,85806,1,0,0:0:0:0:
290,352,86132,5,8,0:0:0:0:
224,261,86295,1,8,0:0:0:0:
288,170,86458,1,0,0:0:0:0:
394,204,86621,1,8,0:0:0:0:
394,315,86784,6,0,B|390:354|360:384|360:384|379:277|237:226|344:88|430:140,1,420.000016021729,6|0,0:0|0:0,0:0:0:0:
429,139,87437,6,0,B|504:170|478:332|315:262|315:262|151:191|125:353|200:384,1,560
198,384,88089,6,0,P|308:337|230:245,1,280.000002670288,8|0,0:0|0:0,0:0:0:0:
229,245,88578,1,0,0:0:0:0:
394,204,88741,6,0,P|350:142|274:149,1,160
363,52,89393,5,4,0:0:0:0:
208,34,89719,1,0,0:0:0:0:
142,175,90045,1,0,0:0:0:0:
256,280,90371,1,0,0:0:0:0:
394,204,90697,6,0,B|422:166|396:126|396:126|341:173|373:242,1,210.000008010865,8|0,0:0|0:0,0:0:0:0:
427,291,91350,6,0,B|438:316|408:351|412:368|412:368|406:352|360:340|356:313,1,160
166,272,92002,6,0,B|185:250|186:215|186:215|186:241|217:276|220:360|220:360|243:279|280:256|288:230|288:230|279:263|289:290,1,420.000016021729,2|0,0:0|0:0,0:0:0:0:
288,289,92654,6,0,B|304:373|466:324|347:191|347:191|299:136|320:52|400:16|477:55|480:133,1,560
480,132,93306,6,0,B|474:217|393:239|338:189|276:235|289:291,1,280.000002670288,8|0,0:0|0:0,0:0:0:0:
289,290,93795,1,0,0:0:0:0:
428,324,93958,6,0,B|377:237|456:220|403:131,1,200
500,266,94611,6,0,B|374:269|376:112|161:122|177:271,1,420.000016021729,2|0,0:0|0:0,0:0:0:0:
177,271,95263,6,0,B|185:337|256:360|314:329|332:220|265:130|147:124|106:209|26:183|15:110,1,490.000004673004
17,121,95915,6,0,B|1:49|52:8|126:20|158:83|152:155|118:224|57:263|57:263|145:302|237:266|265:165|365:125|470:173|470:173|488:159|509:171|512:248|452:311|365:315|311:266|311:266|334:238|377:227,1,1200,8|0,0:0|0:0,0:0:0:0:
377,227,97219,6,0,B|429:221|490:249|461:296|512:321|512:321|465:243|522:146|511:102|472:92,1,420.000016021729,6|0,0:0|0:0,0:0:0:0:
475,92,97871,6,0,B|327:40|186:162|233:323|233:323|295:287|304:208,1,560
304,209,98524,6,0,B|305:124|248:123|235:67|235:67|244:125|206:142|222:183,1,280.000002670288,8|0,0:0|0:0,0:0:0:0:
221,181,99013,1,0,0:0:0:0:
321,277,99176,6,0,P|348:204|422:179,1,160
319,345,99828,5,4,0:0:0:0:
129,300,100154,1,0,0:0:0:0:
114,104,100480,1,0,0:0:0:0:
294,30,100806,1,0,0:0:0:0:
422,179,101132,6,0,P|399:279|319:344,1,210.000008010865,8|0,0:0|0:0,0:0:0:0:
203,330,101784,6,0,P|259:349|319:344,1,120
318,344,102111,6,0,P|276:268|191:250,1,180.000006866455
129,300,102437,6,0,P|216:355|318:344,1,210.000008010865,2|0,0:0|0:0,0:0:0:0:
381,305,103089,6,0,P|257:201|129:300,1,350
129,300,103741,6,0,P|216:303|279:242,1,180.000006866455,8|0,0:0|0:0,0:0:0:0:
195,356,104067,6,0,P|262:317|279:241,1,160
282,355,104393,6,0,P|297:298|279:242,1,120
339,291,104719,6,0,P|315:260|280:242,1,80
340,216,105045,6,0,B|309:221|280:242|280:242|304:172|263:176|287:109|287:109|319:157|362:126|395:169,1,330.000012588501,2|0,0:0|0:0,0:0:0:0:
395,169,106024,6,0,P|412:224|383:275,1,120
292,313,106350,6,0,P|224:290|211:220,1,150
267,156,106676,6,0,P|315:228|292:312,1,180.000006866455
107,218,107002,6,0,P|135:167|188:140,1,120.000004577637
291,313,107328,6,0,P|196:348|115:288,1,210.000002002716
115,288,107654,6,0,B|102:254|107:218|107:218|168:231|199:284|186:346,1,240,2|0,0:0|0:0,0:0:0:0:
186,346,108632,6,0,B|181:361|172:372|172:372|142:302|160:228|220:185,1,240.000009155274
337,87,109611,2,0,P|391:111|450:117,1,120.000004577637
337,87,110263,5,2,0:0:0:0:
305,293,110589,1,0,0:0:0:0:
500,218,110915,1,0,0:0:0:0:
293,151,111241,6,0,P|214:66|98:66,1,240.000009155274
27,95,112219,6,0,P|54:129|96:142,1,90.0000034332277
150,163,112545,6,0,P|125:145|96:142,1,60.0000022888184
33,196,112871,6,0,P|46:288|100:212,1,240.000009155274,2|0,0:0|0:0,0:0:0:0:
81,145,113850,5,0,0:0:0:0:
81,145,114828,5,0,0:0:0:0:
33,196,115154,1,0,0:0:0:0:
101,212,115480,6,0,B|224:226|180:344|305:362|305:362|281:313|291:253|345:238|357:177|347:106|285:71|215:88|175:145|195:220|264:253|327:247|380:209|396:178|396:178|395:204|404:225,1,840.000032043458
370,319,118089,6,0,B|386:343|388:373|388:373|413:325|381:282|325:292|325:292|245:306|170:261|129:198|171:140|167:67|119:46|119:46|123:88|100:130|100:130|193:126|183:58|273:54,1,840.000032043458
493,115,120697,6,0,B|490:66|449:58|437:9|437:9|444:68|399:97|418:177|418:177|541:202|508:376|379:355|379:355|365:288|419:260|419:260|428:299|338:293|347:209,1,840.000032043458
242,55,123306,6,0,B|239:36|239:36|220:14|186:16|176:-3|176:-3|183:18|158:42|165:72|165:72|177:89|177:89|158:85|158:85|132:96|124:128|101:133|101:133|125:133|139:164|170:165|170:165|189:159|189:159|181:175|181:175|184:204|210:221|209:244|209:244|216:222|250:217|262:189|262:189|261:169|261:169|275:181|275:181|304:188|327:167|349:176|349:176|330:162|334:128|313:109|313:109|293:103|293:103|326:86|332:46,1,840.000032043458
404,95,125915,6,0,B|399:133|437:135|474:151|503:180|491:213|465:196,2,160,2|0|0,0:0|0:0|0:0,0:0:0:0:
404,95,126893,1,0,0:0:0:0:
306,233,127219,6,0,B|281:266|362:286|390:244,1,120.000004577637,8|0,0:0|0:0,0:0:0:0:
404,95,127871,6,0,B|393:69|354:109|369:139,1,80
466,185,128524,6,0,B|525:268|325:263|300:141|208:197,1,320,2|0,0:0|0:0,0:0:0:0:
151,281,129502,1,0,0:0:0:0:
229,360,129828,6,0,B|284:377|300:313|331:310,1,120.000004577637,8|0,0:0|0:0,0:0:0:0:
437,269,130480,6,0,B|403:250|446:174|347:152,1,160
229,360,131132,6,0,B|336:372|309:260|363:171|513:185|538:292|488:384|380:374|366:316|330:310,1,480.000018310548,2|0,0:0|0:0,0:0:0:0:
238,284,132111,1,0,0:0:0:0:
82,344,132437,6,0,B|159:290|167:352|228:360,1,160,8|0,0:0|0:0,0:0:0:0:
259,209,133089,6,0,B|197:185|192:240|153:247,1,120.000004577637
82,344,133741,6,0,B|154:295|216:362|250:379|289:378|319:349|322:295|295:260|246:252|206:275|203:323|228:360,1,400,2|0,0:0|0:0,0:0:0:0:
367,324,134719,6,0,P|363:294|353:266,1,60.0000022888184
259,209,135045,6,0,B|208:160|230:80|310:98|305:152|305:152|379:138|417:212|417:212|485:255|479:346,1,480.000018310548,8|0,0:0|0:0,0:0:0:0:
364,384,136024,1,0,0:0:0:0:
270,312,136350,6,0,B|201:227|89:356|171:309|214:354,1,210.000008010865,2|0,0:0|0:0,0:0:0:0:
215,355,137002,6,0,P|266:382|320:361,1,120
338,294,137328,6,0,P|288:244|218:262,1,150
158,311,137654,6,0,P|20:226|180:198,1,420.000016021729,8|0,0:0|0:0,0:0:0:0:
218,262,138306,6,0,P|295:303|373:265,1,180.000006866455
392,183,138632,6,0,P|321:111|224:136,1,210.000002002716
180,198,138958,6,0,P|0:84|212:61,1,560,2|0,0:0|0:0,0:0:0:0:
125,144,139611,6,0,P|84:81|143:126,1,210.000002002716
180,198,139937,6,0,P|189:135|198:198,1,180.000006866455
215,277,140263,6,0,P|265:239|227:289,1,180.000006866455,8|0,0:0|0:0,0:0:0:0:
201,357,140589,6,0,P|275:359|332:312,1,150
399,314,140915,6,0,P|404:254|380:200,1,120
409,139,141241,5,0,0:0:0:0:
214,88,141567,6,0,P|212:58|221:29,1,60,2|0,0:0|0:0,0:0:0:0:
317,40,141893,2,0,P|300:51|286:65,1,40
259,189,142219,6,0,P|264:233|285:272,1,90.0000034332277
399,314,142545,2,0,P|436:301|460:270,1,80
320,146,142871,6,0,B|336:168|336:168|317:66|390:13,1,200,8|0,0:0|0:0,0:0:0:0:
340,314,143524,2,0,B|330:225|232:191|232:191|260:188,1,200
83,163,144176,6,0,B|102:174|102:174|108:156|108:156|204:127|262:37,1,240.000009155274,2|0,0:0|0:0,0:0:0:0:
17,131,144828,5,0,0:0:0:0:
167,25,145154,1,0,0:0:0:0:
83,163,145480,1,8,0:0:0:0:
118,298,145806,1,0,0:0:0:0:
136,226,146132,1,0,0:0:0:0:
118,298,146458,1,0,0:0:0:0:
169,369,146784,6,0,P|248:366|322:337,1,160,2|0,0:0|0:0,0:0:0:0:
425,231,147437,2,0,P|456:158|461:78,1,160
383,289,148089,1,8,0:0:0:0:
270,46,148415,2,0,P|302:68|319:104,1,80
348,223,148741,2,0,B|321:224|300:238|300:238|257:204|199:200,1,160
48,176,149393,6,0,B|49:155|49:155|121:172|180:128,1,160,2|0,0:0|0:0,0:0:0:0:
319,104,150045,2,0,P|397:110|463:68,1,160
270,46,150697,1,8,0:0:0:0:
348,223,151024,1,0,0:0:0:0:
464,69,151350,1,0,0:0:0:0:
422,200,151676,1,0,0:0:0:0:
461,300,152002,6,0,P|381:298|301:308,1,160,2|0,0:0|0:0,0:0:0:0:
225,384,152654,2,0,P|149:359|91:306,1,160
47,213,153306,6,0,B|38:149|70:105|70:105|80:91|71:75|71:75|87:78|87:78|81:62|81:62|97:67|107:54|107:54|144:10|203:1,1,320,8|0,0:0|0:0,0:0:0:0:
313,43,154284,1,0,0:0:0:0:
496,141,154611,6,0,B|498:114|498:114|486:120|486:120|467:62|413:26,1,160,2|0,0:0|0:0,0:0:0:0:
277,145,155263,1,0,0:0:0:0:
166,160,155589,2,0,P|172:178|186:193,3,40
193,90,155915,2,0,P|212:84|231:86,7,40,8|0|0|0|0|0|0|0,0:0|0:0|0:0|0:0|0:0|0:0|0:0|0:0,0:0:0:0:
277,145,156567,2,0,P|347:181|387:249,1,160
24,196,157219,6,0,B|33:143|3:101|3:101|57:79|80:19|80:19|139:39|194:14|194:14|218:58|251:78,1,420.000016021729,4|0,0:0|0:0,0:0:0:0:
319,86,157871,2,0,B|358:85|400:59|400:59|436:108|497:120|497:120|487:184|522:230|522:230|475:251|457:301,1,420.000016021729,4|0,0:0|0:0,0:0:0:0:
483,366,158524,1,8,0:0:0:0:
224,256,158850,2,0,P|165:253|109:273,1,120.000004577637
85,336,159176,1,0,0:0:0:0:
266,313,159502,1,0,0:0:0:0:
396,176,159828,5,2,0:0:0:0:
224,256,160154,1,0,0:0:0:0:
70,193,160480,1,0,0:0:0:0:
32,80,160806,1,0,0:0:0:0:
43,0,161132,2,0,B|62:8|76:20|76:20|91:6|91:6|95:35|95:35|148:78|178:159,1,240.000009155274,8|0,0:0|0:0,0:0:0:0:
440,68,161784,2,0,B|423:80|406:86|406:86|410:106|410:106|383:95|383:95|319:119|234:105,1,240.000009155274
43,0,162437,6,0,P|173:157|377:171,1,420.000016021729
446,168,163089,2,0,P|331:337|129:371,1,420.000016021729
161,309,163741,1,8,0:0:0:0:
407,356,164067,2,0,P|444:309|463:253,1,120.000004577637
446,168,164393,1,0,0:0:0:0:
311,15,164719,1,0,0:0:0:0:
73,10,165045,6,0,B|25:76|23:160|23:160|19:177|9:189|9:189|30:194|30:194|16:213|16:213|31:218|41:233|41:233|62:307|122:354,1,420.000016021729,2|0,0:0|0:0,0:0:0:0:
199,384,165697,2,0,B|280:392|353:352|353:352|370:347|386:349|386:349|379:329|379:329|403:331|403:331|400:316|408:300|408:300|461:245|472:169,1,420.000016021729
484,92,166350,6,0,B|451:57|448:15|448:15|378:56|310:9|310:9|327:97|276:154|276:154|325:161|354:196,1,480.000018310548,8|0,0:0|0:0,0:0:0:0:
344,346,167328,1,0,0:0:0:0:
199,384,167654,6,0,B|190:342|146:328|146:328|198:292|179:204|86:186|38:259|71:312|71:312|24:312|0:344,1,420.000016021729,4|0,0:0|0:0,0:0:0:0:
62,159,168306,2,0,B|15:186|15:239|15:239|129:226|232:281|232:281|244:223|211:189,1,420.000016021729,4|0,0:0|0:0,0:0:0:0:
140,157,168958,1,8,0:0:0:0:
51,314,169284,2,0,P|110:315|166:335,1,120.000004577637,0|0,0:3|0:0,0:0:0:0:
232,309,169611,1,0,0:0:0:0:
140,157,169937,1,0,0:0:0:0:
232,309,170263,5,2,0:0:0:0:
347,156,170589,1,0,0:0:0:0:
507,48,170915,1,0,0:0:0:0:
347,156,171241,1,0,0:0:0:0:
232,309,171567,2,0,B|204:322|204:322|206:303|206:303|104:277|73:180,1,240.000009155274,8|0,0:0|0:0,0:0:0:0:
347,156,172219,2,0,B|372:174|372:174|354:182|354:182|383:283|315:358,1,240.000009155274
162,131,172871,6,0,P|347:59|494:193,1,420.000016021729,2|0,0:0|0:0,0:0:0:0:
433,226,173524,2,0,P|239:181|112:335,1,420.000016021729
171,378,174176,1,8,0:0:0:0:
38,57,174502,2,0,P|75:103|91:160,1,120.000004577637
45,306,174828,2,0,B|87:340|141:356|141:356|152:368|152:368|165:363|165:363|216:374|264:369,1,240.000009155274
275,66,175480,6,0,P|216:114|200:40,1,180.000006866455,2|0,0:0|0:0,0:0:0:0:
255,0,175806,1,0,0:0:0:0:
171,289,176132,1,2,0:0:0:0:
459,219,176458,1,2,0:0:0:0:
483,291,176621,1,0,0:0:0:0:
421,336,176784,1,8,0:0:0:0:
359,290,176947,1,8,0:0:0:0:
383,216,177111,2,0,P|392:157|377:99,1,120.000004577637,4|0,0:0|0:0,0:0:0:0:
310,30,177437,1,0,0:0:0:0:
216,26,177600,1,0,0:0:0:0:
136,75,177763,1,0,0:0:0:0:
112,165,177926,1,0,0:0:0:0:
237,345,178089,6,0,B|340:355|421:280|421:280|439:278|439:278|443:258|443:258|501:177|490:88,1,420.000016021729,4|0,0:0|0:0,0:0:0:0:
436,20,178741,2,0,B|426:46|426:46|406:44|406:44|397:63|397:63|379:56|360:64|360:64|200:135|68:25,1,420.000016021729,4|0,0:0|0:0,0:0:0:0:
0,44,179393,1,8,0:0:0:0:
194,192,179719,2,0,P|202:249|167:296,1,120.000004577637
127,230,180045,1,0,0:0:0:0:
0,44,180371,2,0,P|81:81|129:155,1,180.000006866455
194,192,180697,6,0,P|193:280|143:353,1,180.000006866455,2|0,0:0|0:0,0:0:0:0:
70,272,181024,2,0,P|83:330|119:377,1,120.000004577637
252,315,181350,2,0,P|340:328|425:300,1,180.000006866455
490,329,181676,2,0,P|502:270|491:211,1,120.000004577637
308,232,182002,2,0,B|284:242|284:242|286:221|286:221|181:243|108:169,1,240.000009155274,8|0,0:0|0:0,0:0:0:0:
187,40,182654,2,0,P|216:135|286:64,1,240.000009155274
130,299,183306,6,0,B|117:346|50:348|32:299|32:299|55:266|55:266|38:235|48:198|48:198|19:167|19:167|35:112|95:105|122:151,1,420.000016021729,2|0,0:0|0:0,0:0:0:0:
123,226,183958,2,0,P|164:269|215:298,1,120.000004577637
288,317,184284,1,0,0:0:0:0:
191,190,184611,1,8,0:0:0:0:
171,0,184937,2,0,P|160:58|167:118,1,120.000004577637
191,190,185263,1,0,0:0:0:0:
288,317,185589,1,0,0:0:0:0:
439,374,185915,6,0,B|487:308|489:224|489:224|493:207|503:195|503:195|482:190|482:190|496:171|496:171|481:166|471:151|471:151|450:77|390:30,1,420.000016021729,2|0,0:0|0:0,0:0:0:0:
313,0,186567,2,0,B|232:-8|159:32|159:32|142:37|126:35|126:35|133:55|133:55|109:53|109:53|112:68|104:84|104:84|51:139|40:215,1,420.000016021729
101,258,187219,6,0,B|90:262|90:262|140:158|308:185|337:358|194:443|106:362|106:362|118:362,1,480.000018310548,8|0,0:0|0:0,0:0:0:0:
172,299,188034,1,0,0:0:0:0:
245,303,188197,1,0,0:0:0:0:
314,330,188361,1,0,0:0:0:0:
368,381,188524,6,0,B|386:387|386:387|384:362|384:362|466:272|493:133|446:10,1,420.000016021729,4|0,0:0|0:0,0:0:0:0:
387,58,189176,2,0,B|305:14|204:30|204:30|187:20|187:20|175:38|175:38|84:76|38:164,1,420.000016021729,4|0,0:0|0:0,0:0:0:0:
105,191,189828,1,8,0:0:0:0:
385,158,190154,2,0,P|337:122|280:102,1,120.000004577637
209,106,190481,1,0,0:0:0:0:
331,217,190806,1,0,0:0:0:0:
338,383,191132,6,0,P|305:301|231:251,1,180.000006866455,2|0,0:0|0:0,0:0:0:0:
249,186,191458,2,0,P|189:185|135:211,1,120.000004577637
38,163,191784,2,0,P|71:245|145:295,1,180.000006866455
127,360,192110,2,0,P|186:360|240:334,1,120.000004577637
339,384,192437,2,0,B|325:362|325:362|361:258|328:150,1,240.000009155274,8|0,0:0|0:0,0:0:0:0:
38,164,193088,2,0,B|62:163|62:163|135:245|245:271,1,240.000009155274
388,19,193741,6,0,B|377:39|377:39|162:79|102:293,1,420.000016021729,2|0,0:0|0:0,0:0:0:0:
145,346,194393,2,0,B|221:260|340:265|340:265|300:233|435:238|505:300,1,420.000016021729
465,355,195045,1,8,0:0:0:0:
388,19,195371,1,0,0:0:0:0:
359,85,195534,1,0,0:0:0:0:
431,77,195697,1,0,0:0:0:0:
285,20,196024,1,0,0:0:0:0:
200,173,196350,6,0,B|218:154|218:154|245:153|245:153|319:87|439:117|460:209,1,320,2|0,0:0|0:0,0:0:0:0:
279,332,197328,1,0,0:0:0:0:
390,210,197654,1,8,0:0:0:0:
307,262,197980,5,0,0:0:0:0:
232,273,198306,1,0,0:0:0:0:
279,332,198632,1,0,0:0:0:0:
307,262,198958,2,0,B|306:238|306:238|328:242|328:242|408:186|513:215,1,240,2|0,0:0|0:0,0:0:0:0:
491,286,199611,5,0,0:0:0:0:
499,362,199937,1,0,0:0:0:0:
116,342,200263,1,8,0:0:0:0:
429,332,200589,1,2,0:0:0:0:
433,61,200915,2,0,B|414:80|414:80|425:102|425:102|357:170|365:275,1,240,2|0,0:0|0:0,0:0:0:0:
281,330,201567,6,0,P|202:327|128:297,1,160,2|0,0:0|0:0,0:0:0:0:
3,78,202219,2,0,P|37:188|148:219,1,240
225,233,202871,2,0,P|199:161|124:147,2,160,8|0|0,0:0|0:0|0:0,0:0:0:0:
148,219,203850,1,0,0:0:0:0:
242,347,204176,6,0,B|256:351|256:351|273:342|273:342|332:363|397:348,1,160,2|0,0:0|0:0,0:0:0:0:
498,162,204828,2,0,P|454:228|388:273,1,160,2|0,0:0|0:0,0:0:0:0:
148,219,205480,1,8,0:0:0:0:
148,219,205643,1,8,0:0:0:0:
133,295,205806,2,0,P|75:244|88:169,2,160,0|0|8,0:0|0:0|0:0,0:0:0:0:
148,219,206621,1,8,0:0:0:0:
163,143,206784,6,0,P|220:193|207:268,1,160,2|0,0:0|0:0,0:0:0:0:
408,52,207437,2,0,P|420:127|363:178,1,160
133,295,208089,6,0,P|76:245|89:170,1,160,8|0,0:0|0:0,0:0:0:0:
289,152,208741,2,0,P|275:76|333:26,1,160
479,275,209393,2,0,B|506:264|506:264|414:228|305:261|247:341,1,320,2|0,0:0|0:0,0:0:0:0:
130,68,210371,1,0,0:0:0:0:
121,137,210534,1,0,0:0:0:0:
88,197,210697,2,0,P|142:140|217:114,1,160,8|0,0:0|0:0,0:0:0:0:
395,146,211350,2,0,P|460:191|498:260,1,160
254,363,212002,6,0,B|243:360|243:360|257:289|261:213,1,160,2|0,0:0|0:0,0:0:0:0:
338,16,212654,2,0,B|343:95|269:134|269:134|270:119,1,160
395,146,213306,2,0,P|460:191|498:260,1,160,8|0,0:0|0:0,0:0:0:0:
135,310,213958,2,0,P|153:232|205:172,1,160
269,139,214447,1,2,0:0:0:0:
341,105,214611,6,0,P|269:138|190:137,1,160,2|0,0:0|0:0,0:0:0:0:
508,116,215263,2,0,P|433:89|378:32,1,160
158,63,215915,1,0,0:0:0:0:
158,63,216241,1,0,0:0:0:0:
158,63,216567,1,0,0:0:0:0:
158,63,216893,1,0,0:0:0:0:
237,202,217219,6,0,P|245:280|219:355,2,160
237,202,218524,6,0,B|221:183|221:183|196:254|233:313,1,160,8|0,0:0|0:0,0:0:0:0:
184,384,219013,1,0,0:0:0:0:
184,384,219176,1,0,0:0:0:0:
122,218,219339,1,0,0:0:0:0:
290,258,219502,1,0,0:0:0:0:
309,335,219665,1,0,0:0:0:0:
425,229,219828,6,0,B|442:239|458:256|458:256|383:280|310:335|310:335|353:247|346:142|346:142|222:27|60:46,1,720.000027465821,6|0,0:0|0:0,0:0:0:0:
80,312,221132,6,0,B|148:213|267:193|267:193|265:253|237:304|237:304|165:185|72:124|72:124|137:108|199:136,1,720.000027465821,8|0,0:0|0:0,0:0:0:0:
395,170,222437,6,0,B|380:208|344:227|344:227|327:297|300:351|300:351|484:266|501:83|501:83|385:113|278:55|278:55|308:29|333:-1|333:-1|372:17|419:17,1,960.000036621095,2|8,0:0|0:0,0:0:0:0:
317,154,224067,1,0,0:0:0:0:
232,311,224393,2,0,B|220:342|201:369|201:369|102:362|30:335,1,240.000009155274
232,311,225045,6,0,B|142:367|30:335|30:335|18:202|155:134|250:206|250:206|203:269|115:274|115:274|124:263|136:256,1,720.000027465821,2|0,0:0|0:0,0:0:0:0:
91,49,226350,6,0,B|16:77|18:163|18:163|72:112|150:103|150:103|172:65|220:45|220:45|369:64|344:193|344:193|310:148|260:127,1,720.000027465821,8|0,0:0|0:0,0:0:0:0:
203,348,227654,6,0,B|117:296|15:276|15:276|60:198|60:101|60:101|98:74|127:35|127:35|143:140|117:227|117:227|139:233|159:241,1,720.000027465821,2|0,0:0|0:0,0:0:0:0:
476,134,228958,6,0,B|450:197|442:265|442:265|412:274|373:299|373:299|369:235|389:149|389:149|335:119|280:135|280:135|251:163|206:169|206:169|216:92|206:34|206:34|222:54,1,720.000027465821,8|0,0:0|0:0,0:0:0:0:
303,347,230263,6,0,B|289:286|299:214|299:214|235:247|175:249|175:249|172:318|229:348|229:348|225:328|225:311,1,420.000016021729,6|0,0:0|0:0,0:0:0:0:
372,247,230915,2,0,B|366:278|371:306|371:306|407:308|442:326|442:326|445:228|461:171|461:171|407:180|365:171|365:171|354:140,1,420.000016021729,4|0,0:0|0:0,0:0:0:0:
275,137,231567,6,0,B|211:184|134:164|134:164|143:124|143:124|120:111|110:86,1,240.000009155274,8|0,0:0|0:0,0:0:0:0:
184,57,232056,1,0,0:0:0:0:
60,151,232219,2,0,B|33:172|48:209|48:209|85:229|111:256|111:256|133:163,1,240.000009155274
134,164,232871,6,0,P|209:208|298:204,1,180.000006866455,2|0,0:0|0:0,0:0:0:0:
274,136,233197,2,0,P|326:110|358:60,1,120.000004577637
402,203,233524,2,0,P|339:265|252:284,1,180.000006866455
241,357,233850,2,0,P|184:335|148:289,1,120.000004577637
44,226,234176,2,0,B|17:62|193:-45|339:103|246:255|160:234|135:172|158:144,1,480.000018310548,8|0,0:0|0:0,0:0:0:0:
359,59,235154,1,0,0:0:0:0:
512,244,235480,6,0,B|532:274|513:305|513:305|477:314|452:288|452:288|381:380|268:383|268:383|232:368|222:328,1,420.000016021729,2|0,0:0|0:0,0:0:0:0:
193,262,236132,2,0,B|168:288|134:277|134:277|116:244|135:214|135:214|29:167|0:58|0:58|4:20|41:0,1,420.000016021729
107,31,236784,2,0,B|237:38|378:-2|378:-2|356:46|329:85|329:85|383:173|364:324|364:324|331:371|288:384,1,720.000027465821,8|0,0:0|0:0,0:0:0:0:
55,314,238089,6,0,B|17:206|66:91|179:35|285:55|285:55|393:79|475:181|462:312|390:384|390:384|389:284|371:188|310:130|219:109|142:150|118:218|130:321|232:348|290:292,1,1440.00005493164,2|0,0:0|0:0,0:0:0:0:
237,239,240371,6,0,P|192:349|186:467,1,240.000009155274
