osu file format v14

[General]
AudioFilename: uta.mp3
AudioLeadIn: 0
PreviewTime: 62240
Countdown: 0
SampleSet: Soft
StackLeniency: 0.2
Mode: 0
LetterboxInBreaks: 0
WidescreenStoryboard: 1

[Editor]
DistanceSpacing: 1.6
BeatDivisor: 4
GridSize: 4
TimelineZoom: 1

[Metadata]
Title:Fuantei na Kamisama TV ver.
TitleUnicode:不安定な神様 TV ver.
Artist:Suara
ArtistUnicode:Suara
Creator:OsuMagic360
Version:Normal
Source:うたわれるもの 偽りの仮面
Tags:
BeatmapID:1950055
BeatmapSetID:934073

[Difficulty]
HPDrainRate:2.9
CircleSize:3
OverallDifficulty:2.5
ApproachRate:2.2
SliderMultiplier:0.9
SliderTickRate:1

[Events]
//Background and Video events
Video,0,"uta.avi"
0,0,"16by9.jpg",0,0
//Break Periods
2,13209,14551
2,16478,17628
2,25324,29936
2,50132,54551
2,72441,74551
//Storyboard Layer 0 (Background)
//Storyboard Layer 1 (Fail)
//Storyboard Layer 2 (Pass)
//Storyboard Layer 3 (Foreground)
//Storyboard Sound Samples

[TimingPoints]
702,384.615384615385,4,2,0,60,1,0
25317,-100,4,2,0,40,0,0
37625,-100,4,2,0,60,0,0
63778,-100,4,2,0,60,0,1
75990,-100,4,2,0,60,0,0
76086,-100,4,2,0,60,0,1
86855,-100,4,2,0,60,0,0
88394,-100,4,2,0,25,0,0
88778,-100,4,2,0,20,0,0
89163,-100,4,2,0,15,0,0
89548,-100,4,2,0,10,0,0
89932,-100,4,2,0,5,0,0

[Colours]
Combo1 : 255,132,132
Combo2 : 0,74,149
Combo3 : 128,128,128

[HitObjects]
128,130,2240,6,0,P|171:109|225:95,1,90
296,96,2817,1,0,0:0:0:0:
351,160,3009,2,0,P|364:196|361:252,1,90
281,234,3586,2,0,P|263:194|229:150,1,90
85,144,5317,6,0,P|97:182|126:230,1,90
210,245,5894,2,0,P|235:264|264:275,1,45
329,230,6278,2,0,P|355:231|374:228,2,45
271,173,6855,2,0,B|219:145|188:216|89:157,1,180
132,286,8394,6,0,P|163:299|234:305,1,90
300,277,8971,2,0,P|326:271|352:260,2,45
169,205,9932,6,0,P|154:172|149:111,1,90
206,56,10509,2,0,P|235:64|258:68,2,45
130,105,11471,6,0,P|159:137|222:150,2,90
220,63,12432,2,0,P|254:54|285:53,1,45
333,118,12817,2,0,P|364:129|386:132,1,45
259,171,16086,6,0,L|258:225,1,45
155,280,19163,6,0,P|137:247|130:225,1,45
163,162,19548,2,0,P|173:126|177:107,1,45
254,74,19932,6,0,P|263:106|262:133,1,45
240,201,20317,2,0,P|234:233|233:265,1,45
300,310,20702,6,0,P|328:320|352:323,2,45
173,233,21471,6,0,P|166:202|164:172,1,45
215,121,21855,2,0,P|237:103|250:74,1,45
327,57,22240,6,0,P|363:72|377:88,2,45
236,55,23009,6,0,P|198:64|177:74,1,45
155,136,23394,2,0,P|133:146|105:152,1,45
145,222,23778,6,0,P|167:225|187:235,1,45
258,275,24163,2,0,P|277:285|299:289,1,45
378,269,24548,6,0,L|393:219,1,45
360,150,24932,2,0,L|357:97,1,45
259,200,31471,5,0,0:0:0:0:
376,93,32240,2,0,P|323:76|276:72,1,90
198,96,33009,2,0,P|152:93|102:72,2,90
317,130,34163,5,0,0:0:0:0:
346,202,34355,1,0,0:0:0:0:
269,187,34548,2,0,P|226:173|163:170,1,90
93,226,35317,2,0,P|137:254|185:265,1,90
272,268,36086,6,0,P|332:239|426:161,1,180
292,64,37625,6,0,L|210:139,1,90
258,212,38394,2,0,L|328:154,1,90
415,98,39163,2,0,P|457:69|484:38,2,90
255,173,40702,6,0,P|219:170|163:150,1,90
135,71,41471,2,0,P|188:72|233:91,1,90
320,132,42240,2,0,P|358:161|412:179,2,90
239,74,43394,2,0,P|226:110|226:165,1,90
303,243,44548,2,0,P|305:280|279:329,1,90
196,340,45317,6,0,P|153:325|118:297,2,90
329,267,46855,2,0,P|364:219|380:180,2,90
256,192,48202,12,0,49932,0:0:0:0:
189,129,56086,6,0,P|173:87|154:65,2,67.5
264,211,57625,2,0,P|280:253|299:275,2,67.5
296,124,59163,6,0,P|356:84|380:76,2,90
205,179,60702,6,0,P|239:230|347:279,2,180
305,52,63778,6,0,L|329:140,1,90
299,217,64548,2,0,L|277:277,1,45
205,301,65125,2,0,L|189:255,1,45
119,173,66855,6,0,P|160:146|214:161,1,90
286,182,67625,2,0,P|325:183|377:151,1,90
445,65,68586,6,0,P|399:49|305:72,1,135
224,171,69932,6,0,P|196:189|143:208,1,90
51,224,70702,1,0,0:0:0:0:
93,123,71471,6,0,P|121:105|174:86,1,90
266,70,72241,1,0,0:0:0:0:
378,135,76086,6,0,P|369:195|356:235,1,90
294,276,76855,2,0,P|254:283|196:268,1,90
100,133,79163,6,0,P|159:117|199:112,1,90
346,137,80702,2,0,P|402:210|441:297,1,180
288,273,82240,6,0,P|253:251|106:273,1,180
64,113,83778,2,0,P|58:74|65:31,2,67.5
256,192,86855,12,0,89932,0:0:0:0:
