osu file format v14

[General]
AudioFilename: uta.mp3
AudioLeadIn: 0
PreviewTime: 62240
Countdown: 0
SampleSet: None
StackLeniency: 0.2
Mode: 0
LetterboxInBreaks: 0
WidescreenStoryboard: 1

[Editor]
DistanceSpacing: 1.2
BeatDivisor: 4
GridSize: 4
TimelineZoom: 1

[Metadata]
Title:Fuantei na Kamisama TV ver.
TitleUnicode:不安定な神様 TV ver.
Artist:Suara
ArtistUnicode:Suara
Creator:OsuMagic360
Version:Hard
Source:うたわれるもの 偽りの仮面
Tags:
BeatmapID:1950053
BeatmapSetID:934073

[Difficulty]
HPDrainRate:6
CircleSize:4
OverallDifficulty:6
ApproachRate:7
SliderMultiplier:1.3
SliderTickRate:1

[Events]
//Background and Video events
Video,0,"uta.avi"
0,0,"16by9.jpg",0,0
//Break Periods
2,14747,17686
//Storyboard Layer 0 (Background)
//Storyboard Layer 1 (Fail)
//Storyboard Layer 2 (Pass)
//Storyboard Layer 3 (Foreground)
//Storyboard Sound Samples

[TimingPoints]
702,384.615384615385,4,2,0,60,1,0
25317,-100,4,2,0,40,0,0
37625,-100,4,2,0,60,0,0
63778,-100,4,2,0,60,0,1
75990,-100,4,2,0,60,0,0
76086,-100,4,2,0,60,0,1
86855,-100,4,2,0,60,0,0
88394,-100,4,2,0,25,0,0
88778,-100,4,2,0,20,0,0
89163,-100,4,2,0,15,0,0
89548,-100,4,2,0,10,0,0
89932,-100,4,2,0,5,0,0

[Colours]
Combo1 : 255,132,132
Combo2 : 0,74,149
Combo3 : 128,128,128

[HitObjects]
147,67,1278,5,0,0:0:0:0:
153,86,1471,1,0,0:0:0:0:
157,101,1663,1,0,0:0:0:0:
161,113,1855,1,0,0:0:0:0:
165,129,2048,1,0,0:0:0:0:
169,143,2240,2,0,P|183:193|161:282,1,130
246,325,2817,5,0,0:0:0:0:
298,271,3009,2,0,P|338:261|378:257,1,65
458,256,3394,1,0,0:0:0:0:
402,180,3586,2,0,P|355:174|325:178,1,65
241,195,4355,5,0,0:0:0:0:
224,202,4548,1,0,0:0:0:0:
207,206,4740,1,0,0:0:0:0:
192,206,4932,1,0,0:0:0:0:
174,202,5125,1,0,0:0:0:0:
161,195,5317,2,0,P|124:174|26:161,1,130
92,242,5894,5,0,0:0:0:0:
144,259,6086,1,0,0:0:0:0:
144,314,6279,1,0,0:0:0:0:
92,331,6471,1,0,0:0:0:0:
59,286,6663,1,0,0:0:0:0:
92,242,6855,2,0,B|180:165|239:287|327:151,1,260
242,65,8202,5,0,0:0:0:0:
186,131,8394,2,0,P|176:167|154:198,2,65
133,69,8971,1,0,0:0:0:0:
63,125,9163,2,0,P|57:172|67:216,1,65
148,261,9740,5,0,0:0:0:0:
229,298,9932,2,0,P|276:307|307:307,2,65
148,261,10509,1,0,0:0:0:0:
213,212,10702,2,0,P|243:178|249:152,1,65
196,78,11086,6,0,P|168:112|159:156,1,65
158,214,11471,2,0,P|143:265|129:292,2,65
142,134,12048,1,0,0:0:0:0:
206,65,12240,1,0,0:0:0:0:
249,136,12432,5,0,0:0:0:0:
251,148,12624,1,0,0:0:0:0:
253,157,12817,1,0,0:0:0:0:
253,167,13009,6,0,B|231:229|231:229|304:233|336:209|378:174|378:174|373:247|326:300|309:305|281:317|243:328|207:338|172:342|161:343,1,520
159,118,18586,5,0,0:0:0:0:
223,82,18778,2,0,L|261:63,2,32.5
185,156,19163,2,0,P|176:182|178:220,1,65
289,144,19548,2,0,P|269:123|236:105,1,65
247,240,19932,2,0,P|274:233|306:213,1,65
341,139,20317,6,0,P|370:113|413:103,1,65
468,147,20702,2,0,P|441:165|410:175,1,65
335,209,21086,2,0,P|304:219|277:237,1,65
210,277,21471,2,0,P|184:297|157:314,1,65
71,281,21855,2,0,P|102:257|139:240,1,65
158,301,22240,6,0,P|199:277|224:254,1,65
282,228,22625,2,0,P|258:187|235:162,1,65
198,112,23009,2,0,P|157:136|132:159,1,65
74,185,23394,2,0,P|98:226|121:251,1,65
197,283,23778,6,0,P|230:257|243:238,1,65
205,95,24163,2,0,P|211:137|222:158,1,65
364,196,24548,2,0,P|325:180|302:179,1,65
213,183,24932,1,0,0:0:0:0:
272,243,25125,5,0,0:0:0:0:
203,270,25317,2,0,P|138:266|76:246,1,130
140,186,25894,5,0,0:0:0:0:
167,118,26086,2,0,P|205:112|244:118,1,65
301,137,26471,1,0,0:0:0:0:
351,195,26663,1,0,0:0:0:0:
280,235,26855,2,0,P|291:265|289:297,1,65
226,330,27240,2,0,P|194:325|167:307,1,65
165,238,27625,2,0,P|186:214|216:202,1,65
339,191,28202,5,0,0:0:0:0:
311,120,28394,2,0,P|283:80|218:33,1,130
178,103,28971,1,0,0:0:0:0:
220,167,29163,2,0,P|181:192|151:205,1,65
84,182,29548,1,0,0:0:0:0:
108,263,29740,1,0,0:0:0:0:
110,165,29932,2,0,P|125:128|149:100,1,65
167,218,30317,2,0,P|165:263|147:294,1,65
128,179,30702,6,0,P|143:139|175:117,1,65
201,208,31086,2,0,P|240:222|278:226,1,65
315,150,31471,2,0,P|359:132|443:126,1,130
426,200,32048,5,0,0:0:0:0:
381,282,32240,2,0,P|336:295|316:295,1,65
252,248,32625,1,0,0:0:0:0:
184,208,32817,1,0,0:0:0:0:
99,188,33009,2,0,P|145:177|184:158,1,65
177,107,33394,2,0,P|163:152|160:195,1,65
207,214,33778,2,0,P|174:179|138:155,1,65,0|0,3:0|3:0,3:0:0:0:
90,105,34163,5,0,0:0:0:0:
163,70,34355,1,0,0:0:0:0:
207,138,34548,2,0,P|251:161|280:161,1,65
314,86,34932,2,0,P|353:66|383:57,1,65
339,115,35317,2,0,P|359:76|378:51,1,65
376,123,35702,2,0,P|370:79|372:48,1,65
441,122,36086,2,0,B|456:174|434:259|434:259|419:219|399:202,1,195
358,152,36855,2,0,P|320:133|290:121,1,65
243,253,37432,5,0,0:0:0:0:
176,288,37625,2,0,P|133:293|103:215,1,130
158,156,38202,5,0,0:0:0:0:
243,155,38394,2,0,P|280:164|325:163,1,65
373,128,38778,1,0,0:0:0:0:
302,87,38971,1,0,0:0:0:0:
309,164,39163,2,0,P|318:212|307:238,1,65
379,263,39548,2,0,P|332:246|315:224,1,65
251,270,39932,2,0,P|288:238|316:234,1,65
402,173,40509,5,0,0:0:0:0:
329,130,40702,2,0,B|291:106|259:161|198:117,1,130
156,59,41278,1,0,0:0:0:0:
130,138,41471,2,0,P|164:188|194:199,1,65
238,222,41855,1,0,0:0:0:0:
313,237,42048,1,0,0:0:0:0:
287,159,42240,2,0,P|294:117|309:88,1,65
381,135,42625,2,0,P|376:90|363:51,1,65
445,94,43009,2,0,P|453:51|469:24,1,65
486,160,43394,5,0,0:0:0:0:
466,234,43586,1,0,0:0:0:0:
444,139,43778,2,0,P|407:114|371:101,1,65
301,208,44355,5,0,0:0:0:0:
236,277,44548,2,0,B|189:248|165:299|101:257,1,130
153,203,45125,1,0,0:0:0:0:
236,277,45317,2,0,P|261:306|300:314,1,65
262,191,45702,2,0,P|233:216|225:255,1,65
350,221,46086,2,0,P|325:192|286:184,1,65
210,173,46471,5,0,0:0:0:0:
137,220,46663,1,0,0:0:0:0:
57,170,46855,2,0,P|100:130|180:115,2,130
159,230,48009,5,0,0:0:0:0:
99,179,48202,2,0,B|169:102|325:257|428:139,1,325
397,72,49355,1,0,0:0:0:0:
324,115,49548,1,0,0:0:0:0:
71,222,49932,6,0,P|113:269|175:290,1,130
238,234,50509,2,0,P|294:216|326:219,1,65
383,303,50894,6,0,P|391:255|389:221,1,65
363,159,51278,1,0,0:0:0:0:
435,123,51471,2,0,P|393:86|301:101,1,130
255,129,52048,1,0,0:0:0:0:
206,195,52240,2,0,P|156:212|124:211,1,65
283,213,52625,6,0,P|320:203|347:186,1,65
370,112,53009,2,0,P|332:105|293:103,2,65
421,179,53586,2,0,P|420:221|412:255,1,65
339,282,53971,5,0,0:0:0:0:
269,211,54163,1,0,0:0:0:0:
255,321,54355,1,0,0:0:0:0:
187,259,54548,2,0,P|142:232|121:93,1,195
184,136,55317,2,0,P|186:166|226:196,1,65
284,225,55702,5,0,0:0:0:0:
406,214,55894,1,0,0:0:0:0:
351,297,56086,1,0,0:0:0:0:
340,161,56278,2,0,P|324:122|300:101,1,65
237,135,56663,2,0,P|220:174|135:219,1,130
61,218,57240,1,0,0:0:0:0:
103,152,57432,5,0,0:0:0:0:
163,98,57625,2,0,P|218:89|255:93,1,65
295,130,58009,1,0,0:0:0:0:
354,184,58202,2,0,P|397:204|486:192,1,130
417,128,58778,1,0,0:0:0:0:
313,179,58971,5,0,0:0:0:0:
247,226,59163,2,0,P|204:239|156:241,1,65
113,216,59548,2,0,P|121:175|113:139,1,65
74,79,59932,1,0,0:0:0:0:
158,94,60125,2,0,P|192:128|201:162,1,65
204,225,60509,1,0,0:0:0:0:
243,299,60702,2,0,P|284:275|330:179,1,130
277,140,61471,5,0,0:0:0:0:
206,30,61663,1,0,0:0:0:0:
197,159,61855,1,0,0:0:0:0:
288,53,62048,1,0,0:0:0:0:
142,92,62240,1,0,0:0:0:0:
251,147,62817,5,0,0:0:0:0:
245,162,63009,1,0,0:0:0:0:
240,175,63202,1,0,0:0:0:0:
234,189,63394,1,0,0:0:0:0:
227,202,63586,1,0,0:0:0:0:
222,213,63778,2,0,P|200:247|124:315,1,130
93,185,64355,5,0,0:0:0:0:
158,117,64548,2,0,P|207:89|240:86,1,65
101,199,64932,1,0,0:0:0:0:
169,193,65125,2,0,P|227:187|254:190,1,65
311,224,65509,2,0,P|356:230|398:222,1,65
423,132,65894,5,0,0:0:0:0:
410,127,66086,1,0,0:0:0:0:
396,122,66278,1,0,0:0:0:0:
382,116,66471,1,0,0:0:0:0:
370,110,66663,1,0,0:0:0:0:
358,103,66855,2,0,P|324:83|229:72,1,130
147,125,67432,5,0,0:0:0:0:
83,178,67625,2,0,P|59:220|54:261,1,65
172,123,68009,1,0,0:0:0:0:
162,197,68202,2,0,P|151:245|160:287,1,65
215,313,68586,2,0,B|249:279|286:349|337:291,1,130
397,235,69163,5,0,0:0:0:0:
398,157,69355,1,0,0:0:0:0:
320,156,69548,1,0,0:0:0:0:
319,234,69740,1,0,0:0:0:0:
253,272,69932,6,0,P|196:271|112:260,1,130
68,205,70509,1,0,0:0:0:0:
122,150,70702,2,0,P|153:103|225:66,1,130
338,67,71471,6,0,P|329:101|307:139,1,65
246,165,71855,2,0,P|221:195|198:245,1,65
129,211,72240,6,0,P|158:153|200:104,1,130
282,94,72817,1,0,0:0:0:0:
244,169,73009,2,0,P|213:211|204:244,2,65
311,113,73586,1,0,0:0:0:0:
306,230,73778,6,0,P|296:271|301:341,2,97.5
196,80,74740,5,0,0:0:0:0:
122,184,74932,1,0,0:0:0:0:
222,160,75125,5,0,0:0:0:0:
225,174,75317,1,0,0:0:0:0:
229,187,75509,1,0,0:0:0:0:
231,198,75702,1,0,0:0:0:0:
234,210,75894,1,0,0:0:0:0:
237,219,76086,2,0,P|246:265|309:321,1,130
330,231,76663,5,0,0:0:0:0:
269,182,76855,2,0,B|214:153|186:226|128:166,1,130
84,137,77432,2,0,P|87:69|141:41,1,130
206,100,78009,1,0,0:0:0:0:
309,73,78202,5,0,0:0:0:0:
300,90,78394,1,0,0:0:0:0:
294,102,78586,1,0,0:0:0:0:
286,117,78778,1,0,0:0:0:0:
280,129,78971,1,0,0:0:0:0:
275,145,79163,2,0,P|257:187|258:276,1,130
171,235,79740,5,0,0:0:0:0:
167,222,79932,1,0,0:0:0:0:
162,213,80124,1,0,0:0:0:0:
156,201,80316,1,0,0:0:0:0:
147,186,80509,1,0,0:0:0:0:
139,171,80702,2,0,B|219:102|319:232|392:145,1,260
358,79,81663,1,0,0:0:0:0:
272,66,81855,1,0,0:0:0:0:
192,139,82048,5,0,0:0:0:0:
244,214,82240,2,0,P|260:246|267:284,2,65
192,139,82817,1,0,0:0:0:0:
158,218,83009,2,0,P|130:253|101:268,1,65
116,129,83586,5,0,0:0:0:0:
205,77,83778,2,0,P|251:65|283:64,2,65
116,129,84355,1,0,0:0:0:0:
196,172,84548,2,0,P|220:197|227:233,1,65
305,277,84932,6,0,P|315:219|309:193,1,65
290,117,85317,2,0,P|288:81|295:45,2,65
277,196,85894,1,0,0:0:0:0:
229,247,86086,1,0,0:0:0:0:
129,251,86278,5,0,0:0:0:0:
195,176,86471,1,0,0:0:0:0:
95,202,86663,1,0,0:0:0:0:
256,192,86855,12,0,88778,0:0:0:0:
