osu file format v14

[General]
AudioFilename: audio.mp3
AudioLeadIn: 0
PreviewTime: 62625
Countdown: 0
SampleSet: Normal
StackLeniency: 0.7
Mode: 1
LetterboxInBreaks: 0
WidescreenStoryboard: 0

[Editor]
Bookmarks: 25317
DistanceSpacing: 0.9
BeatDivisor: 4
GridSize: 32
TimelineZoom: 2.4

[Metadata]
Title:Fuantei na Kamisama TV ver.
TitleUnicode:不安定な神様 TV ver.
Artist:Suara
ArtistUnicode:Suara
Creator:[_Chichinya_]
Version:Oni
Source:うたわれるもの 偽りの仮面
Tags:[r] ron utawarerumono itsuwari no kamen opening season 2 Wafu Kibbleru Blizs Fantastica
BeatmapID:1991783
BeatmapSetID:953998

[Difficulty]
HPDrainRate:5
CircleSize:2
OverallDifficulty:5
ApproachRate:9
SliderMultiplier:1.9599999666214
SliderTickRate:1

[Events]
//Background and Video events
0,0,"utawarerumono_itsuwari_no_kamen_4.jpg",0,80
//Break Periods
//Storyboard Layer 0 (Background)
//Storyboard Layer 1 (Fail)
//Storyboard Layer 2 (Pass)
//Storyboard Layer 3 (Foreground)
//Storyboard Sound Samples

[TimingPoints]
702,384.615384615385,4,1,0,85,1,0
63778,-100,4,1,0,95,0,1
74548,-100,4,1,0,85,0,0
76086,-100,4,1,0,85,0,1
86855,-100,4,1,0,85,0,0

[HitObjects]
256,192,1278,5,8,0:0:0:0:
256,192,1471,1,8,0:0:0:0:
256,192,1663,1,0,0:0:0:0:
256,192,1855,1,8,0:0:0:0:
256,192,2048,1,0,0:0:0:0:
256,192,2240,1,4,0:0:0:0:
256,192,2817,1,0,0:0:0:0:
256,192,3009,1,8,0:0:0:0:
256,192,3394,1,0,0:0:0:0:
256,192,3586,1,8,0:0:0:0:
256,192,3778,1,0,0:0:0:0:
256,192,4355,1,0,0:0:0:0:
256,192,4548,1,8,0:0:0:0:
256,192,4740,1,8,0:0:0:0:
256,192,4932,1,0,0:0:0:0:
256,192,5125,1,8,0:0:0:0:
256,192,5317,1,4,0:0:0:0:
256,192,5894,1,8,0:0:0:0:
256,192,6086,1,0,0:0:0:0:
256,192,6278,1,8,0:0:0:0:
256,192,6471,1,8,0:0:0:0:
256,192,6663,1,0,0:0:0:0:
256,192,6855,1,8,0:0:0:0:
256,192,8202,1,0,0:0:0:0:
256,192,8394,1,12,0:0:0:0:
256,192,8682,1,8,0:0:0:0:
256,192,8778,1,0,0:0:0:0:
256,192,8971,1,8,0:0:0:0:
256,192,9163,1,0,0:0:0:0:
256,192,9259,1,8,0:0:0:0:
256,192,9355,1,8,0:0:0:0:
256,192,9452,1,8,0:0:0:0:
256,192,9548,1,0,0:0:0:0:
256,192,9740,1,0,0:0:0:0:
256,192,9932,1,0,0:0:0:0:
256,192,10125,1,8,0:0:0:0:
256,192,10221,1,8,0:0:0:0:
256,192,10317,1,0,0:0:0:0:
256,192,10509,1,8,0:0:0:0:
256,192,10702,1,0,0:0:0:0:
256,192,11086,1,0,0:0:0:0:
256,192,11182,1,8,0:0:0:0:
256,192,11278,1,8,0:0:0:0:
256,192,11375,1,8,0:0:0:0:
256,192,11471,1,0,0:0:0:0:
256,192,11663,1,8,0:0:0:0:
256,192,11855,1,0,0:0:0:0:
256,192,12048,1,8,0:0:0:0:
256,192,12144,1,8,0:0:0:0:
256,192,12240,1,0,0:0:0:0:
256,192,12432,1,0,0:0:0:0:
256,192,12528,1,8,0:0:0:0:
256,192,12625,1,8,0:0:0:0:
256,192,12721,1,8,0:0:0:0:
256,192,12817,1,8,0:0:0:0:
256,192,12913,1,8,0:0:0:0:
256,192,13009,1,0,0:0:0:0:
256,192,13202,1,0,0:0:0:0:
256,192,13586,1,0,0:0:0:0:
256,192,13778,1,0,0:0:0:0:
256,192,14067,1,0,0:0:0:0:
256,192,14355,1,0,0:0:0:0:
256,192,14548,1,0,0:0:0:0:
256,192,14740,1,0,0:0:0:0:
256,192,14932,1,8,0:0:0:0:
256,192,15125,1,0,0:0:0:0:
256,192,15317,1,0,0:0:0:0:
256,192,15605,1,0,0:0:0:0:
256,192,15894,1,0,0:0:0:0:
256,192,16086,1,4,0:0:0:0:
256,192,16278,1,4,0:0:0:0:
256,192,16471,1,8,0:0:0:0:
256,192,16663,1,0,0:0:0:0:
256,192,16855,1,0,0:0:0:0:
256,192,17144,1,0,0:0:0:0:
256,192,17432,1,0,0:0:0:0:
256,192,17625,1,0,0:0:0:0:
256,192,17817,1,0,0:0:0:0:
256,192,18009,1,8,0:0:0:0:
256,192,18202,1,0,0:0:0:0:
256,192,18394,1,0,0:0:0:0:
256,192,18586,1,0,0:0:0:0:
256,192,18778,1,8,0:0:0:0:
256,192,18875,1,8,0:0:0:0:
256,192,18971,1,0,0:0:0:0:
256,192,19163,1,4,0:0:0:0:
256,192,19355,1,8,0:0:0:0:
256,192,19548,1,0,0:0:0:0:
256,192,19740,1,8,0:0:0:0:
256,192,19836,1,8,0:0:0:0:
256,192,19932,1,8,0:0:0:0:
256,192,20125,1,0,0:0:0:0:
256,192,20317,1,8,0:0:0:0:
256,192,20702,1,8,0:0:0:0:
256,192,20894,1,8,0:0:0:0:
256,192,20990,1,8,0:0:0:0:
256,192,21086,1,0,0:0:0:0:
256,192,21278,1,8,0:0:0:0:
256,192,21375,1,8,0:0:0:0:
256,192,21471,1,0,0:0:0:0:
256,192,21567,1,8,0:0:0:0:
256,192,21663,1,0,0:0:0:0:
256,192,21855,1,12,0:0:0:0:
256,192,22240,1,4,0:0:0:0:
256,192,22432,1,8,0:0:0:0:
256,192,22625,1,0,0:0:0:0:
256,192,22817,1,8,0:0:0:0:
256,192,22913,1,8,0:0:0:0:
256,192,23009,1,0,0:0:0:0:
256,192,23202,1,0,0:0:0:0:
256,192,23394,1,8,0:0:0:0:
256,192,23586,1,8,0:0:0:0:
256,192,23778,1,0,0:0:0:0:
256,192,23875,1,8,0:0:0:0:
256,192,23971,1,8,0:0:0:0:
256,192,24067,1,8,0:0:0:0:
256,192,24163,1,0,0:0:0:0:
256,192,24355,1,8,0:0:0:0:
256,192,24452,1,8,0:0:0:0:
256,192,24548,1,0,0:0:0:0:
256,192,24740,1,8,0:0:0:0:
256,192,24932,1,0,0:0:0:0:
256,192,25125,1,8,0:0:0:0:
256,192,25317,1,0,0:0:0:0:
256,192,25894,1,8,0:0:0:0:
256,192,26086,1,8,0:0:0:0:
256,192,26471,1,0,0:0:0:0:
256,192,26663,1,8,0:0:0:0:
256,192,26855,1,0,0:0:0:0:
256,192,27240,1,0,0:0:0:0:
256,192,27625,1,8,0:0:0:0:
256,192,28009,1,8,0:0:0:0:
256,192,28202,1,8,0:0:0:0:
256,192,28394,1,0,0:0:0:0:
256,192,28971,1,0,0:0:0:0:
256,192,29163,1,8,0:0:0:0:
256,192,29548,1,8,0:0:0:0:
256,192,29740,1,0,0:0:0:0:
256,192,29932,1,8,0:0:0:0:
256,192,30317,1,0,0:0:0:0:
256,192,30702,1,8,0:0:0:0:
256,192,31086,1,8,0:0:0:0:
256,192,31278,1,8,0:0:0:0:
256,192,31471,1,0,0:0:0:0:
256,192,32048,1,0,0:0:0:0:
256,192,32240,1,0,0:0:0:0:
256,192,32625,1,0,0:0:0:0:
256,192,32817,1,8,0:0:0:0:
256,192,33009,1,0,0:0:0:0:
256,192,33394,1,8,0:0:0:0:
256,192,33778,1,0,0:0:0:0:
256,192,34163,1,8,0:0:0:0:
256,192,34355,1,8,0:0:0:0:
256,192,34548,1,0,0:0:0:0:
256,192,34932,1,0,0:0:0:0:
256,192,35317,1,8,0:0:0:0:
256,192,35702,1,8,0:0:0:0:
256,192,35894,1,8,0:0:0:0:
256,192,36086,1,0,0:0:0:0:
256,192,36471,1,0,0:0:0:0:
256,192,36663,1,0,0:0:0:0:
256,192,36855,1,8,0:0:0:0:
256,192,37240,1,0,0:0:0:0:
256,192,37625,1,0,0:0:0:0:
256,192,37817,1,8,0:0:0:0:
256,192,37913,1,8,0:0:0:0:
256,192,38009,1,8,0:0:0:0:
256,192,38202,1,8,0:0:0:0:
256,192,38394,1,0,0:0:0:0:
256,192,38586,1,8,0:0:0:0:
256,192,38778,1,8,0:0:0:0:
256,192,38971,1,8,0:0:0:0:
256,192,39067,1,8,0:0:0:0:
256,192,39163,1,0,0:0:0:0:
256,192,39355,1,8,0:0:0:0:
256,192,39452,1,8,0:0:0:0:
256,192,39548,1,0,0:0:0:0:
256,192,39740,1,8,0:0:0:0:
256,192,39836,1,8,0:0:0:0:
256,192,39932,1,0,0:0:0:0:
256,192,40317,1,0,0:0:0:0:
256,192,40509,1,8,0:0:0:0:
256,192,40702,1,0,0:0:0:0:
256,192,40894,1,8,0:0:0:0:
256,192,40990,1,8,0:0:0:0:
256,192,41086,1,0,0:0:0:0:
256,192,41278,1,8,0:0:0:0:
256,192,41375,1,8,0:0:0:0:
256,192,41471,1,0,0:0:0:0:
256,192,41567,1,8,0:0:0:0:
256,192,41663,1,0,0:0:0:0:
256,192,41855,1,0,0:0:0:0:
256,192,42048,1,8,0:0:0:0:
256,192,42240,1,0,0:0:0:0:
256,192,42625,1,8,0:0:0:0:
256,192,43009,1,0,0:0:0:0:
256,192,43394,1,8,0:0:0:0:
256,192,43490,1,0,0:0:0:0:
256,192,43586,1,8,0:0:0:0:
256,192,43682,1,0,0:0:0:0:
256,192,43778,1,0,0:0:0:0:
256,192,44163,1,8,0:0:0:0:
256,192,44355,1,8,0:0:0:0:
256,192,44452,1,8,0:0:0:0:
256,192,44548,1,0,0:0:0:0:
256,192,44932,1,0,0:0:0:0:
256,192,45125,1,0,0:0:0:0:
256,192,45221,1,8,0:0:0:0:
256,192,45317,1,0,0:0:0:0:
256,192,45509,1,8,0:0:0:0:
256,192,45702,1,8,0:0:0:0:
256,192,45894,1,0,0:0:0:0:
256,192,46086,1,0,0:0:0:0:
256,192,46471,1,0,0:0:0:0:
256,192,46567,1,8,0:0:0:0:
256,192,46663,1,8,0:0:0:0:
256,192,46759,1,8,0:0:0:0:
256,192,46855,1,0,0:0:0:0:
256,192,47048,1,8,0:0:0:0:
256,192,47240,1,0,0:0:0:0:
256,192,47432,1,8,0:0:0:0:
256,192,47528,1,8,0:0:0:0:
256,192,47625,1,0,0:0:0:0:
256,192,47817,1,8,0:0:0:0:
256,192,48009,1,0,0:0:0:0:
256,192,48202,1,8,0:0:0:0:
256,192,48394,1,0,0:0:0:0:
256,192,48778,1,8,0:0:0:0:
256,192,49163,1,0,0:0:0:0:
256,192,49355,1,8,0:0:0:0:
256,192,49548,1,8,0:0:0:0:
256,192,49644,1,8,0:0:0:0:
256,192,49740,1,8,0:0:0:0:
256,192,49932,1,4,0:0:0:0:
256,192,50317,1,0,0:0:0:0:
256,192,50702,1,0,0:0:0:0:
256,192,50798,1,8,0:0:0:0:
256,192,50894,1,0,0:0:0:0:
256,192,50990,1,8,0:0:0:0:
256,192,51086,1,8,0:0:0:0:
256,192,51278,1,8,0:0:0:0:
256,192,51375,1,8,0:0:0:0:
256,192,51471,1,0,0:0:0:0:
256,192,51663,1,8,0:0:0:0:
256,192,51855,1,0,0:0:0:0:
256,192,52048,1,8,0:0:0:0:
256,192,52240,1,8,0:0:0:0:
256,192,52432,1,0,0:0:0:0:
256,192,52625,1,8,0:0:0:0:
256,192,53009,1,0,0:0:0:0:
256,192,53394,1,0,0:0:0:0:
256,192,53778,1,0,0:0:0:0:
256,192,53875,1,8,0:0:0:0:
256,192,53971,1,0,0:0:0:0:
256,192,54067,1,8,0:0:0:0:
256,192,54163,1,8,0:0:0:0:
256,192,54355,1,8,0:0:0:0:
256,192,54452,1,8,0:0:0:0:
256,192,54548,1,0,0:0:0:0:
256,192,54740,1,8,0:0:0:0:
256,192,54932,1,8,0:0:0:0:
256,192,55125,1,0,0:0:0:0:
256,192,55317,1,0,0:0:0:0:
256,192,55509,1,8,0:0:0:0:
256,192,55605,1,8,0:0:0:0:
256,192,55702,1,8,0:0:0:0:
256,192,55894,1,8,0:0:0:0:
256,192,56086,1,4,0:0:0:0:
256,192,56278,1,8,0:0:0:0:
256,192,56471,1,0,0:0:0:0:
256,192,56663,1,8,0:0:0:0:
256,192,56759,1,8,0:0:0:0:
256,192,56855,1,0,0:0:0:0:
256,192,57240,1,8,0:0:0:0:
256,192,57432,1,8,0:0:0:0:
256,192,57625,1,0,0:0:0:0:
256,192,57817,1,8,0:0:0:0:
256,192,57913,1,8,0:0:0:0:
256,192,58009,1,0,0:0:0:0:
256,192,58202,1,0,0:0:0:0:
256,192,58298,1,8,0:0:0:0:
256,192,58394,1,0,0:0:0:0:
256,192,58586,1,8,0:0:0:0:
256,192,58682,1,0,0:0:0:0:
256,192,58778,1,8,0:0:0:0:
256,192,58875,1,8,0:0:0:0:
256,192,58971,1,0,0:0:0:0:
256,192,59163,1,4,0:0:0:0:
256,192,59548,1,0,0:0:0:0:
256,192,59740,1,8,0:0:0:0:
256,192,59932,1,0,0:0:0:0:
256,192,60317,1,8,0:0:0:0:
256,192,60509,1,8,0:0:0:0:
256,192,60702,1,4,0:0:0:0:
256,192,61086,1,0,0:0:0:0:
256,192,61471,1,0,0:0:0:0:
256,192,61663,1,8,0:0:0:0:
256,192,61855,1,8,0:0:0:0:
256,192,62048,1,8,0:0:0:0:
256,192,62240,1,0,0:0:0:0:
256,192,62432,1,0,0:0:0:0:
256,192,62625,1,8,0:0:0:0:
256,192,63009,1,0,0:0:0:0:
256,192,63202,1,8,0:0:0:0:
256,192,63394,1,0,0:0:0:0:
256,192,63586,1,8,0:0:0:0:
256,192,63778,1,4,0:0:0:0:
256,192,63971,1,8,0:0:0:0:
256,192,64067,1,8,0:0:0:0:
256,192,64163,1,0,0:0:0:0:
256,192,64355,1,0,0:0:0:0:
256,192,64548,1,8,0:0:0:0:
256,192,64740,1,8,0:0:0:0:
256,192,64932,1,0,0:0:0:0:
256,192,65125,1,8,0:0:0:0:
256,192,65221,1,0,0:0:0:0:
256,192,65317,1,8,0:0:0:0:
256,192,65413,1,8,0:0:0:0:
256,192,65509,1,0,0:0:0:0:
256,192,65605,1,8,0:0:0:0:
256,192,65702,1,0,0:0:0:0:
256,192,65894,1,8,0:0:0:0:
256,192,65990,1,8,0:0:0:0:
256,192,66086,1,0,0:0:0:0:
256,192,66278,1,8,0:0:0:0:
256,192,66471,1,0,0:0:0:0:
256,192,66663,1,0,0:0:0:0:
256,192,66759,1,0,0:0:0:0:
256,192,66855,1,8,0:0:0:0:
256,192,67240,1,8,0:0:0:0:
256,192,67432,1,8,0:0:0:0:
256,192,67528,1,8,0:0:0:0:
256,192,67625,1,0,0:0:0:0:
256,192,67817,1,0,0:0:0:0:
256,192,67913,1,8,0:0:0:0:
256,192,68009,1,0,0:0:0:0:
256,192,68202,1,8,0:0:0:0:
256,192,68394,1,8,0:0:0:0:
256,192,68586,1,8,0:0:0:0:
256,192,68682,1,8,0:0:0:0:
256,192,68778,1,0,0:0:0:0:
256,192,69163,1,8,0:0:0:0:
256,192,69548,1,0,0:0:0:0:
256,192,69740,1,0,0:0:0:0:
256,192,69932,1,12,0:0:0:0:
256,192,70317,1,0,0:0:0:0:
256,192,70509,1,8,0:0:0:0:
256,192,70605,1,8,0:0:0:0:
256,192,70702,1,8,0:0:0:0:
256,192,71086,1,0,0:0:0:0:
256,192,71471,1,8,0:0:0:0:
256,192,71663,1,0,0:0:0:0:
256,192,71759,1,8,0:0:0:0:
256,192,71855,1,0,0:0:0:0:
256,192,72048,1,8,0:0:0:0:
256,192,72240,1,12,0:0:0:0:
256,192,72817,1,0,0:0:0:0:
256,192,73009,1,12,0:0:0:0:
256,192,73202,1,0,0:0:0:0:
256,192,73298,1,0,0:0:0:0:
256,192,73394,1,0,0:0:0:0:
256,192,73586,1,8,0:0:0:0:
256,192,73682,1,8,0:0:0:0:
256,192,73778,1,0,0:0:0:0:
256,192,73971,1,8,0:0:0:0:
256,192,74163,1,0,0:0:0:0:
256,192,74355,1,0,0:0:0:0:
256,192,74548,1,12,0:0:0:0:
256,192,74740,1,4,0:0:0:0:
256,192,74932,1,4,0:0:0:0:
256,192,75317,1,12,0:0:0:0:
256,192,75509,1,4,0:0:0:0:
256,192,75894,1,0,0:0:0:0:
256,192,76086,1,12,0:0:0:0:
256,192,76471,1,0,0:0:0:0:
256,192,76663,1,8,0:0:0:0:
256,192,76759,1,8,0:0:0:0:
256,192,76855,1,8,0:0:0:0:
256,192,77048,1,0,0:0:0:0:
256,192,77240,1,8,0:0:0:0:
256,192,77432,1,0,0:0:0:0:
256,192,77528,1,0,0:0:0:0:
256,192,77625,1,8,0:0:0:0:
256,192,78009,1,8,0:0:0:0:
256,192,78202,1,8,0:0:0:0:
256,192,78298,1,8,0:0:0:0:
256,192,78394,1,0,0:0:0:0:
256,192,78490,1,8,0:0:0:0:
256,192,78586,1,8,0:0:0:0:
256,192,78778,1,0,0:0:0:0:
256,192,78971,1,8,0:0:0:0:
256,192,79067,1,8,0:0:0:0:
256,192,79163,1,0,0:0:0:0:
256,192,79548,1,0,0:0:0:0:
256,192,79740,1,8,0:0:0:0:
256,192,79836,1,8,0:0:0:0:
256,192,79932,1,8,0:0:0:0:
256,192,80125,1,8,0:0:0:0:
256,192,80317,1,0,0:0:0:0:
256,192,80509,1,0,0:0:0:0:
256,192,80605,1,0,0:0:0:0:
256,192,80702,1,8,0:0:0:0:
256,192,81086,1,8,0:0:0:0:
256,192,81471,1,0,0:0:0:0:
256,192,81567,1,8,0:0:0:0:
256,192,81663,1,8,0:0:0:0:
256,192,81759,1,0,0:0:0:0:
256,192,81855,1,8,0:0:0:0:
256,192,82048,1,0,0:0:0:0:
256,192,82240,1,12,0:0:0:0:
256,192,82432,1,8,0:0:0:0:
256,192,82528,1,8,0:0:0:0:
256,192,82625,1,4,0:0:0:0:
256,192,82817,1,0,0:0:0:0:
256,192,82913,1,0,0:0:0:0:
256,192,83009,1,8,0:0:0:0:
256,192,83394,1,0,0:0:0:0:
256,192,83490,1,8,0:0:0:0:
256,192,83586,1,8,0:0:0:0:
256,192,83682,1,8,0:0:0:0:
256,192,83778,1,0,0:0:0:0:
256,192,83971,1,8,0:0:0:0:
256,192,84067,1,8,0:0:0:0:
256,192,84163,1,0,0:0:0:0:
256,192,84355,1,8,0:0:0:0:
256,192,84548,1,0,0:0:0:0:
256,192,84932,1,0,0:0:0:0:
256,192,85125,1,8,0:0:0:0:
256,192,85221,1,8,0:0:0:0:
256,192,85317,1,0,0:0:0:0:
256,192,85509,1,8,0:0:0:0:
256,192,85605,1,8,0:0:0:0:
256,192,85702,1,8,0:0:0:0:
256,192,85894,1,0,0:0:0:0:
256,192,86086,1,12,0:0:0:0:
256,192,86278,1,0,0:0:0:0:
256,192,86471,1,0,0:0:0:0:
256,192,86663,1,0,0:0:0:0:
256,192,86855,1,12,0:0:0:0:
