osu file format v14

[General]
AudioFilename: utaware OP.mp3
AudioLeadIn: 0
PreviewTime: 62626
Countdown: 0
SampleSet: Soft
StackLeniency: 0.7
Mode: 0
LetterboxInBreaks: 0
WidescreenStoryboard: 0

[Editor]
Bookmarks: 12919,19169,25322,37630,49938,63784,76092,86861
DistanceSpacing: 1.2
BeatDivisor: 4
GridSize: 4
TimelineZoom: 1.9

[Metadata]
Title:Fuantei na Kamisama
TitleUnicode:不安定な神様
Artist:Suara
ArtistUnicode:Suara
Creator:rui
Version:Hard
Source:うたわれるもの 偽りの仮面
Tags:utawarerumono itsuwari no kamen opening aquaplus Tv Size
BeatmapID:804034
BeatmapSetID:365540

[Difficulty]
HPDrainRate:5.5
CircleSize:4
OverallDifficulty:6
ApproachRate:7
SliderMultiplier:1.4
SliderTickRate:1

[Events]
//Background and Video events
0,0,"BG.jpg",0,0
Video,0,"movie.avi"
//Break Periods
2,2442,4418
2,5518,7495
//Storyboard Layer 0 (Background)
//Storyboard Layer 1 (Fail)
//Storyboard Layer 2 (Pass)
//Storyboard Layer 3 (Foreground)
//Storyboard Sound Samples

[TimingPoints]
2242,384.615384615385,4,2,2,70,1,0
8395,-100,4,2,1,60,0,0
12434,-100,4,2,1,60,0,0
13011,-100,4,2,2,80,0,0
13972,-100,4,2,2,35,0,0
16088,-100,4,2,2,60,0,0
16472,-100,4,2,2,50,0,0
16857,-100,4,2,2,40,0,0
17818,-100,4,2,2,50,0,0
18395,-100,4,2,2,50,0,0
18780,-100,4,2,4,60,0,0
19165,-90.9090909090909,4,2,1,55,0,0
24549,-90.9090909090909,4,2,4,55,0,0
25318,-133.333333333333,4,2,3,30,0,0
31472,-133.333333333333,4,2,2,20,0,0
32242,-133.333333333333,4,2,3,30,0,0
37626,-100,4,2,1,60,0,0
37818,-100,4,2,2,50,0,0
40511,-100,4,2,1,60,0,0
40703,-100,4,2,2,50,0,0
43780,-100,4,2,1,60,0,0
43972,-100,4,2,2,50,0,0
48203,-100,4,2,3,50,0,0
49934,-100,4,2,3,50,0,0
50030,-100,4,2,4,50,0,0
56088,-100,4,2,3,50,0,0
56184,-100,4,2,4,50,0,0
59165,-100,4,2,3,50,0,0
59357,-100,4,2,4,50,0,0
60703,-100,4,2,3,50,0,0
60799,-100,4,2,4,50,0,0
62242,-100,4,2,4,55,0,0
63780,-90.9090909090909,4,2,1,65,0,1
63876,-90.9090909090909,4,2,4,65,0,1
68972,-90.9090909090909,4,2,3,65,0,1
69549,-90.9090909090909,4,2,4,65,0,1
69934,-90.9090909090909,4,2,1,65,0,1
70030,-90.9090909090909,4,2,4,65,0,1
72242,-90.9090909090909,4,2,3,65,0,1
72338,-90.9090909090909,4,2,4,65,0,1
74549,-90.9090909090909,4,2,3,70,0,1
74742,-90.9090909090909,4,2,4,70,0,1
75992,-90.9090909090909,4,2,4,70,0,0
76088,-90.9090909090909,4,2,1,65,0,1
76184,-90.9090909090909,4,2,4,65,0,1
81857,-90.9090909090909,4,2,3,65,0,1
82049,-90.9090909090909,4,2,4,65,0,1
85318,-90.9090909090909,4,2,3,65,0,1
85415,-90.9090909090909,4,2,4,65,0,1
86088,-90.9090909090909,4,2,3,65,0,1
86857,-90.9090909090909,4,2,1,70,0,0
89838,-90.9090909090909,4,2,1,10,0,0

[Colours]
Combo1 : 0,106,213
Combo2 : 163,163,209
Combo3 : 0,166,166
Combo4 : 255,95,17

[HitObjects]
144,132,2242,5,4,0:0:0:0:
144,132,5318,5,4,0:0:0:0:
144,132,8395,6,0,P|113:153|85:178,1,70,4|0,1:2|0:0,0:0:0:0:
182,149,8780,2,0,P|165:182|154:218,1,70,0|0,1:0|0:0,0:0:0:0:
252,216,9165,6,0,P|254:253|262:290,1,70,0|0,1:0|0:0,0:0:0:0:
285,191,9550,2,0,P|305:221|331:249,1,70,0|0,1:0|0:0,0:0:0:0:
457,224,9934,6,0,P|476:254|500:280,1,70,0|0,1:0|0:0,0:0:0:0:
424,249,10319,2,0,P|427:284|434:319,1,70,0|0,1:0|0:0,0:0:0:0:
353,182,10704,6,0,P|337:213|328:247,1,70,0|0,1:0|0:0,0:0:0:0:
315,165,11089,2,0,P|286:184|261:208,1,70,0|0,1:0|0:0,0:0:0:0:
328,76,11472,6,0,P|260:96|184:108,1,140,4|0,1:2|1:0,0:0:0:0:
116,140,12049,1,0,1:0:0:0:
32,124,12242,1,0,1:0:0:0:
56,204,12434,6,0,L|68:240,4,35,2|2|2|2|2,0:0|0:0|0:0|0:0|0:0,0:0:0:0:
112,104,13011,5,4,0:0:0:0:
192,184,13203,1,4,0:0:0:0:
192,184,13972,5,2,0:0:0:0:
264,136,14165,1,0,0:0:0:0:
344,160,14357,1,2,0:0:0:0:
380,236,14549,6,0,P|416:248|456:248,2,70,2|2|8,0:0|0:0|0:0,0:0:0:0:
452,48,15318,2,0,P|396:48|352:72,1,105,8|8,0:0|0:0,0:0:0:0:
328,104,15703,2,0,P|316:128|308:176,1,70,8|8,0:0|0:0,0:0:0:0:
340,276,16088,5,4,0:0:0:0:
264,360,16280,1,4,0:0:0:0:
156,328,16472,1,8,0:0:0:0:
56,160,16857,6,0,L|12:152,2,35,0|0|2,0:0|0:0|0:0,0:0:0:0:
140,172,17242,2,0,P|172:164|220:144,1,70,2|0,0:0|0:0,0:0:0:0:
280,108,17626,2,0,P|303:85|335:43,1,70,2|0,0:0|0:0,0:0:0:0:
432,84,18011,2,0,P|376:136|336:196,1,140,8|0,0:0|1:0,0:0:0:0:
304,264,18588,5,0,1:0:0:0:
316,348,18780,2,0,L|272:376,2,35,8|0|8,0:0|0:0|0:0,0:0:0:0:
404,316,19165,6,0,P|412:240|368:176,1,154.000004699707,4|0,0:0|1:0,0:0:0:0:
296,124,19742,1,0,0:0:0:0:
304,32,19934,2,0,L|228:52,1,77.0000023498536,8|0,0:0|0:0,0:0:0:0:
176,128,20318,2,0,P|148:96|128:64,1,77.0000023498536,0|0,1:0|0:0,0:0:0:0:
36,68,20703,6,0,P|74:134|121:195,1,154.000004699707,8|0,0:0|1:0,0:0:0:0:
212,212,21280,1,0,0:0:0:0:
280,148,21472,2,0,P|296:180|304:224,1,77.0000023498536,8|0,0:0|0:0,0:0:0:0:
372,285,21857,2,0,P|388:252|396:212,1,77.0000023498536,4|0,0:0|0:0,0:0:0:0:
432,92,22242,6,0,P|347:87|293:129,1,154.000004699707,12|0,0:0|1:0,0:0:0:0:
244,204,22818,1,0,0:0:0:0:
160,160,23011,2,0,P|120:152|72:136,1,77.0000023498536,8|0,0:0|0:0,0:0:0:0:
60,52,23395,2,0,P|100:60|148:76,1,77.0000023498536,0|0,1:0|0:0,0:0:0:0:
248,120,23780,6,0,B|288:132|312:160|312:160|312:120|324:80,1,154.000004699707,8|0,0:0|1:0,0:0:0:0:
380,12,24357,1,0,0:0:0:0:
424,96,24549,5,2,0:2:0:0:
428,188,24742,1,2,0:2:0:0:
412,280,24934,1,2,0:2:0:0:
468,208,25126,1,2,0:2:0:0:
496,120,25318,6,0,B|460:112|404:120|348:136|280:132,1,210.000008010865,4|2,0:3|0:0,0:0:0:0:
188,140,26472,1,2,0:0:0:0:
188,140,26857,1,2,0:0:0:0:
123,223,27242,1,2,0:0:0:0:
26,262,27626,1,2,0:0:0:0:
188,140,28203,5,0,0:0:0:0:
188,140,28395,2,0,P|248:156|328:44,1,210.000008010865,2|2,0:0|0:0,0:0:0:0:
240,64,29549,2,0,P|216:56|172:48,1,52.5000020027161,2|0,0:0|0:0,0:0:0:0:
128,32,29934,2,0,P|72:44|20:52,1,105.000004005432,2|0,0:0|0:0,0:0:0:0:
104,148,30703,2,0,P|160:160|212:168,1,105.000004005432,2|0,0:0|0:0,0:0:0:0:
268,180,31280,1,2,0:0:0:0:
268,180,31472,6,0,P|360:144|348:48,1,210.000008010865,8|2,0:0|0:0,0:0:0:0:
224,20,32626,2,0,P|240:40|255:62,1,52.5000020027161,2|0,0:0|0:0,0:0:0:0:
291,103,33011,5,2,0:0:0:0:
404,156,33395,1,2,0:0:0:0:
368,36,33780,1,2,0:0:0:0:
272,116,34165,2,0,P|284:144|300:176,2,52.5000020027161,2|0|2,0:0|0:0|0:0,0:0:0:0:
156,168,34934,5,2,0:0:0:0:
120,288,35318,1,2,0:0:0:0:
216,368,35703,1,2,0:0:0:0:
344,372,36088,2,0,P|412:300|368:196,1,210.000008010865,2|2,0:0|0:0,0:0:0:0:
368,192,37626,6,0,P|296:196|232:228,1,140,4|8,0:0|0:0,0:0:0:0:
164,272,38203,1,0,0:0:0:0:
100,216,38395,2,0,P|134:200|176:175,1,70,0|0,1:0|0:0,0:0:0:0:
232,136,38780,1,8,0:0:0:0:
288,76,38972,1,0,0:0:0:0:
364,116,39165,6,0,B|404:120|404:120|464:100|464:100|520:108,2,140,0|8|0,1:0|0:0|1:0,0:0:0:0:
224,24,40318,2,0,L|156:44,1,70,8|4,0:0|0:0,0:0:0:0:
92,116,40703,6,0,B|126:122|156:136|156:136|192:120|244:108,1,140,0|8,1:0|0:0,0:0:0:0:
308,96,41280,1,0,0:0:0:0:
364,32,41472,2,0,P|384:60|396:104,1,70,0|0,1:0|0:0,0:0:0:0:
352,168,41857,1,8,0:0:0:0:
372,248,42049,1,0,0:0:0:0:
404,324,42242,6,0,L|324:340,1,70,0|0,1:0|0:0,0:0:0:0:
292,268,42626,2,0,P|256:280|223:296,1,70,8|0,0:0|0:0,0:0:0:0:
111,210,43011,2,0,L|180:224,1,70,0|0,1:0|0:0,0:0:0:0:
222,153,43395,2,0,P|256:164|287:180,1,70,8|0,0:0|0:0,0:0:0:0:
356,132,43780,6,0,P|292:96|228:76,1,140,4|8,0:0|0:0,0:0:0:0:
148,60,44357,1,0,0:0:0:0:
76,104,44549,2,0,P|44:145|69:230,1,140,0|8,1:0|0:0,0:0:0:0:
124,284,45126,1,0,0:0:0:0:
204,308,45318,2,0,P|248:280|256:192,2,140,0|8|0,1:0|0:0|1:0,0:0:0:0:
63,225,46472,6,0,P|44:188|40:144,2,70,8|0|0,0:0|0:0|1:0,0:0:0:0:
116,292,47049,1,0,0:0:0:0:
172,228,47242,2,0,P|231:189|301:176,1,140,8|2,0:0|1:2,0:0:0:0:
464,208,48011,1,8,0:0:0:0:
492,288,48203,1,0,0:0:0:0:
408,272,48395,6,0,B|368:280|328:293|328:293|272:280,1,140,2|2,1:2|0:0,0:0:0:0:
224,64,49165,2,0,B|188:56|144:43|144:43|60:60,1,140,2|2,1:2|0:0,0:0:0:0:
12,204,49934,6,0,P|76:184|160:168,1,140,4|0,0:0|1:0,0:0:0:0:
308,220,50703,2,0,P|344:212|400:204,1,70,0|0,1:0|0:0,0:0:0:0:
440,264,51088,2,0,P|451:228|472:176,1,70,8|0,0:0|0:0,0:0:0:0:
412,132,51472,6,0,P|352:132|272:152,1,140,0|0,1:0|1:0,0:0:0:0:
152,264,52242,2,0,P|127:236|85:198,1,70,0|0,1:0|0:0,0:0:0:0:
18,224,52627,2,0,P|29:188|41:133,1,70,8|0,0:0|0:0,0:0:0:0:
92,52,53011,6,0,P|131:114|187:162,1,140,0|0,1:0|1:0,0:0:0:0:
348,180,53780,2,0,P|344:140|328:88,1,70,0|0,1:0|0:0,0:0:0:0:
268,60,54165,2,0,P|259:94|256:128,1,70,8|0,0:0|0:0,0:0:0:0:
200,232,54549,6,0,P|179:165|168:96,1,140,0|0,1:0|1:0,0:0:0:0:
312,12,55318,2,0,P|308:48|296:84,1,70,0|0,1:0|0:0,0:0:0:0:
376,116,55703,2,0,P|349:141|317:160,1,70,8|0,0:0|0:0,0:0:0:0:
204,180,56088,6,0,P|183:215|169:247,2,70,4|0|0,0:0|0:0|1:0,0:0:0:0:
90,215,56665,2,0,P|100:302|206:322,1,210,0|8,0:0|0:0,0:0:0:0:
288,296,57434,1,0,0:0:0:0:
364,264,57626,6,0,P|400:244|428:224,2,70,0|0|0,1:0|0:0|1:0,0:0:0:0:
479,292,58203,2,0,P|512:200|432:140,1,210,0|8,0:0|0:0,0:0:0:0:
348,132,58972,1,0,0:0:0:0:
264,132,59165,6,0,P|224:138|180:148,1,70,4|0,0:0|0:0,0:0:0:0:
99,236,59549,2,0,P|133:229|168:224,1,70,0|0,1:0|0:0,0:0:0:0:
324,228,59934,2,0,P|276:241|228:269,1,105,0|0,1:0|0:0,0:0:0:0:
204,304,60318,2,0,P|240:312|276:328,1,70,8|0,0:0|0:0,0:0:0:0:
352,300,60703,2,0,P|400:260|424:188,1,140,4|0,0:0|1:0,0:0:0:0:
456,24,61472,5,4,3:0:0:0:
428,104,61665,1,8,0:0:0:0:
348,128,61857,1,8,0:0:0:0:
280,80,62049,1,8,0:0:0:0:
141,146,62242,6,0,P|175:139|204:120,1,70,4|2,0:0|0:0,0:0:0:0:
140,64,62626,1,2,0:0:0:0:
348,248,63011,5,2,0:0:0:0:
428,276,63203,1,2,0:0:0:0:
500,236,63395,1,2,0:0:0:0:
420,204,63588,1,2,0:0:0:0:
360,328,63780,6,0,B|280:340|208:316,1,154.000004699707,4|8,0:0|0:0,0:0:0:0:
124,276,64357,1,0,0:0:0:0:
60,208,64549,2,0,P|100:192|152:188,1,77.0000023498536,0|0,1:0|0:0,0:0:0:0:
204,128,64934,2,0,P|220:164|224:204,1,77.0000023498536,8|0,0:0|0:0,0:0:0:0:
252,288,65318,5,0,1:0:0:0:
300,208,65511,1,0,0:0:0:0:
340,292,65703,1,8,0:0:0:0:
392,216,65895,2,0,L|468:204,2,77.0000023498536,0|0|0,0:0|1:0|0:0,0:0:0:0:
348,132,66472,2,0,P|312:124|264:124,1,77.0000023498536,8|0,0:0|0:0,0:0:0:0:
240,36,66857,6,0,P|184:76|180:160,1,154.000004699707,0|8,1:0|0:0,0:0:0:0:
212,244,67434,1,0,0:0:0:0:
280,180,67626,2,0,P|300:211|305:249,1,77.0000023498536,0|0,1:0|0:0,0:0:0:0:
256,328,68011,2,0,P|291:342|329:340,1,77.0000023498536,8|0,0:0|0:0,0:0:0:0:
396,264,68395,6,0,P|388:184|344:108,1,154.000004699707,0|8,1:0|0:0,0:0:0:0:
292,52,68972,1,0,0:0:0:0:
204,24,69165,2,0,P|212:104|256:180,1,154.000004699707,0|8,1:0|0:0,0:0:0:0:
332,332,69934,6,0,B|364:324|400:300|400:300|416:256|412:212,1,154.000004699707,0|8,1:0|0:0,0:0:0:0:
332,176,70511,1,0,0:0:0:0:
256,124,70703,2,0,B|224:132|188:156|188:156|172:200|176:244,1,154.000004699707,0|8,1:0|0:0,0:0:0:0:
332,332,71472,6,0,B|355:308|371:264|371:264|359:223|340:196,1,154.000004699707,0|8,1:0|0:0,0:0:0:0:
248,180,72049,1,0,0:0:0:0:
156,171,72241,2,0,B|132:194|116:238|116:238|128:279|147:306,1,154.000004699707,4|8,0:0|0:0,0:0:0:0:
236,340,72818,1,0,0:0:0:0:
332,332,73011,6,0,P|352:280|368:200,1,115.50000352478,0|0,1:0|0:0,0:0:0:0:
404,196,73395,2,0,P|384:156|372:116,1,77.0000023498536,8|0,0:0|0:0,0:0:0:0:
304,64,73780,2,0,P|256:92|180:112,1,115.50000352478,0|0,1:0|0:0,0:0:0:0:
164,80,74165,2,0,P|144:120|132:160,1,77.0000023498536,8|0,0:0|0:0,0:0:0:0:
216,192,74549,5,4,0:0:0:0:
256,276,74742,1,2,0:0:0:0:
264,368,74934,1,2,0:0:0:0:
248,368,75318,5,2,0:0:0:0:
256,276,75510,1,2,0:0:0:0:
292,192,75703,1,2,0:0:0:0:
368,136,75895,1,2,0:0:0:0:
460,116,76088,6,0,P|380:104|308:80,1,154.000004699707,4|8,0:0|0:0,0:0:0:0:
224,52,76665,1,0,0:0:0:0:
140,88,76857,2,0,P|172:112|208:148,1,77.0000023498536,0|0,1:0|0:0,0:0:0:0:
288,160,77242,2,0,P|268:192|232:224,1,77.0000023498536,8|0,0:0|0:0,0:0:0:0:
172,280,77626,5,0,1:0:0:0:
203,367,77818,1,0,0:0:0:0:
264,296,78011,1,8,0:0:0:0:
295,384,78203,1,0,0:0:0:0:
356,312,78395,6,0,P|348:272|336:236,1,77.0000023498536,0|0,1:0|0:0,0:0:0:0:
404,172,78780,2,0,P|368:152|332:138,1,77.0000023498536,8|0,0:0|0:0,0:0:0:0:
304,52,79165,6,0,P|269:73|248:180,1,154.000004699707,0|8,1:0|0:0,0:0:0:0:
351,276,79742,2,0,P|314:266|276:264,2,77.0000023498536,0|0|0,0:0|1:0|0:0,0:0:0:0:
391,196,80318,2,0,P|353:193|316:183,1,77.0000023498536,8|0,0:0|0:0,0:0:0:0:
240,132,80703,6,0,P|180:176|104:168,1,154.000004699707,0|8,1:0|0:0,0:0:0:0:
284,260,81472,2,0,P|344:216|420:224,1,154.000004699707,0|4,1:0|0:0,0:0:0:0:
504,264,82049,1,0,0:0:0:0:
452,152,82242,6,0,P|404:136|328:136,1,115.50000352478,0|0,1:0|0:0,0:0:0:0:
292,136,82626,2,0,P|228:168|224:244,1,154.000004699707,8|0,0:0|1:0,0:0:0:0:
404,276,83395,2,0,P|393:314|367:349,1,77.0000023498536,8|0,0:0|0:0,0:0:0:0:
308,276,83780,6,0,P|260:292|184:292,1,115.50000352478,0|0,1:0|0:0,0:0:0:0:
148,291,84164,2,0,P|82:257|79:183,1,154.000004699707,8|0,0:0|1:0,0:0:0:0:
188,36,84934,2,0,P|216:64|236:104,1,77.0000023498536,8|0,0:0|0:0,0:0:0:0:
304,156,85318,6,0,P|280:204|268:280,1,115.50000352478,4|0,0:0|0:0,0:0:0:0:
240,300,85703,2,0,P|257:336|281:378,2,77.0000023498536,8|4|4,0:0|0:0|0:0,0:0:0:0:
152,268,86280,5,2,0:0:0:0:
152,176,86472,1,2,0:0:0:0:
240,145,86665,1,2,0:0:0:0:
295,221,86857,1,4,0:0:0:0:
256,192,86953,12,0,89934,0:0:0:0:
