osu file format v14

[General]
AudioFilename: audio.mp3
AudioLeadIn: 0
PreviewTime: 64480
Countdown: 0
SampleSet: Soft
StackLeniency: 0.7
Mode: 3
LetterboxInBreaks: 0
SpecialStyle: 0
WidescreenStoryboard: 1

[Editor]
DistanceSpacing: 0.9
BeatDivisor: 4
GridSize: 32
TimelineZoom: 1.8

[Metadata]
Title:Fuantei na Kamisama (TV Size)
TitleUnicode:不安定な神様 (TV Size)
Artist:Suara
ArtistUnicode:Suara
Creator:_Rokii
Version:Fapu's Easy
Source:うたわれるもの 偽りの仮面
Tags:utawarerumono itsuwari no kamen opening season 2 anime japanese pop j-pop jpop the false faces Utawarerumono: Mask of Deception すあら 巽明子 Tatsumi Akiko shuntarou kobayashi 小林 俊太郎 こばやし しゅんたろう fix f.i.x records female vocals faputa KICM-3305
BeatmapID:3618224
BeatmapSetID:1690983

[Difficulty]
HPDrainRate:7
CircleSize:7
OverallDifficulty:7
ApproachRate:5
SliderMultiplier:1.4
SliderTickRate:1

[Events]
//Background and Video events
0,0,"BG.jpg",0,0
//Break Periods
//Storyboard Layer 0 (Background)
//Storyboard Layer 1 (Fail)
//Storyboard Layer 2 (Pass)
//Storyboard Layer 3 (Foreground)
//Storyboard Layer 4 (Overlay)
//Storyboard Sound Samples
Sample,26403,0,"HaiHat Open.wav",30
Sample,63326,0,"HaiHat Open.wav",30

[TimingPoints]
2365,384.615384615385,4,2,1,40,1,0
65441,-100.0,4,2,1,40,0,1
71211,-100.0,4,2,1,40,0,0
71595,-100.0,4,2,1,40,0,1
76211,-100.0,4,2,1,40,0,0
77749,-100.0,4,2,1,40,0,1
83518,-100.0,4,2,1,40,0,0
83903,-100.0,4,2,1,40,0,1
88518,-100.0,4,2,1,40,0,0

[HitObjects]
256,192,3134,128,0,3903:0:0:0:0:
36,192,3903,1,2,0:0:0:0:
475,192,3903,128,0,5441:0:0:0:0:
36,192,5441,128,0,6980:0:0:0:0:
329,192,6980,128,2,8518:0:0:0:0:
402,192,6980,1,0,0:0:0:0:
182,192,8518,128,0,10057:0:0:0:0:
402,192,10057,1,2,0:0:0:0:
475,192,10057,1,0,0:0:0:70:Crash.wav
109,192,10441,1,2,0:0:0:0:
402,192,10826,1,2,0:0:0:0:
109,192,11211,1,2,0:0:0:0:
329,192,11595,1,2,0:0:0:0:
182,192,11980,1,2,0:0:0:0:
329,192,12365,1,2,0:0:0:0:
182,192,12749,1,2,0:0:0:0:
402,192,13134,1,2,0:0:0:0:
475,192,13134,1,0,0:0:0:70:Crash.wav
36,192,13518,1,2,0:0:0:0:
182,192,13903,1,2,0:0:0:0:
475,192,14095,1,8,0:0:0:0:
402,192,14288,1,10,0:0:0:0:
329,192,14480,1,8,0:0:0:0:
36,192,14672,128,2,15441:0:0:0:0:
256,192,14672,1,0,0:0:0:0:
256,192,15441,1,0,0:0:0:0:
256,192,16211,1,0,0:0:0:0:
256,192,16980,1,0,0:0:0:0:
182,192,17749,1,2,0:0:0:0:
329,192,17941,1,2,0:0:0:0:
256,192,18518,1,0,0:0:0:0:
256,192,19288,1,0,0:0:0:0:
256,192,20057,1,0,0:0:0:0:
329,192,20249,1,2,0:0:0:0:
182,192,20441,1,8,0:0:0:0:
329,192,20634,1,2,0:0:0:0:
36,192,20826,1,2,0:0:0:0:
109,192,20826,1,0,0:0:0:70:Crash.wav
402,192,21211,1,0,0:0:0:40:snare.wav
109,192,21595,1,2,0:0:0:0:
402,192,21980,1,0,0:0:0:40:snare.wav
182,192,22365,1,2,0:0:0:0:
329,192,22749,1,0,0:0:0:40:snare.wav
182,192,23134,1,2,0:0:0:0:
329,192,23518,1,4,0:0:0:0:
402,192,23518,1,0,0:0:0:40:snare.wav
36,192,23903,1,2,0:0:0:0:
109,192,23903,1,0,0:0:0:70:Crash.wav
475,192,24288,1,0,0:0:0:40:snare.wav
36,192,24672,1,2,0:0:0:0:
475,192,25057,1,0,0:0:0:40:snare.wav
329,192,25441,1,2,0:0:0:0:
182,192,25826,1,0,0:0:0:70:snare.wav
329,192,26211,1,10,0:0:0:0:
256,192,26403,1,8,0:0:0:0:
182,192,26595,1,10,0:0:0:0:
109,192,26788,1,8,0:0:0:0:
402,192,26980,128,0,27749:0:0:0:0:
36,192,27749,1,0,0:0:0:0:
182,192,28134,1,0,0:0:0:0:
329,192,28518,128,0,29288:0:0:0:0:
402,192,29288,128,0,30057:0:0:0:0:
36,192,30057,128,0,30826:0:0:0:0:
402,192,30826,1,0,0:0:0:0:
256,192,31211,1,0,0:0:0:0:
109,192,31595,128,0,32365:0:0:0:0:
475,192,32365,128,0,33134:0:0:0:0:
182,192,33134,128,0,33903:0:0:0:0:
329,192,33903,1,0,0:0:0:0:
182,192,34288,1,0,0:0:0:0:
402,192,34672,1,0,0:0:0:0:
256,192,35057,1,0,0:0:0:0:
109,192,35441,1,0,0:0:0:0:
402,192,35826,1,0,0:0:0:0:
475,192,36211,128,0,36980:0:0:0:0:
36,192,36980,1,0,0:0:0:0:
182,192,37365,1,0,0:0:0:0:
329,192,37749,128,0,38518:0:0:0:0:
256,192,38518,1,0,0:0:0:0:
36,192,39288,1,2,0:0:0:0:
256,192,39672,1,2,0:0:0:0:
475,192,40057,1,2,0:0:0:0:
182,192,40441,1,2,0:0:0:0:
256,192,40826,128,2,41211:0:0:0:0:
109,192,41211,128,2,41595:0:0:0:0:
402,192,41595,128,2,41980:0:0:0:0:
182,192,41980,1,2,0:0:0:0:
256,192,42172,1,4,0:0:0:0:
329,192,42365,1,2,0:0:0:0:
475,192,42749,1,2,0:0:0:0:
36,192,43134,1,2,0:0:0:0:
182,192,43518,1,2,0:0:0:0:
475,192,43903,128,2,44288:0:0:0:0:
329,192,44288,128,2,44672:0:0:0:0:
182,192,44672,128,2,45057:0:0:0:0:
36,192,45057,1,2,0:0:0:0:
329,192,45249,1,0,0:0:0:0:
475,192,45441,1,2,0:0:0:0:
256,192,45826,1,2,0:0:0:0:
36,192,46211,1,2,0:0:0:0:
182,192,46595,1,2,0:0:0:0:
402,192,46980,128,2,47365:0:0:0:0:
109,192,47365,128,2,47749:0:0:0:0:
256,192,47749,128,2,48134:0:0:0:0:
402,192,48134,1,2,0:0:0:0:
109,192,48326,1,0,0:0:0:0:
36,192,48518,128,2,48903:0:0:0:0:
475,192,48903,128,2,49288:0:0:0:0:
329,192,49288,128,2,49672:0:0:0:0:
109,192,49672,1,2,0:0:0:0:
182,192,49865,1,0,0:0:0:0:
402,192,50057,1,2,0:0:0:0:
329,192,50441,1,2,0:0:0:0:
256,192,50826,128,2,51595:0:0:0:0:
109,192,51595,1,2,0:0:0:0:
182,192,51595,1,0,0:0:0:70:Crash.wav
402,192,51980,1,2,0:0:0:0:
182,192,52365,1,2,0:0:0:0:
402,192,52749,1,10,0:0:0:0:
256,192,52941,1,0,0:0:0:0:
109,192,53134,1,2,0:0:0:0:
329,192,53518,1,2,0:0:0:0:
109,192,53903,1,2,0:0:0:0:
329,192,54288,1,10,0:0:0:0:
36,192,54672,1,2,0:0:0:0:
182,192,55057,1,2,0:0:0:0:
329,192,55441,1,2,0:0:0:0:
475,192,55826,1,10,0:0:0:0:
182,192,56018,1,0,0:0:0:0:
109,192,56211,1,2,0:0:0:0:
256,192,56595,1,2,0:0:0:0:
402,192,56980,1,2,0:0:0:0:
256,192,57365,1,10,0:0:0:0:
329,192,57557,1,0,0:0:0:0:
109,192,57749,1,2,0:0:0:0:
402,192,57749,1,0,0:0:0:70:Crash.wav
36,192,58134,1,2,0:0:0:0:
182,192,58518,1,2,0:0:0:0:
475,192,58903,1,10,0:0:0:0:
182,192,59095,1,0,0:0:0:0:
329,192,59288,1,2,0:0:0:0:
109,192,59672,1,2,0:0:0:0:
256,192,60057,1,2,0:0:0:0:
402,192,60441,1,10,0:0:0:0:
256,192,60634,1,0,0:0:0:0:
36,192,60826,1,2,0:0:0:0:
475,192,60826,1,0,0:0:0:70:Crash.wav
182,192,61211,1,2,0:0:0:0:
475,192,61595,1,2,0:0:0:0:
329,192,61980,1,10,0:0:0:0:
256,192,62172,1,0,0:0:0:0:
109,192,62365,1,2,0:0:0:0:
402,192,62365,1,0,0:0:0:70:Crash.wav
475,192,62749,1,2,0:0:0:0:
36,192,63134,1,2,0:0:0:0:
329,192,63326,1,8,0:0:0:0:
256,192,63518,1,10,0:0:0:0:
182,192,63711,1,8,0:0:0:0:
109,192,63903,1,2,0:0:0:0:
256,192,64288,1,0,0:0:0:40:dou.wav
402,192,64672,128,0,65441:0:0:0:40:dou.wav
36,192,65441,1,2,0:0:0:0:
109,192,65441,1,0,0:0:0:70:Crash.wav
182,192,65826,1,10,0:0:0:0:
256,192,66211,1,2,0:0:0:0:
402,192,66595,1,10,0:0:0:0:
329,192,66980,1,2,0:0:0:0:
109,192,67172,1,0,0:0:0:30:HaiHat Open.wav
182,192,67365,1,10,0:0:0:0:
256,192,67749,1,2,0:0:0:0:
402,192,67941,1,0,0:0:0:30:HaiHat Open.wav
329,192,68134,1,10,0:0:0:0:
475,192,68518,1,2,0:0:0:0:
329,192,68903,1,10,0:0:0:0:
182,192,69288,1,2,0:0:0:0:
36,192,69672,1,10,0:0:0:0:
402,192,70057,1,2,0:0:0:0:
329,192,70249,1,0,0:0:0:30:HaiHat Open.wav
256,192,70441,1,10,0:0:0:0:
109,192,70826,1,2,0:0:0:0:
182,192,71018,1,0,0:0:0:30:HaiHat Open.wav
256,192,71211,1,10,0:0:0:0:
402,192,71595,128,2,71980:0:0:0:0:
475,192,71595,1,0,0:0:0:70:Crash.wav
182,192,71980,1,10,0:0:0:0:
329,192,72365,128,2,72749:0:0:0:0:
36,192,72749,1,10,0:0:0:0:
109,192,73134,128,2,73518:0:0:0:0:
256,192,73518,1,10,0:0:0:0:
329,192,73903,1,2,0:0:0:0:
402,192,73903,128,0,74288:0:0:0:70:Crash.wav
182,192,74288,1,10,0:0:0:0:
36,192,74672,1,2,0:0:0:0:
109,192,74672,1,0,0:0:0:70:Crash.wav
182,192,75057,1,10,0:0:0:0:
329,192,75441,1,2,0:0:0:0:
475,192,75826,1,10,0:0:0:0:
109,192,76211,1,2,0:0:0:0:
402,192,76211,1,0,0:0:0:70:Crash.wav
329,192,76403,1,10,0:0:0:0:
256,192,76595,1,10,0:0:0:0:
109,192,76980,1,10,0:0:0:0:
182,192,77172,1,10,0:0:0:0:
256,192,77365,1,10,0:0:0:0:
402,192,77749,1,2,0:0:0:0:
475,192,77749,1,0,0:0:0:70:Crash.wav
329,192,78134,1,10,0:0:0:0:
256,192,78518,1,2,0:0:0:0:
109,192,78903,1,10,0:0:0:0:
182,192,79288,1,2,0:0:0:0:
329,192,79480,1,0,0:0:0:30:HaiHat Open.wav
402,192,79672,1,10,0:0:0:0:
329,192,80057,1,2,0:0:0:0:
109,192,80249,1,0,0:0:0:30:HaiHat Open.wav
36,192,80441,1,10,0:0:0:0:
182,192,80826,1,2,0:0:0:0:
329,192,81211,1,10,0:0:0:0:
475,192,81595,1,2,0:0:0:0:
109,192,81980,1,10,0:0:0:0:
402,192,82365,1,2,0:0:0:0:
329,192,82557,1,0,0:0:0:30:HaiHat Open.wav
256,192,82749,1,10,0:0:0:0:
109,192,83134,1,2,0:0:0:0:
182,192,83326,1,0,0:0:0:30:HaiHat Open.wav
402,192,83518,1,12,0:0:0:0:
475,192,83518,1,2,0:0:0:0:
36,192,83903,1,2,0:0:0:0:
109,192,83903,128,0,84288:0:0:0:70:Crash.wav
402,192,84288,1,10,0:0:0:0:
182,192,84672,128,2,85057:0:0:0:0:
329,192,85057,1,10,0:0:0:0:
256,192,85441,128,2,85826:0:0:0:0:
36,192,85826,1,10,0:0:0:0:
402,192,86211,128,2,86595:0:0:0:0:
109,192,86595,1,10,0:0:0:0:
182,192,86980,1,2,0:0:0:0:
256,192,86980,1,0,0:0:0:70:Crash.wav
329,192,87365,1,2,0:0:0:0:
109,192,87749,1,6,0:0:0:0:
402,192,87749,1,0,0:0:0:70:Crash.wav
36,192,88518,128,2,93134:0:0:0:0:
475,192,88518,1,0,0:0:0:70:Crash.wav
