osu file format v14

[General]
AudioFilename: audio.mp3
AudioLeadIn: 0
PreviewTime: 64381
Countdown: 0
SampleSet: Soft
StackLeniency: 0.7
Mode: 0
LetterboxInBreaks: 0
WidescreenStoryboard: 0

[Editor]
Bookmarks: 3914,10068,20838,26991,39299,51607,65453,76222,77761,88530
DistanceSpacing: 0.9
BeatDivisor: 4
GridSize: 32
TimelineZoom: 1.900003

[Metadata]
Title:Fuantei na Kamisama (TV Size)
TitleUnicode:不安定な神様 (TV Size)
Artist:Suara
ArtistUnicode:Suara
Creator:Xahlt
Version:Normal
Source:うたわれるもの 偽りの仮面
Tags:hakashii Yuhdj Utawarerumono Itsuwari no Kamen Season 2 The False Faces 巽明子 下川直哉 Naoya Shimokawa 小林俊太郎 Shuntarou Kobayashi Japanese Pop j-pop jpop Anime Opening Short Version
BeatmapID:2399071
BeatmapSetID:1148518

[Difficulty]
HPDrainRate:4
CircleSize:3.3
OverallDifficulty:4
ApproachRate:5
SliderMultiplier:1.2
SliderTickRate:1

[Events]
//Background and Video events
0,0,"bg.jpg",0,0
//Break Periods
2,15061,16546
2,18138,19623
//Storyboard Layer 0 (Background)
//Storyboard Layer 1 (Fail)
//Storyboard Layer 2 (Pass)
//Storyboard Layer 3 (Foreground)
//Storyboard Layer 4 (Overlay)
//Storyboard Sound Samples

[TimingPoints]
3900,384.615384615385,4,2,0,45,1,0
3900,-100,4,2,0,45,0,0
10053,-100,4,2,0,50,0,0
20823,-100,4,2,0,50,0,0
26976,-111.111111111111,4,2,0,40,0,0
39284,-100,4,2,0,50,0,0
51592,-100,4,2,0,55,0,0
65438,-90.9090909090909,4,2,0,60,0,1
76207,-90.9090909090909,4,2,0,50,0,0
77746,-90.9090909090909,4,2,0,60,0,1
88515,-100,4,2,0,60,0,0
91592,-100,4,2,0,50,0,0
91976,-100,4,2,0,40,0,0
92361,-100,4,2,0,30,0,0
92746,-100,4,2,0,20,0,0
93130,-100,4,2,0,5,0,0

[Colours]
Combo1 : 239,159,196
Combo2 : 235,169,173
Combo3 : 170,84,119
Combo4 : 241,86,84

[HitObjects]
15,109,3900,6,0,P|18:35|117:51,1,180,4|2,3:0|0:0,0:0:0:0:
138,78,4669,2,0,L|269:49,1,120,2|2,0:0|0:0,0:0:0:0:
307,36,5246,1,2,0:0:0:0:
479,166,6015,2,0,L|487:95,2,60,2|2|2,0:0|0:0|0:0,0:0:0:0:
437,200,6592,2,0,L|446:260,1,60,2|2,0:0|0:0,0:0:0:0:
423,308,6976,5,4,3:0:0:0:
310,191,7553,2,0,L|321:113,2,60,2|2|2,0:0|0:0|0:0,0:0:0:0:
297,243,8130,2,0,P|271:231|237:224,1,60,2|2,0:0|0:0,0:0:0:0:
208,267,8515,2,0,P|85:333|118:153,1,360,2|0,3:2|0:0,0:0:0:0:
164,130,10053,6,0,L|144:34,2,90,4|2|2,3:1|0:0|0:2,0:0:0:0:
204,165,10823,2,0,P|247:138|322:135,1,120,2|0,3:2|3:2,0:0:0:0:
421,113,11592,2,0,P|398:48|333:47,1,120,2|0,3:2|3:2,0:0:0:0:
303,44,12169,1,2,0:2:0:0:
303,44,12361,1,2,3:2:0:0:
225,118,12746,1,8,3:0:0:0:
129,68,13130,6,0,P|84:51|24:49,2,90,6|2|2,3:2|0:0|0:2,0:0:0:0:
135,121,13899,2,0,L|117:206,1,60,2|2,3:2|1:2,0:0:0:0:
86,220,14284,2,0,L|104:305,1,60,2|10,3:2|1:2,0:0:0:0:
115,335,14669,5,4,3:0:0:0:
115,335,14861,1,4,3:0:0:0:
482,364,17746,5,4,0:3:0:0:
482,364,17938,1,4,0:3:0:0:
497,81,20823,6,0,P|455:28|396:53,1,120,4|0,3:1|1:0,0:0:0:0:
340,120,21592,2,0,L|211:101,1,120,0|2,3:2|1:3,0:0:0:0:
200,58,22169,1,2,0:3:0:0:
200,58,22361,2,0,L|71:77,1,120,0|0,3:2|1:0,0:0:0:0:
11,158,23130,1,0,3:2:0:0:
87,234,23515,2,0,P|85:274|77:310,1,60,6|2,1:2|0:3,0:0:0:0:
45,333,23899,6,0,P|120:332|163:372,1,120,4|0,3:1|1:0,0:0:0:0:
259,382,24669,2,0,L|400:365,1,120,0|2,3:2|1:2,0:0:0:0:
433,355,25246,1,2,0:3:0:0:
433,355,25438,2,0,L|413:227,1,120,0|0,3:2|1:0,0:0:0:0:
336,161,26207,2,0,L|351:76,2,60,2|2|2,3:0|3:0|3:0,0:0:0:0:
311,210,26784,1,2,3:0:0:0:
311,210,26976,6,0,B|187:198|232:290|104:276,1,215.999993408203,4|2,3:0|0:0,0:0:0:0:
39,215,28130,1,2,0:0:0:0:
83,128,28515,2,0,P|75:76|48:5,2,107.999996704102,0|2|0,3:0|0:0|3:0,0:0:0:0:
253,34,30053,6,0,P|325:13|324:140,1,215.999993408203,6|2,3:2|0:0,0:0:0:0:
318,215,31207,2,0,P|350:206|391:202,1,53.9999983520508,2|2,0:0|0:0,0:0:0:0:
418,210,31592,2,0,P|408:273|405:341,2,107.999996704102,0|2|0,3:3|0:0|3:3,0:0:0:0:
490,145,32746,1,2,0:0:0:0:
483,48,33130,6,0,P|397:31|255:31,1,215.999993408203,6|2,3:2|0:0,0:0:0:0:
194,92,34284,1,2,0:0:0:0:
150,178,34669,2,0,P|200:194|249:174,2,107.999996704102,0|2|0,3:3|0:0|3:3,0:0:0:0:
54,193,35823,2,0,L|62:264,1,53.9999983520508,2|2,0:0|0:0,0:0:0:0:
70,293,36207,6,0,L|187:283,1,107.999996704102,6|2,3:2|0:0,0:0:0:0:
257,338,36976,2,0,L|364:328,1,107.999996704102,2|2,0:0|0:0,0:0:0:0:
459,348,37746,2,0,P|492:259|399:244,1,215.999993408203,0|0,3:3|3:0,0:0:0:0:
188,294,39284,6,0,P|182:236|146:161,1,120,4|0,3:1|3:2,0:0:0:0:
223,93,40053,2,0,P|275:56|338:71,1,120,2|2,3:2|1:2,0:0:0:0:
371,105,40630,1,2,3:2:0:0:
371,105,40823,2,0,L|497:84,1,120,6|2,3:2|3:2,0:0:0:0:
448,185,41592,1,6,0:2:0:0:
500,343,42169,1,2,1:2:0:0:
500,343,42361,6,0,P|447:325|409:370,1,120,4|0,3:1|3:2,0:0:0:0:
301,365,43130,2,0,L|153:343,1,120,2|2,3:2|1:2,0:0:0:0:
150,310,43707,1,2,3:2:0:0:
150,310,43899,2,0,P|90:327|2:332,1,120,6|2,3:2|1:2,0:0:0:0:
13,226,44669,2,0,P|-1:156|51:116,1,120,6|2,3:2|1:2,0:0:0:0:
81,149,45246,1,2,3:2:0:0:
81,149,45438,6,0,L|66:18,1,120,4|0,3:1|3:2,0:0:0:0:
172,53,46207,2,0,P|219:57|229:136,1,120,2|0,1:2|3:2,0:0:0:0:
197,151,46784,1,2,1:2:0:0:
197,151,46976,2,0,L|183:270,1,120,6|2,3:2|3:2,0:0:0:0:
225,369,47746,1,6,3:2:0:0:
319,317,48130,2,0,L|388:327,1,60,2|2,3:2|1:2,0:0:0:0:
401,374,48515,6,0,P|424:342|516:335,1,120,4|2,3:1|3:2,0:0:0:0:
492,219,49284,2,0,P|472:175|383:191,1,120,2|2,1:2|1:2,0:0:0:0:
362,197,49861,1,2,3:2:0:0:
362,197,50053,2,0,L|372:123,1,60,8|4,3:0|3:0,0:0:0:0:
378,83,50438,1,0,1:2:0:0:
276,45,50823,1,4,3:0:0:0:
193,114,51207,1,0,1:2:0:0:
115,38,51592,6,0,P|54:13|-7:29,1,120,4|0,3:1|3:2,0:0:0:0:
1,131,52361,2,0,L|12:209,2,60,0|2|2,3:2|3:2|1:2,0:0:0:0:
107,147,53130,2,0,L|125:275,1,120,4|0,3:0|3:2,0:0:0:0:
137,323,53707,1,0,3:0:0:0:
137,323,53899,2,0,P|194:297|275:287,1,120,0|2,1:2|1:2,0:0:0:0:
330,213,54669,6,0,P|309:155|258:131,1,120,6|0,3:2|3:2,0:0:0:0:
197,41,55438,2,0,P|166:40|114:22,2,60,0|2|2,3:2|3:2|1:2,0:0:0:0:
250,22,56015,1,2,3:2:0:0:
250,22,56207,2,0,P|307:2|389:15,1,120,8|0,3:0|3:2,0:0:0:0:
457,63,56976,2,0,L|443:191,1,120,2|2,1:2|1:2,0:0:0:0:
404,218,57553,1,2,3:2:0:0:
404,218,57746,6,0,L|423:343,1,120,6|0,3:2|3:2,0:0:0:0:
371,356,58323,2,0,P|327:355|293:279,1,120,2|0,3:2|3:0,0:0:0:0:
299,242,58899,1,0,1:0:0:0:
238,152,59284,6,0,P|174:140|141:196,1,120,6|0,3:2|3:2,0:0:0:0:
160,228,59861,2,0,L|144:351,1,120,2|0,3:2|3:0,0:0:0:0:
98,374,60438,1,0,1:0:0:0:
23,296,60823,2,0,L|11:153,1,120,6|2,3:2|3:2,0:0:0:0:
88,98,61592,2,0,L|81:-3,2,90,2|2|2,3:2|3:2|3:2,0:0:0:0:
135,124,62361,6,0,P|169:83|249:91,1,120,6|0,3:2|3:2,0:0:0:0:
341,59,63130,1,2,3:2:0:0:
341,59,63323,2,0,L|327:-5,2,60,2|2|2,3:0|3:0|3:0,0:0:0:0:
386,87,63899,2,0,L|376:222,1,120,4|2,3:0|1:3,0:0:0:0:
325,301,64669,2,0,P|308:278|279:257,1,60,2|2,1:2|3:0,0:0:0:0:
276,205,65053,2,0,P|247:200|212:206,1,60,2|2,3:0|3:0,0:0:0:0:
157,212,65438,6,0,P|182:282|194:341,1,132.00000402832,4|0,3:1|1:2,0:0:0:0:
243,380,66015,1,2,3:2:0:0:
243,380,66207,2,0,P|280:383|325:365,1,66.0000020141602,2|0,3:2|3:2,0:0:0:0:
344,329,66592,1,2,1:2:0:0:
344,329,66784,2,0,L|489:324,1,132.00000402832,2|2,3:2|3:0,0:0:0:0:
488,206,67553,1,2,3:2:0:0:
448,161,67746,2,0,L|459:92,2,66.0000020141602,2|2|2,1:2|3:2|1:2,0:0:0:0:
350,229,68515,6,0,P|285:207|234:236,1,132.00000402832,6|0,3:2|1:2,0:0:0:0:
207,292,69092,1,2,3:2:0:0:
207,292,69284,2,0,P|127:286|108:232,1,132.00000402832,2|2,1:2|1:2,0:0:0:0:
151,205,69861,2,0,L|131:65,1,132.00000402832,2|2,3:2|3:2,0:0:0:0:
177,35,70438,1,0,1:2:0:0:
283,88,70823,2,0,L|370:78,1,66.0000020141602,0|0,1:2|3:0,0:0:0:0:
371,25,71207,2,0,L|458:18,1,66.0000020141602,0|0,1:2|1:0,0:0:0:0:
483,56,71592,6,0,P|462:126|457:207,1,132.00000402832,4|0,3:1|1:2,0:0:0:0:
407,216,72169,1,2,3:2:0:0:
407,216,72361,2,0,P|428:286|433:367,1,132.00000402832,2|0,3:2|1:2,0:0:0:0:
314,350,73130,6,0,P|282:307|191:321,1,132.00000402832,4|0,3:1|1:2,0:0:0:0:
165,347,73707,1,2,3:2:0:0:
165,347,73899,2,0,L|26:331,1,132.00000402832,2|0,1:2|1:2,0:0:0:0:
8,215,74669,6,0,L|156:199,1,132.00000402832,6|0,3:2|1:2,0:0:0:0:
190,169,75246,1,2,1:2:0:0:
190,169,75438,2,0,L|285:182,1,66.0000020141602,2|0,3:2|3:0,0:0:0:0:
313,189,75823,1,0,1:2:0:0:
404,114,76207,6,0,L|484:125,2,66.0000020141602,4|2|2,3:2|1:3|1:3,0:0:0:0:
347,9,76976,2,0,L|277:16,1,66.0000020141602,0|2,1:2|3:2,0:0:0:0:
230,47,77361,2,0,L|158:35,1,66.0000020141602,2|10,1:3|3:0,0:0:0:0:
105,31,77746,6,0,P|131:102|144:159,1,132.00000402832,4|0,3:1|1:2,0:0:0:0:
199,190,78323,1,2,3:2:0:0:
199,190,78515,2,0,P|180:229|169:270,1,66.0000020141602,2|0,3:2|3:0,0:0:0:0:
164,312,78900,1,2,1:2:0:0:
164,312,79092,2,0,P|100:329|53:270,1,132.00000402832,2|2,3:2|3:0,0:0:0:0:
16,175,79861,1,2,3:2:0:0:
56,132,80053,2,0,L|42:56,2,66.0000020141602,2|2|2,1:2|3:2|1:2,0:0:0:0:
137,219,80823,6,0,P|178:171|256:176,1,132.00000402832,6|0,3:2|1:2,0:0:0:0:
300,199,81399,1,2,3:2:0:0:
300,199,81592,2,0,L|292:271,1,66.0000020141602,2|2,1:2|3:2,0:0:0:0:
245,300,81976,2,0,L|258:372,1,66.0000020141602,2|2,1:2|3:2,0:0:0:0:
314,379,82361,1,4,3:3:0:0:
424,336,82746,1,0,1:2:0:0:
399,219,83130,2,0,L|409:146,1,66.0000020141602,0|0,1:2|3:0,0:0:0:0:
461,126,83515,2,0,L|451:53,1,66.0000020141602,0|2,1:2|3:2,0:0:0:0:
410,18,83899,6,0,L|528:8,2,99.0000030212403,4|2|2,3:1|0:2|3:2,0:0:0:0:
362,55,84669,2,0,L|212:36,1,132.00000402832,2|0,1:2|1:2,0:0:0:0:
137,111,85438,6,0,B|118:66|118:66|154:18,2,99.0000030212403,4|2|2,3:1|0:2|3:2,0:0:0:0:
167,162,86207,1,2,1:2:0:0:
92,255,86592,1,2,1:2:0:0:
164,348,86976,6,0,L|50:341,2,99.0000030212403,4|2|4,3:1|0:2|3:0,0:0:0:0:
210,309,87746,2,0,P|236:363|318:364,1,132.00000402832,6|2,1:2|3:0,0:0:0:0:
300,264,88515,5,4,3:1:0:0:
256,192,88707,12,0,93130,0:0:0:0:
