osu file format v14

[General]
AudioFilename: audio.mp3
AudioLeadIn: 0
PreviewTime: 64381
Countdown: 0
SampleSet: Soft
StackLeniency: 0.7
Mode: 0
LetterboxInBreaks: 0
WidescreenStoryboard: 0

[Editor]
Bookmarks: 3914,10068,20838,26991,39299,51607,65453,76222,77761,88530
DistanceSpacing: 2.2
BeatDivisor: 4
GridSize: 32
TimelineZoom: 3.500002

[Metadata]
Title:Fuantei na Kamisama (TV Size)
TitleUnicode:不安定な神様 (TV Size)
Artist:Suara
ArtistUnicode:Suara
Creator:Xahlt
Version:Insane
Source:うたわれるもの 偽りの仮面
Tags:hakashii Yuhdj Utawarerumono Itsuwari no Kamen Season 2 The False Faces 巽明子 下川直哉 Naoya Shimokawa 小林俊太郎 Shuntarou Kobayashi Japanese Pop j-pop jpop Anime Opening Short Version
BeatmapID:2397866
BeatmapSetID:1148518

[Difficulty]
HPDrainRate:5
CircleSize:3.8
OverallDifficulty:8
ApproachRate:8.8
SliderMultiplier:1.7
SliderTickRate:1

[Events]
//Background and Video events
0,0,"bg.jpg",0,0
//Break Periods
2,15061,17117
2,18138,19617
//Storyboard Layer 0 (Background)
//Storyboard Layer 1 (Fail)
//Storyboard Layer 2 (Pass)
//Storyboard Layer 3 (Foreground)
//Storyboard Layer 4 (Overlay)
//Storyboard Sound Samples

[TimingPoints]
3900,384.615384615385,4,2,0,45,1,0
3900,-125,4,2,0,45,0,0
10053,-111.111111111111,4,2,0,50,0,0
20823,-100,4,2,0,50,0,0
26976,-200,4,2,0,40,0,0
39284,-100,4,2,0,50,0,0
41111,-100,4,2,0,5,0,0
41207,-100,4,2,0,50,0,0
41495,-100,4,2,0,5,0,0
41592,-100,4,2,0,50,0,0
41880,-100,4,2,0,5,0,0
41976,-100,4,2,0,50,0,0
44187,-100,4,2,0,5,0,0
44284,-100,4,2,0,50,0,0
44572,-100,4,2,0,5,0,0
44669,-100,4,2,0,50,0,0
44957,-100,4,2,0,5,0,0
45053,-100,4,2,0,50,0,0
47264,-100,4,2,0,5,0,0
47361,-100,4,2,0,50,0,0
47649,-100,4,2,0,5,0,0
47746,-100,4,2,0,50,0,0
48034,-100,4,2,0,5,0,0
48130,-100,4,2,0,50,0,0
48803,-100,4,2,0,5,0,0
48899,-100,4,2,0,50,0,0
50726,-100,4,2,0,5,0,0
50823,-100,4,2,0,50,0,0
51592,-100,4,2,0,55,0,0
54572,-100,4,2,0,5,0,0
54669,-100,4,2,0,55,0,0
58803,-100,4,2,0,5,0,0
58899,-100,4,2,0,55,0,0
62073,-100,4,2,0,5,0,0
62169,-100,4,2,0,55,0,0
65438,-83.3333333333333,4,2,0,60,0,1
65726,-83.3333333333333,4,2,0,5,0,1
65823,-83.3333333333333,4,2,0,60,0,1
68803,-83.3333333333333,4,2,0,5,0,1
68899,-83.3333333333333,4,2,0,60,0,1
71880,-83.3333333333333,4,2,0,5,0,1
71976,-83.3333333333333,4,2,0,60,0,1
73418,-83.3333333333333,4,2,0,5,0,1
73515,-83.3333333333333,4,2,0,60,0,1
75918,-83.3333333333333,4,2,0,5,0,1
76015,-83.3333333333333,4,2,0,60,0,1
76207,-83.3333333333333,4,2,0,50,0,0
77746,-83.3333333333333,4,2,0,60,0,1
78034,-83.3333333333333,4,2,0,5,0,1
78130,-83.3333333333333,4,2,0,60,0,1
81111,-83.3333333333333,4,2,0,5,0,1
81207,-83.3333333333333,4,2,0,60,0,1
82649,-83.3333333333333,4,2,0,5,0,1
82746,-83.3333333333333,4,2,0,60,0,1
83803,-83.3333333333333,4,2,0,5,0,1
83899,-83.3333333333333,4,2,0,60,0,1
86495,-83.3333333333333,4,2,0,5,0,1
86592,-83.3333333333333,4,2,0,60,0,1
86976,-83.3333333333333,4,2,0,60,0,1
88515,-100,4,2,0,60,0,0
91592,-100,4,2,0,50,0,0
91976,-100,4,2,0,40,0,0
92361,-100,4,2,0,30,0,0
92746,-100,4,2,0,20,0,0
93130,-100,4,2,0,5,0,0

[Colours]
Combo1 : 239,159,196
Combo2 : 235,169,173
Combo3 : 170,84,119
Combo4 : 241,86,84

[HitObjects]
91,37,3900,6,0,P|77:21|52:112,1,204,4|2,3:0|0:0,0:0:0:0:
120,112,4669,2,0,L|101:259,1,136,2|2,0:0|0:0,0:0:0:0:
149,314,5246,1,2,0:0:0:0:
284,247,5438,6,0,L|203:240,1,68,0|0,3:0|0:0,0:0:0:0:
149,314,5823,1,0,0:0:0:0:
243,327,6015,1,2,0:0:0:0:
243,327,6207,2,0,L|310:332,1,68,2|2,0:0|0:0,0:0:0:0:
351,252,6592,2,0,L|283:246,1,68,2|2,0:0|0:0,0:0:0:0:
350,122,6976,6,0,B|271:116|271:116|227:132|227:132|145:122,1,204,4|2,3:0|0:0,0:0:0:0:
87,70,7746,1,2,0:0:0:0:
99,59,7938,1,2,0:0:0:0:
141,132,8130,1,2,0:0:0:0:
62,172,8323,1,2,0:0:0:0:
133,298,8515,6,0,B|216:296|176:248|273:243,1,136,2|0,3:2|0:0,0:0:0:0:
101,295,9092,2,0,P|93:328|97:361,1,68
140,221,9476,2,0,P|143:187|136:154,1,68
58,195,9861,1,2,0:0:0:0:
196,97,10053,6,0,P|157:69|71:64,1,114.749996498108,4|2,3:1|0:0,0:0:0:0:
65,64,10438,1,2,3:2:0:0:
204,0,10630,1,2,0:2:0:0:
268,162,10823,2,0,P|277:117|297:70,1,76.4999976654053,2|0,3:2|0:0,0:0:0:0:
146,177,11207,2,0,P|158:212|165:250,1,76.4999976654053,0|0,3:2|0:0,0:0:0:0:
290,293,11592,6,0,B|225:298|253:344|160:342,1,114.749996498108,2|2,3:2|0:0,0:0:0:0:
162,342,11976,1,0,3:2:0:0:
309,383,12169,1,2,0:2:0:0:
360,214,12361,2,0,P|376:250|385:295,1,76.4999976654053,2|0,3:2|0:0,0:0:0:0:
255,148,12746,2,0,P|239:184|230:229,1,76.4999976654053,8|0,3:0|0:0,0:0:0:0:
408,117,13130,6,0,P|346:110|350:40,1,114.749996498108,6|2,3:2|0:0,0:0:0:0:
344,41,13515,1,0,3:2:0:0:
233,71,13707,1,2,0:2:0:0:
353,20,13899,1,2,3:2:0:0:
288,186,14092,1,2,1:2:0:0:
288,186,14188,1,0,1:2:0:0:
288,186,14284,2,0,L|275:122,1,38.2499988327027,2|0,3:2|3:2,0:0:0:0:
160,27,14476,2,0,L|152:64,1,38.2499988327027,10|8,1:2|1:2,0:0:0:0:
152,232,14669,5,4,3:0:0:0:
228,82,14861,1,4,3:0:0:0:
31,42,17746,5,4,0:3:0:0:
88,199,17938,1,4,0:3:0:0:
476,161,20246,5,4,3:0:0:0:
385,51,20438,1,0,1:2:0:0:
385,51,20534,1,0,1:2:0:0:
385,51,20630,1,4,3:0:0:0:
347,277,20823,6,0,P|317:255|241:235,1,85,4|2,3:1|3:3,0:0:0:0:
244,234,21111,1,0,3:3:0:0:
244,234,21207,1,0,1:0:0:0:
357,184,21399,1,2,0:3:0:0:
269,329,21592,1,0,3:2:0:0:
250,103,21784,1,2,3:3:0:0:
256,123,21880,1,0,3:0:0:0:
260,143,21976,1,2,1:3:0:0:
139,95,22169,2,0,L|149:-9,1,85,2|0,0:3|3:2,0:0:0:0:
43,141,22553,6,0,L|52:203,2,42.5,2|0|0,3:3|3:0|1:0,0:0:0:0:
158,204,22938,2,0,L|148:266,2,42.5,2|0|0,3:3|3:0|3:2,0:0:0:0:
111,375,23323,1,2,3:3:0:0:
70,376,23419,1,0,3:0:0:0:
45,343,23515,2,0,L|67:237,1,85,6|2,1:2|0:3,0:0:0:0:
244,240,23899,6,0,P|230:206|181:197,1,85,4|2,3:1|3:3,0:0:0:0:
158,204,24188,1,0,3:0:0:0:
158,204,24284,1,0,1:0:0:0:
134,354,24476,1,2,0:3:0:0:
238,271,24669,1,0,3:2:0:0:
372,379,24861,1,2,3:3:0:0:
350,376,24957,1,0,3:0:0:0:
328,373,25053,6,0,L|254:364,1,42.5,2|0,1:2|0:0,0:0:0:0:
238,271,25246,2,0,L|280:276,1,42.5,2|0,0:3|0:0,0:0:0:0:
378,289,25438,1,0,3:2:0:0:
302,181,25630,1,2,3:3:0:0:
280,178,25726,1,0,3:0:0:0:
258,175,25822,2,0,L|149:164,1,85,0|2,1:0|3:3,0:0:0:0:
238,271,26207,5,2,3:0:0:0:
112,117,26399,1,2,3:0:0:0:
134,309,26592,1,2,3:0:0:0:
204,61,26784,1,2,3:0:0:0:
76,226,26976,6,0,B|77:205|66:164|66:164|96:143|112:116|112:116|58:143|-15:106|-6:12|58:-6,1,340,4|0,3:0|3:0,0:0:0:0:
140,18,28899,1,2,0:0:0:0:
111,116,29284,1,0,3:0:0:0:
429,317,30053,6,0,P|451:284|363:283,1,170,6|2,3:2|0:0,0:0:0:0:
333,369,31207,1,2,0:0:0:0:
333,369,31399,1,2,0:0:0:0:
333,369,31592,2,0,P|291:367|243:381,1,85,0|2,3:3|0:0,0:0:0:0:
181,255,32361,2,0,P|221:265|264:263,1,85,0|2,3:3|0:0,0:0:0:0:
101,292,33130,6,0,B|76:172|186:206|131:64|131:64|121:132|87:161,1,340,6|0,3:2|3:3,0:0:0:0:
16,74,35053,1,2,0:0:0:0:
21,188,35438,1,0,3:3:0:0:
132,64,35823,2,0,L|133:20,1,42.5,2|2,0:0|0:0,0:0:0:0:
227,14,36207,6,0,L|226:104,1,85,6|2,3:2|0:0,0:0:0:0:
331,13,36976,2,0,L|330:103,1,85,2|2,0:0|0:0,0:0:0:0:
435,12,37746,2,0,L|434:193,1,170,0|0,3:3|3:0,0:0:0:0:
436,280,39284,6,0,B|346:283|381:205|287:209,1,170,4|0,3:1|3:2,0:0:0:0:
434,181,39861,1,2,1:2:0:0:
254,302,40053,1,2,3:2:0:0:
274,301,40149,1,0,3:2:0:0:
294,300,40246,1,0,3:2:0:0:
459,295,40438,1,2,1:2:0:0:
274,181,40630,1,2,3:2:0:0:
182,370,40823,6,0,P|153:324|184:244,1,127.5,6|0,3:2|0:0,0:0:0:0:
199,249,41207,2,0,P|146:281|86:265,1,127.5,2|0,3:2|0:0,0:0:0:0:
68,247,41592,2,0,P|65:193|132:139,1,127.5,6|0,0:2|0:0,0:0:0:0:
138,153,41976,1,0,3:2:0:0:
172,13,42169,1,2,1:2:0:0:
172,13,42265,1,0,1:2:0:0:
172,13,42361,6,0,B|120:1|120:1|65:30|65:30|-3:14,1,170,4|0,3:1|3:2,0:0:0:0:
138,94,42938,1,2,1:2:0:0:
252,19,43130,2,0,L|347:8,1,85,2|0,3:2|3:0,0:0:0:0:
180,89,43515,2,0,L|113:96,1,42.5,2|0,1:2|0:0,0:0:0:0:
244,171,43707,2,0,L|177:178,1,42.5,2|0,3:2|0:0,0:0:0:0:
285,100,43899,6,0,B|336:96|336:96|363:121|363:121|424:117,1,127.5,6|0,3:2|0:0,0:0:0:0:
435,55,44284,2,0,B|412:101|412:101|377:112|377:112|350:166,1,127.5,2|0,1:2|0:0,0:0:0:0:
417,192,44669,2,0,B|388:149|388:149|396:113|396:113|362:63,1,127.5,6|0,3:2|0:0,0:0:0:0:
336,9,45053,1,2,1:2:0:0:
481,133,45246,1,2,3:2:0:0:
359,305,45438,6,0,P|342:234|437:253,1,170,4|0,3:1|3:2,0:0:0:0:
459,314,46015,1,2,1:2:0:0:
481,133,46207,1,2,1:2:0:0:
359,305,46399,1,0,3:0:0:0:
359,305,46496,1,0,3:2:0:0:
359,305,46592,1,0,3:2:0:0:
512,216,46784,1,2,1:2:0:0:
358,78,46976,6,0,P|319:36|231:46,1,127.5,6|0,3:2|0:0,0:0:0:0:
244,53,47361,2,0,P|274:106|259:167,1,127.5,2|0,3:2|0:0,0:0:0:0:
244,184,47746,2,0,P|183:199|129:169,1,127.5,6|0,3:2|0:0,0:0:0:0:
151,82,48130,1,2,3:2:0:0:
57,215,48323,1,2,1:2:0:0:
250,327,48515,6,0,B|177:327|210:272|133:274,1,127.5,4|0,3:1|0:0,0:0:0:0:
114,293,48899,2,0,P|133:341|132:382,1,85,2|0,3:2|0:0,0:0:0:0:
253,211,49284,2,0,P|255:168|272:130,1,85,2|0,1:2|0:0,0:0:0:0:
349,208,49669,1,2,1:2:0:0:
218,338,49861,1,2,3:2:0:0:
278,110,50053,5,8,3:0:0:0:
411,270,50246,1,4,3:0:0:0:
411,270,50342,1,4,3:0:0:0:
411,270,50438,2,0,P|433:219|401:141,1,127.5,0|0,1:2|0:0,0:0:0:0:
398,122,50823,2,0,P|445:125|482:93,1,85,4|8,3:0|3:0,0:0:0:0:
349,208,51207,2,0,P|313:185|272:190,1,85,0|0,1:2|3:0,0:0:0:0:
91,329,51592,6,0,B|189:340|154:272|247:276,1,170,4|0,3:1|3:2,0:0:0:0:
106,250,52169,1,0,3:0:0:0:
106,250,52265,1,0,3:0:0:0:
106,250,52361,2,0,P|102:217|77:159,1,85,0|2,3:2|3:2,0:0:0:0:
192,68,52746,2,0,P|175:107|169:148,1,85,2|2,1:2|3:2,0:0:0:0:
89,15,53130,6,0,P|66:2|78:89,1,170,4|0,3:0|3:2,0:0:0:0:
192,68,53707,1,0,3:0:0:0:
192,68,53803,1,0,3:0:0:0:
192,68,53899,2,0,P|258:55|313:51,1,85,0|0,1:2|3:0,0:0:0:0:
473,45,54284,2,0,P|424:45|349:3,1,127.5,2|0,1:2|0:0,0:0:0:0:
354,37,54669,6,0,B|360:106|360:106|390:130|390:130|395:221,1,170,6|0,3:2|3:2,0:0:0:0:
463,293,55246,1,0,3:0:0:0:
463,293,55342,1,0,3:0:0:0:
463,293,55438,2,0,L|483:194,1,85,0|2,3:2|3:2,0:0:0:0:
443,377,55823,1,2,1:2:0:0:
369,186,56015,1,2,3:2:0:0:
191,368,56207,6,0,P|148:321|273:319,1,255,8|0,3:0|3:0,0:0:0:0:
63,244,56976,2,0,P|91:198|133:173,1,85,2|0,1:2|3:0,0:0:0:0:
210,308,57361,1,2,1:2:0:0:
118,168,57553,1,2,3:2:0:0:
0,323,57746,6,0,P|26:358|134:353,2,127.5,6|2|2,3:2|0:2|3:2,0:0:0:0:
232,321,58515,2,0,P|258:286|366:291,1,127.5,0|0,3:2|0:0,0:0:0:0:
347,305,58899,2,0,P|344:254|365:200,1,85,0|2,1:0|3:2,0:0:0:0:
119,142,59284,6,0,B|188:141|167:184|247:178,2,127.5,6|2|2,3:2|0:2|3:2,0:0:0:0:
351,54,60053,2,0,B|282:53|303:96|223:90,1,127.5,0|0,3:2|3:0,0:0:0:0:
203,80,60438,2,0,P|211:38|228:0,1,85,0|2,1:0|3:2,0:0:0:0:
373,214,60823,6,0,P|364:172|347:133,1,85,6|0,3:2|0:0,0:0:0:0:
243,245,61207,2,0,P|282:249|317:295,1,85,2|0,3:2|0:0,0:0:0:0:
204,317,61592,6,0,P|173:341|116:333,1,85,2|0,3:2|3:0,0:0:0:0:
106,268,61880,2,0,P|69:254|47:200,1,85,2|0,3:2|0:0,0:0:0:0:
79,145,62169,1,2,3:2:0:0:
238,105,62361,6,0,B|136:104|192:24|66:31,1,170,6|0,3:2|3:2,0:0:0:0:
247,12,62938,1,0,3:0:0:0:
247,12,63034,1,0,3:0:0:0:
247,12,63130,5,2,3:2:0:0:
79,145,63323,1,2,3:0:0:0:
306,184,63515,1,2,3:0:0:0:
86,127,63707,1,2,3:0:0:0:
374,69,63899,5,4,3:0:0:0:
319,258,64092,1,4,3:0:0:0:
315,232,64188,1,0,3:0:0:0:
310,206,64284,1,2,1:3:0:0:
431,288,64476,5,0,3:0:0:0:
431,288,64572,1,0,3:0:0:0:
431,288,64668,1,2,1:2:0:0:
306,184,64861,1,2,3:0:0:0:
380,364,65053,1,2,3:0:0:0:
419,125,65246,1,2,3:0:0:0:
301,330,65438,6,0,B|209:326|258:258|143:261,1,152.999995330811,4|0,3:1|0:0,0:0:0:0:
83,318,65823,1,0,1:2:0:0:
150,142,66015,1,2,3:2:0:0:
150,142,66111,1,0,3:2:0:0:
150,142,66207,2,0,P|172:200|180:259,1,101.999996887207,2|0,3:2|3:2,0:0:0:0:
240,97,66592,1,2,1:2:0:0:
92,52,66784,2,0,P|43:53|-2:23,1,101.999996887207,2|8,3:2|3:0,0:0:0:0:
193,4,67169,1,2,3:0:0:0:
150,142,67361,1,0,1:2:0:0:
336,38,67553,5,2,3:2:0:0:
366,34,67649,1,0,3:0:0:0:
396,31,67746,1,2,1:2:0:0:
330,200,67938,1,2,3:2:0:0:
300,196,68034,1,0,3:0:0:0:
270,193,68129,1,2,1:2:0:0:
425,29,68323,1,2,3:2:0:0:
359,204,68515,6,0,B|358:271|358:271|378:298|378:298|378:373,1,152.999995330811,6|0,3:2|0:0,0:0:0:0:
462,384,68899,1,0,1:2:0:0:
296,328,69092,1,2,3:2:0:0:
296,328,69188,1,0,3:2:0:0:
296,328,69284,2,0,L|175:319,1,101.999996887207,2|0,1:2|3:0,0:0:0:0:
359,204,69669,1,2,1:2:0:0:
274,138,69861,6,0,P|298:107|389:118,1,101.999996887207,2|4,3:2|3:0,0:0:0:0:
510,184,70246,2,0,P|471:178|435:94,1,101.999996887207,2|0,3:2|1:2,0:0:0:0:
402,7,70630,1,2,3:0:0:0:
274,138,70823,2,0,P|247:126|195:125,1,50.9999984436036,0|0,1:2|3:2,0:0:0:0:
123,49,71015,2,0,P|126:78|151:123,1,50.9999984436036,0|0,3:0|3:0,0:0:0:0:
115,228,71207,2,0,P|138:210|165:166,1,50.9999984436036,0|0,1:2|3:2,0:0:0:0:
38,132,71399,1,0,1:0:0:0:
249,15,71592,6,0,L|426:5,1,152.999995330811,4|0,3:1|0:0,0:0:0:0:
508,82,71976,2,0,P|454:85|422:129,1,101.999996887207,0|2,1:2|3:2,0:0:0:0:
261,220,72361,1,2,3:2:0:0:
263,185,72457,1,0,3:0:0:0:
265,150,72553,1,0,3:0:0:0:
202,290,72746,1,0,1:2:0:0:
267,120,72938,1,0,3:0:0:0:
416,300,73130,6,0,P|474:289|459:200,1,152.999995330811,4|0,3:1|0:0,0:0:0:0:
394,287,73515,2,0,P|411:321|427:395,1,101.999996887207,0|2,1:2|3:2,0:0:0:0:
472,208,73899,2,0,P|476:164|509:87,1,101.999996887207,2|0,1:2|3:0,0:0:0:0:
370,193,74284,2,0,P|322:169|254:159,1,101.999996887207,0|2,1:2|1:2,0:0:0:0:
93,308,74669,6,0,B|186:313|143:254|261:253,1,152.999995330811,6|2,3:2|0:2,0:0:0:0:
232,343,75053,1,0,1:2:0:0:
101,221,75246,1,2,1:2:0:0:
101,221,75342,1,0,1:0:0:0:
101,221,75438,6,0,P|92:176|70:118,1,101.999996887207,2|0,3:2|3:0,0:0:0:0:
204,18,75726,2,0,P|186:65|175:115,1,101.999996887207,2|0,3:2|0:0,0:0:0:0:
203,213,76015,1,2,3:2:0:0:
215,223,76207,5,4,3:2:0:0:
53,117,76399,1,2,1:3:0:0:
173,298,76592,1,2,1:3:0:0:
243,138,76784,5,2,3:2:0:0:
59,305,76976,1,0,1:2:0:0:
144,72,77169,1,2,3:2:0:0:
184,280,77361,1,2,1:3:0:0:
232,289,77457,1,0,1:0:0:0:
259,330,77553,1,10,3:0:0:0:
286,371,77649,1,8,3:0:0:0:
335,381,77746,6,0,P|388:334|324:294,1,152.999995330811,4|0,3:1|0:0,0:0:0:0:
259,330,78130,1,0,1:2:0:0:
316,177,78323,1,2,3:2:0:0:
316,177,78419,1,0,3:2:0:0:
316,177,78515,2,0,P|338:230|349:289,1,101.999996887207,2|0,3:2|3:0,0:0:0:0:
211,165,78900,1,2,1:2:0:0:
364,95,79092,2,0,P|313:88|275:41,1,101.999996887207,2|8,3:2|3:0,0:0:0:0:
400,178,79476,1,2,3:0:0:0:
357,7,79669,1,0,1:2:0:0:
151,169,79861,5,2,3:2:0:0:
181,167,79957,1,0,3:0:0:0:
211,165,80053,1,2,1:2:0:0:
140,28,80246,1,2,3:2:0:0:
110,26,80342,1,0,3:0:0:0:
80,24,80438,1,2,1:2:0:0:
240,164,80630,1,2,3:2:0:0:
101,289,80823,6,0,B|100:228|100:228|82:205|82:205|82:142,1,152.999995330811,6|0,3:2|0:0,0:0:0:0:
9,220,81207,1,0,1:2:0:0:
179,335,81399,1,2,3:2:0:0:
179,335,81496,1,0,3:0:0:0:
179,335,81592,2,0,L|179:211,1,101.999996887207,2|2,1:2|3:2,0:0:0:0:
101,374,81976,1,2,1:2:0:0:
262,288,82169,1,2,3:2:0:0:
82,129,82361,6,0,B|166:134|133:78|216:71,1,152.999995330811,4|0,3:3|0:0,0:0:0:0:
312,43,82746,1,0,1:2:0:0:
221,160,82938,1,0,3:0:0:0:
334,15,83130,2,0,P|303:6|254:2,1,50.9999984436036,0|0,1:2|1:2,0:0:0:0:
147,68,83323,2,0,P|176:57|225:51,1,50.9999984436036,0|0,3:0|3:0,0:0:0:0:
308,146,83515,2,0,P|289:91|374:87,1,152.999995330811,0|0,1:2|0:0,0:0:0:0:
311,229,83899,6,0,B|225:227|256:168|166:170,1,152.999995330811,4|2,3:1|0:2,0:0:0:0:
177,258,84284,1,0,1:2:0:0:
308,146,84476,1,2,3:2:0:0:
304,368,84669,2,0,P|318:315|292:260,1,101.999996887207,2|0,1:2|3:0,0:0:0:0:
426,118,85053,2,0,P|410:165|424:213,1,101.999996887207,0|2,1:2|3:2,0:0:0:0:
362,53,85438,6,0,P|296:53|298:140,1,152.999995330811,4|2,3:1|0:2,0:0:0:0:
375,148,85823,1,0,1:2:0:0:
156,157,86015,1,2,3:2:0:0:
156,157,86111,1,0,3:0:0:0:
156,157,86207,2,0,P|247:166|288:117,1,152.999995330811,2|0,1:2|0:0,0:0:0:0:
236,1,86592,2,0,P|216:43|209:99,1,101.999996887207,2|0,1:2|0:0,0:0:0:0:
87,238,86976,6,0,P|82:175|-8:128,1,152.999995330811,4|2,3:1|0:2,0:0:0:0:
3,216,87361,1,0,3:0:0:0:
148,106,87553,1,4,3:0:0:0:
178,102,87649,1,8,3:0:0:0:
208,97,87746,1,6,1:2:0:0:
58,54,87938,5,2,3:0:0:0:
186,214,88130,1,2,3:0:0:0:
164,16,88323,1,2,3:0:0:0:
76,278,88515,5,4,3:1:0:0:
256,192,88611,12,0,93130,0:0:0:0:
