osu file format v14

[General]
AudioFilename: audio.mp3
AudioLeadIn: 0
PreviewTime: 64381
Countdown: 0
SampleSet: Soft
StackLeniency: 0.7
Mode: 0
LetterboxInBreaks: 0
WidescreenStoryboard: 0

[Editor]
Bookmarks: 3914,10068,20838,26991,39299,51607,65453,76222,77761,88530
DistanceSpacing: 1.5
BeatDivisor: 4
GridSize: 32
TimelineZoom: 1.900003

[Metadata]
Title:Fuantei na Kamisama (TV Size)
TitleUnicode:不安定な神様 (TV Size)
Artist:Suara
ArtistUnicode:Suara
Creator:Xahlt
Version:Hard
Source:うたわれるもの 偽りの仮面
Tags:hakashii Yuhdj Utawarerumono Itsuwari no Kamen Season 2 The False Faces 巽明子 下川直哉 Naoya Shimokawa 小林俊太郎 Shuntarou Kobayashi Japanese Pop j-pop jpop Anime Opening Short Version
BeatmapID:2399573
BeatmapSetID:1148518

[Difficulty]
HPDrainRate:4.5
CircleSize:3.6
OverallDifficulty:6
ApproachRate:7
SliderMultiplier:1.4
SliderTickRate:1

[Events]
//Background and Video events
0,0,"bg.jpg",0,0
//Break Periods
2,15061,16846
2,18138,19346
//Storyboard Layer 0 (Background)
//Storyboard Layer 1 (Fail)
//Storyboard Layer 2 (Pass)
//Storyboard Layer 3 (Foreground)
//Storyboard Layer 4 (Overlay)
//Storyboard Sound Samples

[TimingPoints]
3900,384.615384615385,4,2,0,45,1,0
3900,-125,4,2,0,45,0,0
10053,-105.263157894737,4,2,0,50,0,0
20823,-105.263157894737,4,2,0,50,0,0
26976,-133.333333333333,4,2,0,40,0,0
39284,-105.263157894737,4,2,0,50,0,0
41111,-105.263157894737,4,2,0,5,0,0
41207,-105.263157894737,4,2,0,50,0,0
44187,-105.263157894737,4,2,0,5,0,0
44284,-105.263157894737,4,2,0,50,0,0
44957,-105.263157894737,4,2,0,5,0,0
45053,-105.263157894737,4,2,0,50,0,0
47264,-105.263157894737,4,2,0,5,0,0
47361,-105.263157894737,4,2,0,50,0,0
48803,-105.263157894737,4,2,0,5,0,0
48899,-105.263157894737,4,2,0,50,0,0
49572,-105.263157894737,4,2,0,5,0,0
49669,-105.263157894737,4,2,0,50,0,0
51592,-105.263157894737,4,2,0,55,0,0
56495,-105.263157894737,4,2,0,5,0,0
56592,-105.263157894737,4,2,0,55,0,0
61111,-105.263157894737,4,2,0,5,0,0
61207,-105.263157894737,4,2,0,55,0,0
62649,-105.263157894737,4,2,0,5,0,0
62746,-105.263157894737,4,2,0,55,0,0
65438,-90.9090909090909,4,2,0,60,0,1
65726,-90.9090909090909,4,2,0,5,0,1
65823,-90.9090909090909,4,2,0,60,0,1
66495,-90.9090909090909,4,2,0,5,0,1
66592,-90.9090909090909,4,2,0,60,0,1
68803,-90.9090909090909,4,2,0,5,0,1
68899,-90.9090909090909,4,2,0,60,0,1
69572,-90.9090909090909,4,2,0,5,0,1
69669,-90.9090909090909,4,2,0,60,0,1
70149,-90.9090909090909,4,2,0,5,0,1
70246,-90.9090909090909,4,2,0,60,0,1
71880,-90.9090909090909,4,2,0,5,0,1
71976,-90.9090909090909,4,2,0,60,0,1
73418,-90.9090909090909,4,2,0,5,0,1
73515,-90.9090909090909,4,2,0,60,0,1
74187,-90.9090909090909,4,2,0,5,0,1
74284,-90.9090909090909,4,2,0,60,0,1
76207,-100,4,2,0,50,0,0
77746,-90.9090909090909,4,2,0,60,0,1
78034,-90.9090909090909,4,2,0,5,0,1
78130,-90.9090909090909,4,2,0,60,0,1
78803,-90.9090909090909,4,2,0,5,0,1
78900,-90.9090909090909,4,2,0,60,0,1
81111,-90.9090909090909,4,2,0,5,0,1
81207,-90.9090909090909,4,2,0,60,0,1
82649,-90.9090909090909,4,2,0,5,0,1
82746,-90.9090909090909,4,2,0,60,0,1
84957,-90.9090909090909,4,2,0,5,0,1
85053,-90.9090909090909,4,2,0,60,0,1
86495,-90.9090909090909,4,2,0,5,0,1
86592,-90.9090909090909,4,2,0,60,0,1
88515,-100,4,2,0,60,0,0
91592,-100,4,2,0,50,0,0
91976,-100,4,2,0,40,0,0
92361,-100,4,2,0,30,0,0
92746,-100,4,2,0,20,0,0
93130,-133.333333333333,4,2,0,5,0,0

[Colours]
Combo1 : 239,159,196
Combo2 : 235,169,173
Combo3 : 170,84,119
Combo4 : 241,86,84

[HitObjects]
31,62,3900,6,0,P|97:29|144:103,1,168,4|2,3:0|0:0,0:0:0:0:
74,140,4669,2,0,L|82:253,1,112,2|2,0:0|0:0,0:0:0:0:
162,274,5246,2,0,L|155:212,1,56,2|0,0:0|3:0,0:0:0:0:
387,317,6015,2,0,L|380:372,2,56,2|2|2,0:0|0:0|0:0,0:0:0:0:
449,260,6592,2,0,L|442:204,1,56,2|2,0:0|0:0,0:0:0:0:
377,151,6976,6,0,B|290:139|306:209|214:190,1,168,4|2,3:0|0:0,0:0:0:0:
191,111,7746,2,0,L|201:44,1,56,2|2,0:0|0:0,0:0:0:0:
129,9,8130,2,0,L|120:64,1,56,2|2,0:0|0:0,0:0:0:0:
36,57,8515,2,0,B|34:120|85:148|85:148|28:180|40:262,1,224,2|0,3:2|0:0,0:0:0:0:
238,230,10053,6,0,P|267:280|240:343,1,99.7499973363877,4|2,3:1|0:0,0:0:0:0:
239,365,10438,1,2,3:2:0:0:
161,292,10630,1,2,0:2:0:0:
149,192,10823,2,0,P|169:159|207:130,1,66.4999982242585,2|0,3:2|0:0,0:0:0:0:
192,40,11207,2,0,P|229:30|276:37,1,66.4999982242585,0|0,3:2|0:0,0:0:0:0:
334,94,11592,6,0,P|385:84|403:27,1,99.7499973363877,2|2,3:2|0:0,0:0:0:0:
428,0,11976,1,0,3:2:0:0:
327,3,12169,1,2,0:2:0:0:
334,94,12361,2,0,B|350:180,1,66.4999982242585,2|0,3:2|0:0,0:0:0:0:
423,223,12746,2,0,B|407:308,1,66.4999982242585,8|0,3:0|0:0,0:0:0:0:
334,352,13130,6,0,P|318:303|262:309,1,99.7499973363877,6|2,3:2|0:0,0:0:0:0:
233,326,13515,1,0,3:2:0:0:
146,375,13707,1,2,0:2:0:0:
81,299,13899,2,0,L|147:293,1,66.4999982242585,2|2,3:2|1:2,0:0:0:0:
209,214,14284,2,0,L|142:209,1,66.4999982242585,2|10,3:2|1:2,0:0:0:0:
96,206,14573,1,8,1:2:0:0:
96,206,14669,5,4,3:0:0:0:
159,129,14861,1,4,3:0:0:0:
22,26,17746,5,4,0:3:0:0:
118,0,17938,1,4,0:3:0:0:
466,348,20246,5,4,3:0:0:0:
397,275,20438,2,0,L|410:225,2,33.2499991121292,0|0|4,1:2|1:2|3:0,0:0:0:0:
340,357,20823,6,0,P|272:340|202:333,1,132.999996448517,4|0,3:1|1:0,0:0:0:0:
100,371,21399,1,2,0:3:0:0:
19,301,21592,2,0,L|33:196,1,99.7499973363877,0|0,3:2|3:0,0:0:0:0:
72,167,21976,2,0,L|59:84,1,66.4999982242585,2|2,1:3|0:3,0:0:0:0:
114,16,22361,5,0,3:2:0:0:
188,81,22553,2,0,L|255:74,1,66.4999982242585,2|0,3:3|1:0,0:0:0:0:
340,124,22938,1,2,3:3:0:0:
291,210,23130,2,0,L|224:217,1,66.4999982242585,0|2,3:2|3:3,0:0:0:0:
176,233,23419,1,0,3:0:0:0:
176,233,23515,2,0,L|187:321,1,66.4999982242585,6|2,1:2|0:3,0:0:0:0:
277,334,23899,6,0,B|348:328|325:373|405:372,1,132.999996448517,4|0,3:1|1:0,0:0:0:0:
470,300,24476,1,2,0:3:0:0:
409,220,24669,2,0,L|424:110,1,99.7499973363877,0|0,3:2|3:0,0:0:0:0:
465,95,25053,2,0,L|452:20,1,66.4999982242585,2|2,1:2|0:3,0:0:0:0:
356,5,25438,5,0,3:2:0:0:
309,93,25630,2,0,L|233:83,1,66.4999982242585,2|0,3:3|1:0,0:0:0:0:
144,68,26015,1,2,3:3:0:0:
67,131,26207,2,0,P|46:163|51:200,1,66.4999982242585,2|2,3:0|3:0,0:0:0:0:
148,224,26592,2,0,P|169:192|164:155,1,66.4999982242585,2|2,3:0|3:0,0:0:0:0:
144,68,26976,6,0,L|369:51,1,210.000008010865,4|2,3:0|0:0,0:0:0:0:
435,118,28130,1,2,0:0:0:0:
423,217,28515,2,0,P|437:252|450:325,2,105.000004005432,0|2|0,3:0|0:0|3:0,0:0:0:0:
224,284,30053,6,0,B|115:277|161:376|31:358,1,210.000008010865,6|2,3:2|0:0,0:0:0:0:
10,258,31207,2,0,L|22:204,1,52.5000020027161,2|2,0:0|0:0,0:0:0:0:
64,176,31592,2,0,L|57:59,1,105.000004005432,0|2,3:3|0:0,0:0:0:0:
152,24,32361,2,0,L|158:128,1,105.000004005432,0|2,3:3|0:0,0:0:0:0:
261,111,33130,6,0,P|336:91|310:186,1,210.000008010865,6|2,3:2|0:0,0:0:0:0:
287,285,34284,2,0,P|263:276|224:273,1,52.5000020027161,2|2,0:0|0:0,0:0:0:0:
189,249,34669,2,0,P|164:266|134:352,2,105.000004005432,0|2|0,3:3|0:0|3:3,0:0:0:0:
277,189,35823,1,2,0:0:0:0:
277,189,36015,1,2,0:0:0:0:
277,189,36207,6,0,P|314:173|335:101,1,105.000004005432,6|2,3:2|0:0,0:0:0:0:
263,41,36976,2,0,P|226:57|205:129,1,105.000004005432,2|2,0:0|0:0,0:0:0:0:
182,217,37746,2,0,B|73:224|119:125|-9:132,1,210.000008010865,0|0,3:3|3:0,0:0:0:0:
18,351,39284,6,0,P|69:323|143:337,1,132.999996448517,4|0,3:1|3:2,0:0:0:0:
231,376,39861,1,2,1:2:0:0:
276,287,40053,2,0,L|335:282,2,33.2499991121292,2|0|0,3:2|3:2|3:2,0:0:0:0:
192,231,40438,1,2,1:2:0:0:
237,142,40630,1,2,3:2:0:0:
328,182,40823,6,0,L|429:173,1,99.7499973363877,6|0,3:2|0:0,0:0:0:0:
476,165,41207,2,0,L|467:96,1,66.4999982242585,2|0,3:2|3:2,0:0:0:0:
398,26,41592,2,0,L|254:36,1,132.999996448517,6|0,0:2|3:2,0:0:0:0:
169,7,42169,1,2,1:2:0:0:
82,56,42361,6,0,P|68:78|145:143,1,132.999996448517,4|0,3:1|3:2,0:0:0:0:
203,208,42938,1,2,1:2:0:0:
171,302,43130,2,0,P|138:291|80:290,1,66.4999982242585,2|0,3:2|3:0,0:0:0:0:
27,235,43515,1,2,1:2:0:0:
27,235,43707,1,2,3:2:0:0:
91,159,43899,6,0,L|77:47,1,99.7499973363877,6|0,3:2|0:0,0:0:0:0:
103,16,44284,2,0,P|136:28|178:32,1,66.4999982242585,2|0,1:2|3:0,0:0:0:0:
226,112,44669,2,0,P|210:170|204:230,1,99.7499973363877,6|0,3:2|0:0,0:0:0:0:
200,258,45053,2,0,L|273:249,1,66.4999982242585,2|2,1:2|3:2,0:0:0:0:
333,323,45438,6,0,L|467:306,1,132.999996448517,4|0,3:1|3:2,0:0:0:0:
503,213,46015,1,2,1:2:0:0:
421,156,46207,2,0,L|364:161,2,33.2499991121292,2|0|0,1:2|3:2|3:0,0:0:0:0:
470,69,46592,1,0,3:2:0:0:
381,22,46784,1,2,1:2:0:0:
300,80,46976,6,0,P|244:76|226:21,1,99.7499973363877,6|0,3:2|0:0,0:0:0:0:
178,21,47361,2,0,L|101:19,1,66.4999982242585,2|0,3:2|3:0,0:0:0:0:
60,105,47746,2,0,L|126:106,1,66.4999982242585,6|0,3:2|0:0,0:0:0:0:
206,174,48130,1,2,3:2:0:0:
206,174,48323,1,2,1:2:0:0:
127,234,48515,6,0,P|147:296|153:350,1,99.7499973363877,4|0,3:1|0:0,0:0:0:0:
181,370,48899,2,0,P|216:371|255:335,1,66.4999982242585,2|0,3:2|0:0,0:0:0:0:
268,258,49284,2,0,P|335:256|370:293,1,99.7499973363877,2|0,1:2|0:0,0:0:0:0:
377,320,49669,2,0,L|458:312,1,66.4999982242585,2|2,1:2|3:2,0:0:0:0:
504,235,50053,6,0,L|488:142,1,66.4999982242585,8|4,3:0|3:0,0:0:0:0:
452,148,50342,1,4,3:0:0:0:
452,148,50438,2,0,L|468:55,1,66.4999982242585,0|0,1:2|3:0,0:0:0:0:
393,11,50823,1,4,3:0:0:0:
314,68,51015,1,8,3:0:0:0:
314,68,51111,1,4,3:0:0:0:
314,68,51207,2,0,L|226:57,1,66.4999982242585,0|0,1:2|3:0,0:0:0:0:
149,139,51592,6,0,P|126:109|12:90,1,132.999996448517,4|0,3:1|3:2,0:0:0:0:
8,183,52169,1,0,3:0:0:0:
8,183,52265,1,0,3:0:0:0:
8,183,52361,2,0,L|16:256,1,66.4999982242585,0|2,3:2|3:2,0:0:0:0:
104,295,52746,2,0,L|114:229,1,66.4999982242585,2|2,1:2|3:2,0:0:0:0:
149,139,53130,6,0,B|222:139|188:188|287:183,1,132.999996448517,4|0,3:0|3:2,0:0:0:0:
370,181,53707,1,0,3:0:0:0:
442,249,53899,2,0,L|435:304,3,33.2499991121292,0|0|0|0,1:2|1:0|3:0|3:0,0:0:0:0:
428,331,54284,2,0,L|341:314,1,66.4999982242585,2|0,1:2|0:0,0:0:0:0:
249,374,54669,6,0,P|210:335|121:347,2,132.999996448517,6|0|0,3:2|3:2|3:2,0:0:0:0:
325,309,55630,1,2,3:2:0:0:
286,216,55823,2,0,L|297:138,1,66.4999982242585,2|2,1:2|3:2,0:0:0:0:
385,107,56207,6,0,L|370:216,1,99.7499973363877,8|0,3:0|0:0,0:0:0:0:
412,234,56592,2,0,P|456:237|484:220,1,66.4999982242585,0|0,3:2|3:0,0:0:0:0:
505,132,56976,2,0,L|498:94,3,33.2499991121292,2|0|0|0,1:2|1:0|3:0|3:0,0:0:0:0:
488,54,57361,1,2,1:2:0:0:
488,54,57553,1,2,3:2:0:0:
370,6,57746,6,0,B|261:-1,1,99.7499973363877,6|2,3:2|0:2,0:0:0:0:
221,7,58130,2,0,L|231:75,1,66.4999982242585,0|2,3:2|3:2,0:0:0:0:
138,112,58515,2,0,L|142:41,1,66.4999982242585,0|0,3:2|3:0,0:0:0:0:
48,11,58899,2,0,L|58:83,1,66.4999982242585,0|2,1:0|3:2,0:0:0:0:
10,194,59284,6,0,P|39:240|51:291,1,99.7499973363877,6|2,3:2|0:2,0:0:0:0:
59,333,59669,2,0,P|94:323|133:318,1,66.4999982242585,0|2,3:2|3:2,0:0:0:0:
183,239,60053,2,0,P|200:244|222:249,3,33.2499991121292,0|0|0|0,3:2|3:0|3:0|3:0,0:0:0:0:
264,257,60438,2,0,L|256:345,1,66.4999982242585,0|2,1:0|3:2,0:0:0:0:
371,379,60823,6,0,L|473:367,1,99.7499973363877,6|0,3:2|0:0,0:0:0:0:
507,334,61207,2,0,L|489:252,1,66.4999982242585,2|0,3:2|0:0,0:0:0:0:
409,214,61592,1,2,3:2:0:0:
472,138,61784,1,0,3:0:0:0:
472,138,61880,1,2,3:2:0:0:
472,138,61976,2,0,L|460:72,1,66.4999982242585,0|2,1:0|3:2,0:0:0:0:
341,27,62361,6,0,L|365:144,1,99.7499973363877,6|0,3:2|0:0,0:0:0:0:
373,173,62746,2,0,L|297:190,1,66.4999982242585,0|0,3:2|3:0,0:0:0:0:
257,273,63130,2,0,L|179:259,1,66.4999982242585,2|2,3:2|3:0,0:0:0:0:
96,247,63515,1,2,3:0:0:0:
96,247,63707,1,2,3:0:0:0:
170,181,63899,6,0,L|181:101,1,66.4999982242585,4|4,3:0|3:0,0:0:0:0:
148,82,64188,1,0,3:0:0:0:
148,82,64284,2,0,L|159:2,1,66.4999982242585,2|0,1:3|3:0,0:0:0:0:
256,2,64669,1,2,1:2:0:0:
278,98,64861,1,2,3:0:0:0:
365,49,65053,2,0,P|406:44|436:18,1,66.4999982242585,2|2,3:0|3:0,0:0:0:0:
505,116,65438,6,0,L|504:256,1,115.50000352478,4|0,3:1|0:0,0:0:0:0:
456,265,65823,2,0,L|459:365,1,77.0000023498536,0|2,1:2|3:2,0:0:0:0:
345,367,66207,2,0,P|315:322|251:326,1,115.50000352478,2|0,3:2|0:0,0:0:0:0:
225,369,66592,2,0,L|145:356,1,77.0000023498536,2|2,1:2|3:2,0:0:0:0:
38,370,66976,5,8,3:0:0:0:
38,370,67169,1,2,3:0:0:0:
3,260,67361,2,0,L|18:176,1,77.0000023498536,0|2,1:2|3:2,0:0:0:0:
121,129,67746,1,2,1:2:0:0:
121,129,67842,1,0,1:2:0:0:
121,129,67938,1,2,3:2:0:0:
206,205,68130,2,0,P|245:183|295:178,1,77.0000023498536,2|2,1:2|3:2,0:0:0:0:
383,221,68515,6,0,P|403:168|375:117,1,115.50000352478,6|0,3:2|0:0,0:0:0:0:
341,73,68899,2,0,L|253:61,1,77.0000023498536,0|2,1:2|3:2,0:0:0:0:
148,64,69284,2,0,P|101:32|40:59,1,115.50000352478,2|0,1:2|0:0,0:0:0:0:
12,94,69669,1,2,1:2:0:0:
77,188,69861,6,0,P|57:249|65:311,1,115.50000352478,2|0,3:2|0:0,0:0:0:0:
110,330,70246,2,0,B|207:330|161:383|254:383,1,154.000004699707,2|2,3:2|3:0,0:0:0:0:
349,325,70823,2,0,L|335:275,3,38.5000011749268,0|0|0|0,1:2|3:2|3:0|3:0,0:0:0:0:
306,255,71207,2,0,L|322:190,3,38.5000011749268,0|0|0|0,1:2|3:2|1:0|1:0,0:0:0:0:
335,163,71592,6,0,P|393:144|428:207,1,115.50000352478,4|0,3:1|0:0,0:0:0:0:
426,236,71976,2,0,L|508:225,1,77.0000023498536,0|2,1:2|3:2,0:0:0:0:
492,341,72361,2,0,L|320:361,1,154.000004699707,2|0,3:2|1:2,0:0:0:0:
229,320,72938,1,0,3:0:0:0:
127,375,73130,6,0,P|102:321|131:257,1,115.50000352478,4|0,3:1|0:0,0:0:0:0:
151,222,73515,2,0,P|112:234|52:210,1,77.0000023498536,0|2,1:2|3:2,0:0:0:0:
55,114,73899,2,0,P|110:91|160:109,1,115.50000352478,2|0,1:2|0:0,0:0:0:0:
214,130,74284,2,0,L|205:46,1,77.0000023498536,0|2,1:2|1:2,0:0:0:0:
338,10,74669,6,0,L|346:108,1,77.0000023498536,6|0,3:2|0:0,0:0:0:0:
319,140,74957,1,2,0:2:0:0:
319,140,75053,2,0,L|327:238,1,77.0000023498536,0|2,1:2|1:2,0:0:0:0:
390,312,75438,2,0,P|411:285|496:268,2,115.50000352478,2|2|2,3:2|3:2|3:2,0:0:0:0:
303,372,76207,5,4,3:2:0:0:
318,268,76399,1,2,1:3:0:0:
217,300,76592,2,0,L|122:281,1,70,2|2,1:3|3:2,0:0:0:0:
79,207,76976,6,0,P|44:195|20:156,1,70,0|2,1:2|3:2,0:0:0:0:
108,105,77361,1,2,1:3:0:0:
198,177,77553,1,10,3:0:0:0:
198,177,77649,1,8,3:0:0:0:
198,177,77746,6,0,L|204:56,1,115.50000352478,4|0,3:1|0:0,0:0:0:0:
229,10,78130,2,0,L|309:10,1,77.0000023498536,0|2,1:2|3:2,0:0:0:0:
358,113,78515,2,0,P|383:58|433:54,1,115.50000352478,2|0,3:2|0:0,0:0:0:0:
484,78,78900,2,0,L|473:168,1,77.0000023498536,2|2,1:2|3:2,0:0:0:0:
454,271,79284,5,8,3:0:0:0:
454,271,79476,1,2,3:0:0:0:
369,349,79669,2,0,P|334:336|295:328,1,77.0000023498536,0|2,1:2|3:2,0:0:0:0:
245,235,80053,1,2,1:2:0:0:
245,235,80149,1,0,1:2:0:0:
245,235,80246,1,2,3:2:0:0:
141,285,80438,2,0,L|154:374,1,77.0000023498536,2|2,1:2|3:2,0:0:0:0:
36,361,80823,6,0,L|44:222,1,115.50000352478,6|0,3:2|0:0,0:0:0:0:
18,193,81207,2,0,L|29:104,1,77.0000023498536,0|2,1:2|3:2,0:0:0:0:
125,53,81592,1,2,1:2:0:0:
125,53,81784,1,2,3:2:0:0:
207,140,81976,1,2,1:2:0:0:
207,140,82169,1,2,3:2:0:0:
322,145,82361,6,0,P|342:92|413:91,1,115.50000352478,4|0,3:3|0:0,0:0:0:0:
451,97,82746,2,0,L|441:16,1,77.0000023498536,0|0,1:2|3:0,0:0:0:0:
335,8,83130,2,0,L|266:2,3,38.5000011749268,0|0|0|0,1:2|1:2|3:0|3:0,0:0:0:0:
247,35,83515,2,0,L|143:27,1,77.0000023498536,0|2,1:2|3:2,0:0:0:0:
79,133,83899,6,0,P|51:83|-12:61,2,115.50000352478,4|2|2,3:1|0:2|3:2,0:0:0:0:
195,128,84669,2,0,L|186:245,1,115.50000352478,2|0,1:2|0:0,0:0:0:0:
153,291,85053,2,0,L|43:272,1,77.0000023498536,0|2,1:2|3:2,0:0:0:0:
157,384,85438,6,0,L|25:362,2,115.50000352478,4|2|2,3:1|0:2|3:2,0:0:0:0:
242,305,86207,2,0,P|299:287|346:345,1,115.50000352478,2|0,1:2|0:0,0:0:0:0:
372,366,86592,2,0,L|458:354,1,77.0000023498536,2|0,1:2|0:0,0:0:0:0:
502,228,86976,6,0,P|495:185|470:142,1,77.0000023498536,4|0,3:1|0:0,0:0:0:0:
423,142,87265,1,2,0:2:0:0:
423,142,87361,2,0,L|324:137,1,77.0000023498536,0|4,3:0|3:0,0:0:0:0:
264,220,87746,1,6,1:2:0:0:
152,192,87938,2,0,L|167:111,2,77.0000023498536,2|2|2,3:0|3:0|3:0,0:0:0:0:
129,295,88515,5,4,3:1:0:0:
256,192,88611,12,0,93130,0:0:0:0:
