osu file format v14

[General]
AudioFilename: audio.mp3
AudioLeadIn: 0
PreviewTime: 63900
Countdown: 0
SampleSet: Soft
StackLeniency: 0.7
Mode: 0
LetterboxInBreaks: 0
WidescreenStoryboard: 1

[Editor]
DistanceSpacing: 1.7
BeatDivisor: 4
GridSize: 4
TimelineZoom: 1.5

[Metadata]
Title:Fuantei na Kamisama (TV Size)
TitleUnicode:不安定な神様 (TV Size)
Artist:Suara
ArtistUnicode:Suara
Creator:EnuHQ
Version:Hard
Source:うたわれるもの 偽りの仮面
Tags:Utawarerumono Itsuwari No Kamen The False Mask Opening Season 2 Pop j-pop jpop Female Vocal SaltyLucario SaltKing AsuKow Japanese anime
BeatmapID:3337505
BeatmapSetID:1635283

[Difficulty]
HPDrainRate:4
CircleSize:3.8
OverallDifficulty:6.5
ApproachRate:7.5
SliderMultiplier:1.4
SliderTickRate:1

[Events]
//Background and Video events
0,0,"bg.jpg",0,0
Video,1600,"video.mp4"
//Break Periods
2,15061,16921
2,18138,19421
//Storyboard Layer 0 (Background)
//Storyboard Layer 1 (Fail)
//Storyboard Layer 2 (Pass)
//Storyboard Layer 3 (Foreground)
//Storyboard Layer 4 (Overlay)
//Storyboard Sound Samples

[TimingPoints]
3900,384.615384615385,4,2,1,40,1,0
3900,-125,4,2,1,40,0,0
10053,-111.111111111111,4,2,1,65,0,0
14669,-111.111111111111,4,2,1,60,0,0
14861,-111.111111111111,4,2,1,65,0,0
17746,-111.111111111111,4,2,1,60,0,0
17938,-111.111111111111,4,2,1,65,0,0
20246,-111.111111111111,4,2,1,60,0,0
23515,-90.9090909090908,4,2,1,60,0,0
23900,-111.111111111111,4,2,1,60,0,0
26976,-125,4,2,1,40,0,0
31880,-125,4,2,69,5,0,0
31976,-125,4,2,1,40,0,0
39284,-111.111111111111,4,2,1,55,0,0
42361,-111.111111111111,4,2,1,50,0,0
47264,-111.111111111111,4,2,1,5,0,0
47361,-111.111111111111,4,2,1,50,0,0
51592,-111.111111111111,4,2,1,55,0,0
54188,-111.111111111111,4,2,69,5,0,0
54284,-111.111111111111,4,2,1,55,0,0
54957,-111.111111111111,4,2,69,5,0,0
55053,-111.111111111111,4,2,1,55,0,0
61111,-111.111111111111,4,2,69,5,0,0
61207,-111.111111111111,4,2,1,55,0,0
62650,-111.111111111111,4,2,69,5,0,0
62746,-111.111111111111,4,2,1,55,0,0
64669,-111.111111111111,4,2,1,60,0,0
65438,-100,4,2,1,70,0,0
68803,-100,4,2,1,5,0,0
68900,-100,4,2,1,70,0,0
76207,-100,4,2,1,60,0,0
77746,-100,4,2,1,70,0,0
81111,-100,4,2,1,5,0,0
81207,-100,4,2,1,70,0,0
82649,-100,4,2,1,5,0,0
82746,-100,4,2,1,70,0,0
88515,-100,4,2,1,40,0,0
93130,-100,4,2,1,5,0,0

[Colours]
Combo1 : 249,119,209
Combo2 : 128,255,255
Combo3 : 37,185,239
Combo4 : 0,128,255
Combo5 : 227,245,10

[HitObjects]
512,310,3900,6,0,L|347:276,1,168,14|2,3:0|2:0,0:0:0:0:
255,309,4669,2,0,L|278:200,1,112,2|2,2:0|2:0,0:0:0:0:
360,193,5246,6,0,L|348:139,1,56,2|0,2:0|0:0,0:0:0:0:
257,22,6015,1,2,2:0:0:0:
257,22,6207,2,0,L|202:11,1,56,2|0,2:0|2:0,0:0:0:0:
131,52,6592,2,0,L|76:64,1,56,0|2,2:0|2:0,0:0:0:0:
16,134,6976,6,0,L|180:169,1,168,0|2,1:0|2:0,0:0:0:0:
264,166,7746,2,0,L|252:220,1,56,2|2,2:0|2:0,0:0:0:0:
177,253,8130,2,0,L|189:308,1,56,2|2,2:0|2:0,0:0:0:0:
261,370,8515,6,0,P|321:282|426:297,1,224,2|0,2:0|2:0,0:0:0:0:
413,116,10053,6,0,P|420:86|427:55,1,63.0000000000001,14|0,2:0|0:0,0:0:0:0:
318,8,10438,2,0,P|326:41|332:69,1,63.0000000000001,0|2,1:0|2:0,0:0:0:0:
299,173,10823,2,0,P|257:129|196:134,1,126,0|0,1:0|1:0,0:0:0:0:
116,180,11400,1,0,2:0:0:0:
182,284,11592,6,0,P|190:250|196:222,1,63.0000000000001,0|0,1:0|0:0,0:0:0:0:
94,285,11976,2,0,P|101:315|108:346,1,63.0000000000001,0|2,1:0|2:0,0:0:0:0:
196,374,12361,2,0,P|242:364|289:354,1,94.5000000000001,0|0,1:0|2:0,0:0:0:0:
321,330,12746,2,0,P|355:337|383:343,1,63.0000000000001,0|2,1:0|2:0,0:0:0:0:
464,292,13130,6,0,P|474:337|484:383,2,94.5000000000001,6|2|2,2:0|2:0|2:0,0:0:0:0:
376,219,13900,1,0,1:0:0:0:
469,166,14092,1,8,2:0:0:0:
469,166,14188,1,8,2:0:0:0:
469,166,14284,2,0,L|502:173,2,31.5,8|8|8,2:0|2:0|2:0,0:0:0:0:
358,93,14669,5,12,2:3:0:0:
458,5,14861,1,12,2:3:0:0:
269,92,17746,5,12,2:3:0:0:
369,4,17938,1,12,2:3:0:0:
425,178,20246,5,4,3:0:0:0:
512,275,20438,1,8,2:0:0:0:
512,275,20534,1,8,2:0:0:0:
512,275,20630,1,8,2:0:0:0:
424,355,20823,6,0,P|393:362|363:355,1,63.0000000000001,4|2,2:0|2:0,0:0:0:0:
330,332,21111,1,0,0:0:0:0:
330,332,21207,2,0,P|299:324|269:331,1,63.0000000000001,8|2,2:0|2:0,0:0:0:0:
168,373,21592,2,0,P|174:342|181:311,1,63.0000000000001,0|2,1:0|2:0,0:0:0:0:
65,345,21976,1,8,2:0:0:0:
117,248,22169,1,2,2:0:0:0:
117,248,22265,1,0,0:0:0:0:
117,248,22361,6,0,P|86:254|55:261,1,63.0000000000001,0|0,1:0|2:0,0:0:0:0:
14,240,22650,1,0,2:0:0:0:
14,240,22746,2,0,P|7:209|0:178,1,63.0000000000001,8|0,2:0|2:0,0:0:0:0:
95,149,23130,1,0,1:0:0:0:
5,76,23323,1,2,2:0:0:0:
5,76,23419,1,2,2:0:0:0:
5,76,23515,2,0,L|128:49,1,115.5,14|0,2:0|2:0,0:0:0:0:
149,16,23900,6,0,P|180:22|211:29,1,63.0000000000001,6|2,1:0|2:0,0:0:0:0:
234,68,24188,1,2,2:0:0:0:
234,68,24284,2,0,P|240:99|247:130,1,63.0000000000001,8|2,2:0|2:0,0:0:0:0:
326,178,24669,2,0,L|332:147,2,31.5,0|0|2,1:0|2:0|2:0,0:0:0:0:
255,247,25053,1,8,2:0:0:0:
332,327,25246,1,2,2:0:0:0:
238,378,25438,6,0,P|207:370|177:377,1,63.0000000000001,0|2,1:0|2:0,0:0:0:0:
143,358,25726,1,2,2:0:0:0:
143,358,25823,2,0,P|112:366|82:359,1,63.0000000000001,8|2,2:0|2:0,0:0:0:0:
18,284,26207,1,8,2:0:0:0:
99,221,26400,1,8,2:0:0:0:
17,162,26592,1,8,2:0:0:0:
86,98,26784,1,8,2:0:0:0:
10,30,26976,6,0,P|63:18|119:6,1,112,2|0,2:0|2:0,0:0:0:0:
185,59,27553,1,2,2:0:0:0:
185,59,27746,2,0,P|238:71|294:83,1,112,2|2,2:0|2:0,0:0:0:0:
366,138,28323,1,2,2:0:0:0:
366,138,28515,6,0,B|387:99|387:99|366:30,2,112,2|2|2,2:0|2:0|2:0,0:0:0:0:
251,269,29861,1,2,2:0:0:0:
251,269,30053,6,0,B|179:251|179:251|139:269,1,112,2|0,2:0|2:0,0:0:0:0:
64,254,30630,1,2,2:0:0:0:
64,254,30823,2,0,P|58:223|51:192,1,56,2|0,2:0|2:0,0:0:0:0:
0,138,31207,2,0,P|6:107|13:76,1,56,2|2,2:0|2:0,0:0:0:0:
96,115,31592,6,0,P|136:123|178:132,1,84,2|0,2:0|2:0,0:0:0:0:
210,165,31976,2,0,P|242:158|265:153,1,56,2|0,2:0|2:0,0:0:0:0:
333,103,32361,2,0,B|360:141|360:141|337:203,1,112,2|2,2:0|2:0,0:0:0:0:
270,265,32938,1,2,2:0:0:0:
270,265,33130,6,0,P|321:250|361:286,1,112,2|0,2:0|2:0,0:0:0:0:
288,356,33707,1,2,2:0:0:0:
288,356,33900,2,0,P|256:349|233:344,1,56,2|0,2:0|0:0,0:0:0:0:
175,283,34284,2,0,P|147:288|120:294,1,56,2|2,2:0|2:0,0:0:0:0:
36,275,34669,6,0,P|47:329|60:384,2,112,2|2|2,2:0|2:0|2:0,0:0:0:0:
11,150,35823,1,2,2:0:0:0:
11,150,36015,1,2,2:0:0:0:
11,150,36207,6,0,P|64:162|120:174,1,112,2|2,2:0|2:0,0:0:0:0:
187,106,36976,2,0,P|240:94|296:82,1,112,2|2,2:0|2:0,0:0:0:0:
390,40,37746,6,0,P|326:84|355:156,1,168,2|0,2:0|2:0,0:0:0:0:
404,184,38515,1,2,2:0:0:0:
428,329,39092,1,2,2:0:0:0:
428,329,39284,6,0,B|348:306|348:306|311:328,1,126,0|0,1:0|1:0,0:0:0:0:
251,382,39861,1,2,2:0:0:0:
251,382,40053,2,0,P|217:374|189:368,1,63.0000000000001,0|0,1:0|1:0,0:0:0:0:
124,292,40438,1,8,2:0:0:0:
124,292,40630,1,2,2:0:0:0:
203,208,40823,6,0,P|210:241|216:269,1,63.0000000000001,0|0,1:0|2:0,0:0:0:0:
128,127,41207,2,0,P|120:160|114:188,1,63.0000000000001,0|0,1:0|2:0,0:0:0:0:
213,104,41592,2,0,P|276:118|343:132,1,126,0|0,1:0|1:0,0:0:0:0:
406,38,42169,1,2,2:0:0:0:
406,38,42265,1,2,2:0:0:0:
406,38,42361,6,0,P|406:96|462:113,1,126,0|0,1:0|1:0,0:0:0:0:
501,198,42938,1,2,2:0:0:0:
501,198,43130,2,0,P|493:232|487:260,1,63.0000000000001,0|0,1:0|2:0,0:0:0:0:
380,195,43515,2,0,P|388:229|394:257,1,63.0000000000001,0|2,1:0|2:0,0:0:0:0:
482,360,43900,6,0,P|439:340|391:352,1,94.5000000000001,0|2,1:0|2:0,0:0:0:0:
371,367,44284,2,0,P|337:359|309:353,1,63.0000000000001,0|0,1:0|2:0,0:0:0:0:
204,261,44669,2,0,P|218:324|232:391,1,126,0|0,1:0|1:0,0:0:0:0:
296,254,45246,1,2,2:0:0:0:
203,169,45438,6,0,P|233:176|263:169,1,63.0000000000001,0|0,1:0|0:0,0:0:0:0:
323,89,45823,1,0,1:0:0:0:
323,89,46015,1,2,2:0:0:0:
210,19,46207,2,0,P|218:53|224:81,1,63.0000000000001,0|0,1:0|2:0,0:0:0:0:
112,130,46592,2,0,P|118:99|125:68,1,63.0000000000001,0|2,1:0|2:0,0:0:0:0:
17,118,46976,6,0,P|29:174|42:235,1,94.5000000000001,0|0,1:0|0:0,0:0:0:0:
74,240,47361,2,0,P|66:270|60:301,1,63.0000000000001,0|0,1:0|2:0,0:0:0:0:
105,377,47746,2,0,P|126:354|155:344,1,63.0000000000001,0|0,1:0|0:0,0:0:0:0:
246,321,48130,1,0,1:0:0:0:
184,247,48323,1,2,2:0:0:0:
287,169,48515,6,0,P|279:203|273:231,1,63.0000000000001,0|0,1:0|2:0,0:0:0:0:
186,97,48900,2,0,P|194:131|200:159,1,63.0000000000001,0|0,1:0|2:0,0:0:0:0:
279,77,49284,2,0,P|342:63|409:49,1,126,0|0,1:0|1:0,0:0:0:0:
483,156,49861,1,2,2:0:0:0:
483,156,49957,1,0,0:0:0:0:
483,156,50053,6,0,P|460:134|429:127,1,63.0000000000001,0|0,1:0|0:0,0:0:0:0:
344,182,50438,1,0,1:0:0:0:
436,285,50630,1,0,0:0:0:0:
436,285,50726,1,0,2:0:0:0:
436,285,50823,2,0,P|429:254|422:223,1,63.0000000000001,0|2,1:0|2:0,0:0:0:0:
325,340,51207,2,0,P|331:309|338:278,1,63.0000000000001,2|0,1:0|2:0,0:0:0:0:
257,226,51592,6,0,B|169:232|169:232|191:238|199:257,1,126,14|0,2:0|1:0,0:0:0:0:
233,342,52169,1,2,2:0:0:0:
233,342,52265,1,2,2:0:0:0:
233,342,52361,1,0,1:0:0:0:
147,376,52553,2,0,P|141:345|134:314,1,63.0000000000001,2|8,2:0|2:0,0:0:0:0:
39,332,52938,1,2,2:0:0:0:
39,332,53130,6,0,P|53:269|67:202,1,126,4|0,3:0|1:0,0:0:0:0:
2,141,53707,1,2,2:0:0:0:
2,141,53803,1,0,0:0:0:0:
2,141,53900,2,0,P|33:134|64:127,1,63.0000000000001,0|0,1:0|0:0,0:0:0:0:
51,33,54284,2,0,P|82:40|113:47,1,63.0000000000001,8|0,2:0|2:0,0:0:0:0:
237,89,54669,6,0,P|179:107|158:164,1,126,0|0,1:0|1:0,0:0:0:0:
291,219,55246,1,2,2:0:0:0:
291,219,55342,1,0,0:0:0:0:
291,219,55438,2,0,P|276:191|249:175,1,63.0000000000001,0|2,1:0|2:0,0:0:0:0:
210,272,55823,1,8,2:0:0:0:
281,333,56015,1,2,2:0:0:0:
196,384,56207,6,0,P|133:370|66:356,1,126,0|0,1:0|1:0,0:0:0:0:
0,276,56784,1,2,2:0:0:0:
0,276,56880,1,2,2:0:0:0:
0,276,56976,2,0,P|31:269|62:262,1,63.0000000000001,0|0,1:0|2:0,0:0:0:0:
107,176,57361,1,8,2:0:0:0:
107,176,57553,1,2,2:0:0:0:
4,87,57746,6,0,P|13:132|23:179,2,94.5000000000001,6|2|0,1:0|2:0|2:0,0:0:0:0:
107,25,58515,2,0,P|100:56|93:87,1,63.0000000000001,0|2,1:0|2:0,0:0:0:0:
198,0,58900,2,0,P|205:31|212:62,1,63.0000000000001,8|2,2:0|2:0,0:0:0:0:
197,177,59284,6,0,P|242:136|304:141,1,126,0|0,1:0|2:0,0:0:0:0:
351,243,59861,1,2,2:0:0:0:
351,243,59957,1,0,2:0:0:0:
351,243,60053,2,0,P|320:236|289:229,1,63.0000000000001,0|2,1:0|2:0,0:0:0:0:
392,164,60438,2,0,P|423:157|454:150,1,63.0000000000001,8|0,2:0|2:0,0:0:0:0:
455,255,60823,6,0,P|441:316|428:378,1,126,6|0,1:0|1:0,0:0:0:0:
338,384,61400,1,0,2:0:0:0:
338,384,61592,2,0,P|331:353|324:322,1,63.0000000000001,0|2,1:0|2:0,0:0:0:0:
222,353,61976,2,0,P|229:322|236:291,1,63.0000000000001,8|2,2:0|2:0,0:0:0:0:
182,200,62361,6,0,B|237:194|237:194|254:209|254:209|301:205,1,126,6|0,2:0|1:0,0:0:0:0:
345,92,62938,1,2,2:0:0:0:
345,92,63034,1,0,0:0:0:0:
345,92,63130,2,0,P|314:99|291:121,1,63.0000000000001,2|8,1:0|2:0,0:0:0:0:
383,175,63515,1,8,2:0:0:0:
441,105,63707,1,8,2:0:0:0:
483,188,63900,6,0,P|476:219|469:250,1,63.0000000000001,0|0,1:0|1:0,0:0:0:0:
464,285,64188,1,0,1:0:0:0:
464,285,64284,1,8,2:0:0:0:
396,355,64476,1,2,2:0:0:0:
396,355,64669,2,0,P|365:348|334:341,1,63.0000000000001,0|8,1:0|2:0,0:0:0:0:
264,265,65053,1,2,1:0:0:0:
264,265,65246,1,8,2:0:0:0:
194,355,65438,6,0,P|159:297|92:295,1,140,6|8,1:2|2:0,0:0:0:0:
16,360,66015,1,2,2:0:0:0:
16,360,66207,2,0,P|9:326|1:292,1,70,0|2,1:0|2:0,0:0:0:0:
60,213,66592,1,8,2:0:0:0:
60,213,66784,1,2,2:0:0:0:
0,129,66976,6,0,P|34:122|68:114,1,70,2|2,1:0|2:0,0:0:0:0:
123,39,67361,2,0,P|157:46|191:54,1,70,8|2,2:0|2:0,0:0:0:0:
222,88,67650,1,0,0:0:0:0:
222,88,67746,2,0,P|256:81|290:73,1,70,0|2,1:0|2:0,0:0:0:0:
374,27,68130,1,8,2:0:0:0:
444,94,68323,1,2,2:0:0:0:
378,161,68515,6,0,L|407:297,1,140,2|8,1:0|2:0,0:0:0:0:
230,368,69092,1,2,2:0:0:0:
230,368,69284,2,0,P|296:369|325:309,1,140,0|8,1:0|2:0,0:0:0:0:
227,209,69861,6,0,P|234:243|242:277,1,70,2|0,2:0|1:0,0:0:0:0:
136,348,70246,1,0,0:0:0:0:
136,348,70438,2,0,P|144:313|151:279,1,70,8|2,2:0|2:0,0:0:0:0:
92,205,70823,1,2,1:0:0:0:
28,287,71015,1,2,2:0:0:0:
92,205,71207,2,0,P|57:197|23:190,1,70,8|2,2:0|2:0,0:0:0:0:
101,112,71592,6,0,P|164:99|237:83,1,140,6|8,1:0|2:0,0:0:0:0:
379,78,72169,1,2,2:0:0:0:
379,78,72361,2,0,P|319:106|319:172,1,140,0|8,1:0|2:0,0:0:0:0:
410,200,72938,1,0,1:0:0:0:
343,269,73130,6,0,P|308:261|274:254,1,70,2|0,1:0|0:0,0:0:0:0:
250,283,73419,1,0,0:0:0:0:
250,283,73515,2,0,P|215:291|181:298,1,70,8|2,2:0|2:0,0:0:0:0:
110,373,73900,2,0,P|99:323|88:270,1,105,6|0,1:0|2:0,0:0:0:0:
53,254,74284,2,0,P|61:219|68:185,1,70,8|2,2:0|2:0,0:0:0:0:
9,88,74669,6,0,P|42:96|76:88,1,70,6|2,1:0|2:0,0:0:0:0:
105,50,74957,1,2,2:0:0:0:
105,50,75053,2,0,P|138:42|172:50,1,70,8|2,2:0|2:0,0:0:0:0:
251,104,75438,2,0,B|267:71|267:71|247:4,2,105,0|2|0,1:0|2:0|2:0,0:0:0:0:
166,146,76207,5,6,1:0:0:0:
231,220,76400,1,8,2:0:0:0:
133,322,76592,2,0,P|141:287|148:253,1,70,8|2,2:0|2:0,0:0:0:0:
230,315,76976,5,8,2:0:0:0:
304,380,77169,1,8,2:0:0:0:
314,285,77361,2,0,P|349:293|383:300,1,70,8|8,2:0|2:0,0:0:0:0:
423,282,77650,1,8,2:0:0:0:
423,282,77746,6,0,P|410:219|394:146,1,140,6|8,1:0|2:0,0:0:0:0:
481,131,78323,1,2,2:0:0:0:
421,61,78515,2,0,P|388:52|354:60,1,70,2|0,1:0|2:0,0:0:0:0:
290,129,78900,1,8,2:0:0:0:
230,54,79092,1,2,2:0:0:0:
290,129,79284,6,0,P|282:163|275:197,1,70,0|2,1:0|2:0,0:0:0:0:
294,286,79669,2,0,P|261:278|227:286,1,70,8|2,2:0|2:0,0:0:0:0:
198,324,79957,1,0,0:0:0:0:
198,324,80053,2,0,P|165:332|131:324,1,70,0|2,1:0|2:0,0:0:0:0:
50,267,80438,1,8,2:0:0:0:
127,212,80630,1,2,2:0:0:0:
48,171,80823,6,0,P|34:103|19:35,1,140,0|8,1:0|2:0,0:0:0:0:
129,119,81400,1,2,2:0:0:0:
129,119,81592,2,0,P|137:84|144:50,1,70,0|2,1:0|2:0,0:0:0:0:
224,2,81976,2,0,P|232:37|239:71,1,70,8|2,2:0|2:0,0:0:0:0:
217,165,82361,6,0,B|309:141|309:141|349:161,1,140,6|8,1:0|2:0,0:0:0:0:
424,217,82938,1,2,2:0:0:0:
353,282,83130,1,0,1:0:0:0:
353,282,83226,1,0,2:0:0:0:
353,282,83323,1,2,2:0:0:0:
453,382,83515,2,0,P|445:347|438:313,1,70,8|2,2:0|2:0,0:0:0:0:
354,382,83900,6,0,P|304:371|251:360,1,105,6|2,1:0|2:0,0:0:0:0:
235,325,84284,2,0,P|200:333|166:340,1,70,8|2,2:0|2:0,0:0:0:0:
72,367,84669,2,0,P|64:334|72:300,1,70,0|2,1:0|2:0,0:0:0:0:
110,271,84957,1,0,2:0:0:0:
110,271,85053,2,0,P|118:238|110:204,1,70,8|2,2:0|2:0,0:0:0:0:
21,118,85438,6,0,B|1:183|1:183|17:216,2,105,0|2|2,1:0|2:0|2:0,0:0:0:0:
117,109,86207,2,0,P|152:101|186:94,1,70,0|0,1:0|2:0,0:0:0:0:
210,123,86496,1,2,2:0:0:0:
210,123,86592,2,0,P|245:131|279:138,1,70,8|0,2:0|2:0,0:0:0:0:
366,159,86976,6,0,P|356:108|345:57,2,105,6|2|2,1:0|2:0|2:0,0:0:0:0:
452,200,87746,2,0,P|444:234|437:268,1,70,8|2,2:0|2:0,0:0:0:0:
377,336,88130,1,2,2:0:0:0:
287,288,88323,1,2,2:0:0:0:
203,361,88515,5,14,2:0:0:0:
256,192,88707,12,0,93130,0:0:0:0:
