osu file format v14

[General]
AudioFilename: audio.mp3
AudioLeadIn: 0
PreviewTime: 63996
Countdown: 1
SampleSet: Soft
StackLeniency: 0.7
Mode: 0
LetterboxInBreaks: 0
WidescreenStoryboard: 0

[Editor]
Bookmarks: 3612,19381
DistanceSpacing: 1.5
BeatDivisor: 4
GridSize: 4
TimelineZoom: 1.3

[Metadata]
Title:Fuantei na Kamisama
TitleUnicode:不安定な神様
Artist:Suara
ArtistUnicode:Suara
Creator:Luxanna
Version:Kamisama
Source:
Tags:
BeatmapID:1224967
BeatmapSetID:578543

[Difficulty]
HPDrainRate:8
CircleSize:3.5
OverallDifficulty:8
ApproachRate:8
SliderMultiplier:1.6
SliderTickRate:1

[Events]
//Background and Video events
0,0,"5.jpg",0,0
//Break Periods
2,14773,16708
2,17850,19015
//Storyboard Layer 0 (Background)
//Storyboard Layer 1 (Fail)
//Storyboard Layer 2 (Pass)
//Storyboard Layer 3 (Foreground)
//Storyboard Sound Samples

[TimingPoints]
3612,384.615384615385,4,2,2,100,1,0
3612,-153.846153846153,4,2,1,100,0,0
9573,-133.333333333333,4,2,0,100,0,0
14381,-133.333333333333,4,2,1,100,0,0
19862,-133.333333333333,4,2,1,100,0,0
20535,-133.333333333333,4,2,1,100,0,0
25919,-133.333333333333,4,2,1,100,0,0
26688,-133.333333333333,4,2,1,100,0,0
27073,-181.818181818181,4,2,1,50,0,0
34381,-181.818181818181,4,2,0,50,0,0
35342,-181.818181818181,4,2,1,50,0,0
38996,-100,4,3,1,50,0,0
49958,-100,4,2,1,50,0,0

[Colours]
Combo1 : 196,0,0
Combo2 : 0,151,223

[HitObjects]
256,192,535,12,0,3419,0:0:0:0:
73,91,3612,6,0,P|149:119|169:135,1,103.999995239258,4|0,0:0|0:0,0:0:0:0:
256,192,4188,1,0,0:0:0:0:
348,136,4381,2,0,P|416:84|436:80,1,103.999995239258,2|0,0:0|0:0,0:0:0:0:
432,172,4958,2,0,L|452:240,1,51.999997619629,2|0,0:0|0:0,0:0:0:0:
412,352,5342,2,0,L|396:296,1,51.999997619629
308,304,5727,2,0,L|288:244,1,51.999997619629,0|2,0:0|0:0,0:0:0:0:
152,248,6112,6,0,L|172:296,1,51.999997619629
204,168,6496,2,0,L|260:144,1,51.999997619629,0|4,0:0|0:0,0:0:0:0:
344,80,6881,2,0,L|368:136,1,51.999997619629
320,232,7265,2,0,L|336:264,2,25.9999988098145
264,152,7650,1,0,0:0:0:0:
136,88,7842,5,0,0:0:0:0:
40,192,8035,1,0,0:0:0:0:
96,312,8227,1,2,0:0:0:0:
224,336,8419,2,0,L|280:328,1,51.999997619629
240,244,8804,2,0,L|280:196,1,51.999997619629,0|2,0:0|0:0,0:0:0:0:
196,152,9188,2,0,L|180:80,1,51.999997619629
48,132,9573,5,0,0:0:0:0:
76,248,9765,2,0,L|168:316,1,90.0000034332277,4|0,0:0|0:0,0:0:0:0:
192,316,10150,2,0,P|232:280|316:280,1,120.000004577637,0|0,0:0|0:0,0:0:0:0:
272,356,10727,1,0,0:0:0:0:
392,332,10919,1,0,0:0:0:0:
424,220,11112,1,0,0:0:0:0:
360,112,11304,6,0,L|276:64,2,90.0000034332277,2|2|2,0:0|0:0|0:0,0:0:0:0:
404,136,12073,1,0,0:0:0:0:
276,184,12265,2,0,L|232:240,1,60.0000022888184
144,276,12650,1,0,0:0:0:0:
56,232,12842,1,0,0:0:0:0:
144,276,13035,5,0,0:0:0:0:
56,232,13227,2,0,L|92:172,1,60.0000022888184
140,92,13612,1,0,0:0:0:0:
260,112,13804,2,0,L|292:112,4,30.0000011444092
424,184,14381,1,4,0:0:0:0:
260,328,14573,5,4,0:0:0:0:
152,120,17458,5,4,0:0:0:0:
268,216,17650,1,4,0:0:0:0:
160,80,19765,6,0,L|128:148,1,60.0000022888184,0|8,0:0|0:0,0:0:0:0:
240,164,20150,2,0,L|224:192,2,30.0000011444092,0|8|8,0:0|0:0|0:0,0:0:0:0:
340,112,20535,1,0,0:0:0:0:
448,152,20727,1,0,0:0:0:0:
452,272,20919,1,0,0:0:0:0:
340,324,21112,5,0,0:0:0:0:
244,260,21304,1,0,0:0:0:0:
144,172,21496,2,0,L|104:172,2,30.0000011444092
96,252,21881,2,0,L|60:316,1,60.0000022888184
176,300,22265,2,0,L|208:240,1,60.0000022888184
360,88,22650,6,0,L|324:156,1,60.0000022888184
224,176,23035,2,0,L|196:232,1,60.0000022888184
136,168,23419,1,0,0:0:0:0:
72,236,23612,1,4,0:0:0:0:
136,304,23804,1,4,0:0:0:0:
224,252,23996,2,0,L|280:228,1,60.0000022888184
360,148,24381,6,0,L|400:128,3,30.0000011444092
432,116,24765,1,0,0:0:0:0:
288,68,24958,2,0,L|232:48,1,60.0000022888184
236,136,25342,2,0,L|208:188,1,60.0000022888184
116,184,25727,5,0,0:0:0:0:
48,268,25919,1,8,0:0:0:0:
116,184,26112,1,8,0:0:0:0:
176,272,26304,1,8,0:0:0:0:
256,184,26496,1,8,0:0:0:0:
328,280,26688,5,0,0:0:0:0:
424,236,27073,2,0,P|436:164|424:136,1,88.000002685547
356,180,27650,2,0,L|304:164,1,44.0000013427735
220,216,28035,1,0,0:0:0:0:
124,164,28227,1,0,0:0:0:0:
120,288,28612,5,0,0:0:0:0:
272,104,28996,1,0,0:0:0:0:
252,228,29573,6,0,L|308:248,1,44.0000013427735
396,284,30150,1,0,0:0:0:0:
396,284,30342,2,0,L|420:228,1,44.0000013427735
400,96,30727,6,0,L|360:120,1,44.0000013427735
280,172,31112,1,0,0:0:0:0:
120,232,31304,1,0,0:0:0:0:
324,340,31688,1,0,0:0:0:0:
168,72,32073,1,0,0:0:0:0:
352,200,32458,1,0,0:0:0:0:
232,248,32650,6,0,L|192:296,1,44.0000013427735
352,200,33227,1,0,0:0:0:0:
392,100,33419,2,0,L|344:64,1,44.0000013427735
116,80,33996,6,0,L|148:120,1,44.0000013427735
80,172,34381,2,0,L|140:252,2,88.000002685547,2|2|2,0:0|0:0|0:0,0:0:0:0:
196,180,35535,1,0,0:0:0:0:
268,120,35727,2,0,L|316:88,1,44.0000013427735
348,184,36112,2,0,L|400:220,1,44.0000013427735
312,268,36496,2,0,L|272:296,1,44.0000013427735
148,224,36881,6,0,L|128:164,1,44.0000013427735
49,251,37458,2,0,P|109:295|146:221,1,176.000005371094
160,128,38419,1,0,0:0:0:0:
268,32,38612,1,0,0:0:0:0:
364,144,38804,1,0,0:0:0:0:
360,324,38996,6,0,P|280:304|236:320,1,120
216,328,39381,2,0,P|148:344|112:344,1,80
44,348,39765,1,2,0:0:0:0:
52,240,39958,2,0,L|132:184,1,80
184,140,40342,1,0,0:0:0:0:
320,216,40535,5,0,0:0:0:0:
456,52,40919,1,0,0:0:0:0:
136,176,41304,1,2,0:0:0:0:
220,252,41592,2,0,L|268:288,1,40
288,300,41881,2,0,L|356:344,1,80,0|2,0:0|0:0,0:0:0:0:
396,212,42265,6,0,L|452:156,1,80
376,108,42650,2,0,L|304:56,1,80
152,144,43131,2,0,L|120:172,1,40
96,192,43419,2,0,P|56:236|56:284,1,80,0|2,0:0|0:0,0:0:0:0:
134,262,43996,1,0,0:0:0:0:
328,288,44381,5,0,0:0:0:0:
80,56,44765,1,0,0:0:0:0:
144,188,45150,1,0,0:0:0:0:
256,92,45438,2,0,L|308:128,1,40
304,152,45727,2,0,P|276:196|292:248,1,80,0|2,0:0|0:0,0:0:0:0:
296,316,46304,1,0,0:0:0:0:
216,264,46496,5,0,0:0:0:0:
280,192,46688,1,0,0:0:0:0:
48,80,47073,1,0,0:0:0:0:
316,24,47458,1,2,0:0:0:0:
188,172,47842,1,0,0:0:0:0:
280,232,48035,6,0,L|360:292,2,80
188,172,48612,1,0,0:0:0:0:
112,128,48804,1,0,0:0:0:0:
80,212,48996,1,0,0:0:0:0:
200,296,49188,1,0,0:0:0:0:
292,184,49573,5,0,0:0:0:0:
292,184,49669,1,0,0:0:0:0:
292,184,49765,1,0,0:0:0:0:
176,196,49958,6,0,L|116:260,1,80
72,176,50342,2,0,L|32:104,2,80
168,256,50919,2,0,L|224:328,2,80,0|0|4,0:0|0:0|0:0,0:0:0:0:
