osu file format v14

[General]
AudioFilename: uta.mp3
AudioLeadIn: 0
PreviewTime: 62721
Countdown: 0
SampleSet: Soft
StackLeniency: 0.7
Mode: 3
LetterboxInBreaks: 0
SpecialStyle: 0
WidescreenStoryboard: 0

[Editor]
DistanceSpacing: 1.9
BeatDivisor: 2
GridSize: 16
TimelineZoom: 0.8

[Metadata]
Title:Fuantei na Kamisama
TitleUnicode:不安定な神様
Artist:Suara
ArtistUnicode:Suara
Creator:Airachi
Version:EZ
Source:うたわれるもの 偽りの仮面
Tags:utawarerumono itsuwari no kamen opening tv size
BeatmapID:1049100
BeatmapSetID:488892

[Difficulty]
HPDrainRate:7
CircleSize:4
OverallDifficulty:7
ApproachRate:5
SliderMultiplier:1.4
SliderTickRate:1

[Events]
//Background and Video events
0,0,"kuon (2).jpg",0,0
//Break Periods
//Storyboard Layer 0 (Background)
//Storyboard Layer 1 (Fail)
//Storyboard Layer 2 (Pass)
//Storyboard Layer 3 (Foreground)
//Storyboard Sound Samples

[TimingPoints]
702,384.615384615385,4,2,1,25,1,0
13971,-100,4,2,1,20,0,0
18202,-100,4,2,1,10,0,0
18603,-100,4,2,1,25,0,0
25317,-100,4,2,2,20,0,0
37625,-100,4,2,3,20,0,0
48394,-100,4,2,1,20,0,0
63778,-100,4,2,1,25,0,1
86855,-100,4,2,1,25,0,0

[HitObjects]
64,192,702,128,0,2240:0:0:0:0:
448,192,2240,128,8,3778:0:0:0:0:
192,192,3778,128,0,5317:0:0:0:0:
64,192,5317,1,8,0:0:0:0:
448,192,5317,128,0,6855:0:0:0:0:
192,192,6855,128,0,8394:0:0:0:0:
64,192,8394,1,14,0:0:0:0:
448,192,8394,1,0,0:0:0:0:
320,192,8778,1,0,0:0:0:0:
192,192,9163,1,0,0:0:0:0:
448,192,9548,1,8,0:0:0:0:
64,192,9932,1,0,0:0:0:0:
320,192,10317,1,0,0:0:0:0:
192,192,10702,1,0,0:0:0:0:
448,192,11086,1,8,0:0:0:0:
64,192,11471,1,14,0:0:0:0:
192,192,11471,1,0,0:0:0:0:
448,192,11855,1,0,0:0:0:0:
192,192,12240,1,0,0:0:0:0:
320,192,12432,1,12,0:0:0:0:
192,192,12625,1,12,0:0:0:0:
320,192,12817,1,12,0:0:0:0:
64,192,13009,1,0,0:0:0:0:
192,192,13009,1,12,0:0:0:0:
320,192,13394,1,0,0:0:0:0:
448,192,13778,1,0,0:0:0:0:
192,192,14163,1,0,0:0:0:0:
448,192,14548,1,0,0:0:0:0:
64,192,14932,1,0,0:0:0:0:
320,192,15317,1,0,0:0:0:0:
64,192,15702,1,0,0:0:0:0:
448,192,16086,1,12,0:0:0:0:
448,192,16278,1,12,0:0:0:0:
320,192,16471,1,0,0:0:0:0:
64,192,16855,1,0,0:0:0:0:
320,192,17240,1,0,0:0:0:0:
64,192,17625,1,0,0:0:0:0:
448,192,18009,1,0,0:0:0:0:
192,192,18394,1,4,0:0:0:0:
448,192,18778,1,12,0:0:0:0:
192,192,19163,1,14,0:0:0:0:
320,192,19163,1,0,0:0:0:0:
64,192,19548,1,8,0:0:0:0:
448,192,19932,1,0,0:0:0:0:
320,192,20317,1,8,0:0:0:0:
64,192,20702,1,0,0:0:0:0:
192,192,21086,1,8,0:0:0:0:
448,192,21471,1,0,0:0:0:0:
320,192,21855,1,8,0:0:0:0:
64,192,22240,1,14,0:0:0:0:
192,192,22240,1,0,0:0:0:0:
448,192,22625,1,8,0:0:0:0:
192,192,23009,1,0,0:0:0:0:
320,192,23394,1,8,0:0:0:0:
64,192,23778,1,0,0:0:0:0:
192,192,24163,1,8,0:0:0:0:
448,192,24548,1,12,0:0:0:0:
448,192,24740,1,8,0:0:0:0:
64,192,24932,1,12,0:0:0:0:
64,192,25125,1,8,0:0:0:0:
192,192,25317,1,0,0:0:0:0:
448,192,25894,1,0,0:0:0:0:
192,192,26086,1,0,0:0:0:0:
448,192,26471,1,0,0:0:0:0:
192,192,26663,1,0,0:0:0:0:
320,192,26855,128,0,27240:0:0:0:0:
64,192,27240,128,0,27625:0:0:0:0:
448,192,27625,1,0,0:0:0:0:
192,192,28202,1,0,0:0:0:0:
320,192,28394,128,0,28778:0:0:0:0:
64,192,28971,1,0,0:0:0:0:
320,192,29163,1,0,0:0:0:0:
64,192,29548,1,0,0:0:0:0:
320,192,29740,1,0,0:0:0:0:
192,192,29932,128,0,30702:0:0:0:0:
448,192,30702,128,0,31471:0:0:0:0:
64,192,31471,128,0,32240:0:0:0:0:
320,192,32240,128,0,32625:0:0:0:0:
192,192,32625,128,0,33009:0:0:0:0:
64,192,33009,128,0,33778:0:0:0:0:
448,192,33778,128,0,34548:0:0:0:0:
320,192,34548,1,0,0:0:0:0:
64,192,34932,1,0,0:0:0:0:
192,192,35317,1,0,0:0:0:0:
320,192,35702,1,0,0:0:0:0:
448,192,36086,128,0,36855:0:0:0:0:
192,192,36855,1,0,0:0:0:0:
320,192,37240,1,0,0:0:0:0:
64,192,37625,1,8,0:0:0:0:
192,192,37625,1,0,0:0:0:0:
448,192,38009,1,8,0:0:0:0:
192,192,38394,1,0,0:0:0:0:
64,192,38778,1,8,0:0:0:0:
192,192,38971,1,8,0:0:0:0:
320,192,39163,128,8,39548:0:0:0:0:
192,192,39548,128,0,39932:0:0:0:0:
64,192,39932,128,0,40317:0:0:0:0:
448,192,40317,1,8,0:0:0:0:
192,192,40702,1,0,0:0:0:0:
320,192,40702,1,0,0:0:0:0:
64,192,41086,1,8,0:0:0:0:
320,192,41471,1,0,0:0:0:0:
448,192,41855,1,8,0:0:0:0:
320,192,42048,1,8,0:0:0:0:
192,192,42240,128,8,42625:0:0:0:0:
320,192,42625,128,0,43009:0:0:0:0:
448,192,43009,128,0,43394:0:0:0:0:
64,192,43394,1,8,0:0:0:0:
320,192,43586,1,8,0:0:0:0:
64,192,43778,128,8,44163:0:0:0:0:
320,192,44163,128,0,44548:0:0:0:0:
192,192,44548,128,0,44932:0:0:0:0:
448,192,44932,128,8,45317:0:0:0:0:
320,192,45317,1,0,0:0:0:0:
192,192,45702,1,8,0:0:0:0:
64,192,46086,1,0,0:0:0:0:
448,192,46471,1,8,0:0:0:0:
320,192,46663,1,8,0:0:0:0:
192,192,46855,1,8,0:0:0:0:
448,192,47240,1,8,0:0:0:0:
64,192,47625,1,0,0:0:0:0:
192,192,48009,1,8,0:0:0:0:
320,192,48202,1,8,0:0:0:0:
448,192,48394,1,8,0:0:0:0:
448,192,48778,1,0,0:0:0:0:
64,192,49163,1,8,0:0:0:0:
448,192,49355,1,8,0:0:0:0:
64,192,49548,1,8,0:0:0:0:
448,192,49740,1,8,0:0:0:0:
192,192,49932,1,14,0:0:0:0:
320,192,49932,1,0,0:0:0:0:
64,192,50317,1,8,0:0:0:0:
448,192,50702,1,0,0:0:0:0:
320,192,51086,1,8,0:0:0:0:
192,192,51278,1,8,0:0:0:0:
448,192,51471,1,0,0:0:0:0:
64,192,51471,1,8,0:0:0:0:
320,192,51855,1,8,0:0:0:0:
192,192,52240,1,0,0:0:0:0:
64,192,52625,1,8,0:0:0:0:
192,192,52817,1,8,0:0:0:0:
320,192,53009,1,8,0:0:0:0:
448,192,53009,1,0,0:0:0:0:
192,192,53394,1,8,0:0:0:0:
64,192,53778,1,0,0:0:0:0:
192,192,54163,1,8,0:0:0:0:
320,192,54355,1,8,0:0:0:0:
64,192,54548,1,0,0:0:0:0:
448,192,54548,1,8,0:0:0:0:
320,192,54932,1,8,0:0:0:0:
192,192,55317,1,0,0:0:0:0:
448,192,55702,1,8,0:0:0:0:
320,192,55894,1,8,0:0:0:0:
64,192,56086,1,0,0:0:0:0:
192,192,56086,1,14,0:0:0:0:
448,192,56471,1,8,0:0:0:0:
64,192,56855,1,0,0:0:0:0:
320,192,57240,1,8,0:0:0:0:
192,192,57432,1,8,0:0:0:0:
448,192,57625,1,0,0:0:0:0:
64,192,57625,1,8,0:0:0:0:
192,192,58009,1,8,0:0:0:0:
448,192,58394,1,0,0:0:0:0:
64,192,58778,1,8,0:0:0:0:
192,192,58971,1,8,0:0:0:0:
320,192,59163,1,14,0:0:0:0:
448,192,59163,1,0,0:0:0:0:
64,192,59548,1,8,0:0:0:0:
320,192,59932,1,0,0:0:0:0:
192,192,60317,1,8,0:0:0:0:
320,192,60509,1,8,0:0:0:0:
64,192,60702,1,0,0:0:0:0:
448,192,60702,1,14,0:0:0:0:
320,192,61086,1,8,0:0:0:0:
192,192,61471,1,0,0:0:0:0:
448,192,61663,1,8,0:0:0:0:
64,192,61855,1,8,0:0:0:0:
320,192,62048,1,8,0:0:0:0:
192,192,62240,128,8,62625:0:0:0:0:
448,192,62817,1,12,0:0:0:0:
320,192,63009,1,12,0:0:0:0:
64,192,63202,1,12,0:0:0:0:
192,192,63394,1,12,0:0:0:0:
320,192,63586,1,12,0:0:0:0:
64,192,63778,1,12,0:0:0:0:
448,192,63778,1,0,0:0:0:0:
320,192,64163,1,8,0:0:0:0:
64,192,64548,1,0,0:0:0:0:
320,192,64932,1,0,0:0:0:0:
192,192,64932,1,8,0:0:0:0:
448,192,65317,1,0,0:0:0:0:
192,192,65702,1,8,0:0:0:0:
448,192,66086,1,0,0:0:0:0:
64,192,66471,1,8,0:0:0:0:
192,192,66471,1,0,0:0:0:0:
320,192,66855,1,0,0:0:0:0:
64,192,67240,1,8,0:0:0:0:
320,192,67625,1,0,0:0:0:0:
64,192,68009,1,8,0:0:0:0:
448,192,68009,1,0,0:0:0:0:
192,192,68394,1,0,0:0:0:0:
448,192,68778,1,8,0:0:0:0:
64,192,69163,1,0,0:0:0:0:
192,192,69355,1,0,0:0:0:0:
320,192,69548,1,8,0:0:0:0:
192,192,69740,1,8,0:0:0:0:
64,192,69932,1,14,0:0:0:0:
448,192,69932,1,0,0:0:0:0:
320,192,70317,1,8,0:0:0:0:
192,192,70702,1,0,0:0:0:0:
320,192,71086,1,8,0:0:0:0:
448,192,71086,1,0,0:0:0:0:
64,192,71471,1,0,0:0:0:0:
320,192,71855,1,8,0:0:0:0:
448,192,72240,1,0,0:0:0:0:
64,192,72240,1,12,0:0:0:0:
192,192,72625,1,12,0:0:0:0:
320,192,72625,1,0,0:0:0:0:
64,192,73009,1,12,0:0:0:0:
448,192,73009,1,0,0:0:0:0:
320,192,73394,1,8,0:0:0:0:
192,192,73778,1,0,0:0:0:0:
320,192,74163,1,8,0:0:0:0:
64,192,74548,1,10,0:0:0:0:
448,192,74548,1,0,0:0:0:0:
192,192,74740,1,12,0:0:0:0:
321,192,74932,1,12,0:0:0:0:
448,192,75317,1,8,0:0:0:0:
320,192,75509,1,8,0:0:0:0:
64,192,75702,1,8,0:0:0:0:
192,192,75894,1,8,0:0:0:0:
320,192,76086,1,14,0:0:0:0:
448,192,76086,1,0,0:0:0:0:
64,192,76471,1,8,0:0:0:0:
448,192,76855,1,0,0:0:0:0:
192,192,77240,1,8,0:0:0:0:
320,192,77240,1,0,0:0:0:0:
448,192,77625,1,0,0:0:0:0:
320,192,78009,1,8,0:0:0:0:
192,192,78394,1,0,0:0:0:0:
448,192,78778,1,0,0:0:0:0:
64,192,78778,1,8,0:0:0:0:
320,192,79163,1,0,0:0:0:0:
64,192,79548,1,8,0:0:0:0:
192,192,79932,1,0,0:0:0:0:
320,192,80317,1,0,0:0:0:0:
64,192,80317,1,8,0:0:0:0:
448,192,80702,1,0,0:0:0:0:
192,192,81086,1,8,0:0:0:0:
320,192,81471,1,0,0:0:0:0:
448,192,81855,1,8,0:0:0:0:
192,192,81855,1,0,0:0:0:0:
64,192,82240,128,0,83009:0:0:0:0:
320,192,82240,1,8,0:0:0:0:
192,192,82625,1,8,0:0:0:0:
448,192,83009,128,0,83778:0:0:0:0:
320,192,83394,1,8,0:0:0:0:
64,192,83778,128,0,84548:0:0:0:0:
192,192,84163,1,8,0:0:0:0:
448,192,84548,128,0,85317:0:0:0:0:
320,192,84932,1,8,0:0:0:0:
192,192,85317,1,10,0:0:0:0:
64,192,85317,1,0,0:0:0:0:
320,192,85702,1,8,0:0:0:0:
64,192,86086,1,8,0:0:0:0:
448,192,86086,1,0,0:0:0:0:
320,192,86278,1,0,0:0:0:0:
192,192,86471,1,0,0:0:0:0:
64,192,86663,1,0,0:0:0:0:
320,192,86855,1,14,0:0:0:0:
448,192,86855,1,0,0:0:0:0:
