osu file format v14

[General]
AudioFilename: OPFUANTEINA.mp3
AudioLeadIn: 0
PreviewTime: 64061
Countdown: 1
SampleSet: Soft
StackLeniency: 0.7
Mode: 1
LetterboxInBreaks: 0
WidescreenStoryboard: 1

[Editor]
DistanceSpacing: 2.4
BeatDivisor: 4
GridSize: 4
TimelineZoom: 2.799999

[Metadata]
Title:Fuantei Na Kamisama (Full Ver.)
TitleUnicode:Fuantei Na Kamisama (Full Ver.)
Artist:Suara
ArtistUnicode:Suara
Creator:TimmyAkmed
Version:Collab Oni
Source:うたわれるもの 偽りの仮面
Tags:utawarerumono itsuwari no kamen opening aquaplus tv size
BeatmapID:994311
BeatmapSetID:464367

[Difficulty]
HPDrainRate:5
CircleSize:2
OverallDifficulty:5
ApproachRate:5
SliderMultiplier:1.5999999666214
SliderTickRate:1

[Events]
//Background and Video events
0,0,"BGfuanteinaMap.jpg",50,100
//Break Periods
//Storyboard Layer 0 (Background)
//Storyboard Layer 1 (Fail)
//Storyboard Layer 2 (Pass)
//Storyboard Layer 3 (Foreground)
//Storyboard Sound Samples

[TimingPoints]
2118,384.615384615385,4,2,0,100,1,0
65194,-100,4,2,0,100,0,1
88271,-100,4,2,0,100,0,0
126733,-100,4,2,0,100,0,1
149810,-100,4,2,0,100,0,0
189810,-100,4,2,0,100,0,1
200579,-100,4,2,0,100,0,0

[HitObjects]
256,192,2887,12,0,3464,0:0:0:0:
256,192,3656,5,4,0:0:0:0:
256,192,3848,1,8,0:0:0:0:
256,192,4041,1,0,0:0:0:0:
256,192,4137,1,0,0:0:0:0:
256,192,4233,1,8,0:0:0:0:
256,192,4425,1,0,0:0:0:0:
256,192,4521,1,0,0:0:0:0:
256,192,4618,1,8,0:0:0:0:
256,192,4810,1,0,0:0:0:0:
256,192,4906,1,0,0:0:0:0:
256,192,5002,1,8,0:0:0:0:
256,192,5098,1,8,0:0:0:0:
256,192,5194,1,0,0:0:0:0:
256,192,5387,1,8,0:0:0:0:
256,192,5579,1,0,0:0:0:0:
256,192,5675,1,0,0:0:0:0:
256,192,5771,1,8,0:0:0:0:
256,192,5964,1,0,0:0:0:0:
256,192,6060,1,0,0:0:0:0:
256,192,6156,1,8,0:0:0:0:
256,192,6348,1,0,0:0:0:0:
256,192,6444,1,0,0:0:0:0:
256,192,6541,1,8,0:0:0:0:
256,192,6637,1,8,0:0:0:0:
256,192,6733,1,4,0:0:0:0:
256,192,6925,1,8,0:0:0:0:
256,192,7118,1,0,0:0:0:0:
256,192,7214,1,0,0:0:0:0:
256,192,7310,1,8,0:0:0:0:
256,192,7502,1,0,0:0:0:0:
256,192,7598,1,0,0:0:0:0:
256,192,7694,1,8,0:0:0:0:
256,192,7887,1,0,0:0:0:0:
256,192,7983,1,0,0:0:0:0:
256,192,8079,1,8,0:0:0:0:
256,192,8175,1,8,0:0:0:0:
256,192,8271,1,0,0:0:0:0:
256,192,8368,1,0,0:0:0:0:
256,192,8464,1,8,0:0:0:0:
256,192,8656,1,0,0:0:0:0:
256,192,8752,1,0,0:0:0:0:
256,192,8848,1,8,0:0:0:0:
256,192,9041,1,0,0:0:0:0:
256,192,9137,1,0,0:0:0:0:
256,192,9233,1,8,0:0:0:0:
256,192,9425,1,0,0:0:0:0:
256,192,9521,1,0,0:0:0:0:
256,192,9618,1,8,0:0:0:0:
256,192,9810,1,4,0:0:0:0:
256,192,10098,1,0,0:0:0:0:
256,192,10194,1,8,0:0:0:0:
256,192,10387,1,8,0:0:0:0:
256,192,10579,1,0,0:0:0:0:
256,192,10771,1,0,0:0:0:0:
256,192,10964,1,8,0:0:0:0:
256,192,11156,1,8,0:0:0:0:
256,192,11348,1,4,0:0:0:0:
256,192,11637,1,8,0:0:0:0:
256,192,11733,1,0,0:0:0:0:
256,192,11925,1,0,0:0:0:0:
256,192,12118,1,12,0:0:0:0:
256,192,12310,1,8,0:0:0:0:
256,192,12502,1,0,0:0:0:0:
256,192,12566,1,0,0:0:0:0:
256,192,12630,1,0,0:0:0:0:
256,192,12694,1,0,0:0:0:0:
256,192,12887,1,12,0:0:0:0:
256,192,13175,1,8,0:0:0:0:
256,192,13271,1,8,0:0:0:0:
256,192,13368,1,0,0:0:0:0:
256,192,13464,1,8,0:0:0:0:
256,192,13656,1,0,0:0:0:0:
256,192,13848,1,8,0:0:0:0:
256,192,13944,1,0,0:0:0:0:
256,192,14041,1,8,0:0:0:0:
256,192,14137,1,0,0:0:0:0:
256,192,14233,1,8,0:0:0:0:
256,192,14425,1,4,0:0:0:0:
256,192,14618,1,4,0:0:0:0:
256,192,15194,1,0,0:0:0:0:
256,192,15387,1,8,0:0:0:0:
256,192,15483,1,8,0:0:0:0:
256,192,15579,1,0,0:0:0:0:
256,192,15771,1,8,0:0:0:0:
256,192,15964,1,0,0:0:0:0:
256,192,16156,1,0,0:0:0:0:
256,192,16348,1,8,0:0:0:0:
256,192,16733,1,8,0:0:0:0:
256,192,17021,1,8,0:0:0:0:
256,192,17310,1,8,0:0:0:0:
256,192,17502,1,4,0:0:0:0:
256,192,17694,1,4,0:0:0:0:
256,192,17887,1,8,0:0:0:0:
256,192,18271,1,8,0:0:0:0:
256,192,18335,1,8,0:0:0:0:
256,192,18400,1,8,0:0:0:0:
256,192,18464,1,0,0:0:0:0:
256,192,18560,1,8,0:0:0:0:
256,192,18656,1,0,0:0:0:0:
256,192,18848,1,8,0:0:0:0:
256,192,19041,1,0,0:0:0:0:
256,192,19233,1,0,0:0:0:0:
256,192,19425,1,8,0:0:0:0:
256,192,19521,1,8,0:0:0:0:
256,192,19618,1,8,0:0:0:0:
256,192,19810,1,0,0:0:0:0:
256,192,20002,1,8,0:0:0:0:
256,192,20194,1,0,0:0:0:0:
256,192,20291,1,0,0:0:0:0:
256,192,20387,1,8,0:0:0:0:
256,192,20579,1,4,0:0:0:0:
256,192,20771,1,0,0:0:0:0:
256,192,20868,1,0,0:0:0:0:
256,192,20964,1,8,0:0:0:0:
256,192,21156,1,0,0:0:0:0:
256,192,21348,1,8,0:0:0:0:
256,192,21444,1,8,0:0:0:0:
256,192,21541,1,0,0:0:0:0:
256,192,21637,1,0,0:0:0:0:
256,192,21733,1,8,0:0:0:0:
256,192,21925,1,8,0:0:0:0:
256,192,22118,1,0,0:0:0:0:
256,192,22310,1,0,0:0:0:0:
256,192,22406,1,0,0:0:0:0:
256,192,22502,1,8,0:0:0:0:
256,192,22598,1,0,0:0:0:0:
256,192,22694,1,8,0:0:0:0:
256,192,22791,1,8,0:0:0:0:
256,192,22887,1,0,0:0:0:0:
256,192,23079,1,0,0:0:0:0:
256,192,23175,1,0,0:0:0:0:
256,192,23271,1,8,0:0:0:0:
256,192,23464,1,8,0:0:0:0:
256,192,23656,1,4,0:0:0:0:
256,192,23848,1,0,0:0:0:0:
256,192,23944,1,0,0:0:0:0:
256,192,24041,1,8,0:0:0:0:
256,192,24233,1,8,0:0:0:0:
256,192,24425,1,0,0:0:0:0:
256,192,24521,1,8,0:0:0:0:
256,192,24618,1,0,0:0:0:0:
256,192,24714,1,0,0:0:0:0:
256,192,24810,1,8,0:0:0:0:
256,192,25002,1,0,0:0:0:0:
256,192,25194,1,8,0:0:0:0:
256,192,25291,1,8,0:0:0:0:
256,192,25387,1,0,0:0:0:0:
256,192,25483,1,0,0:0:0:0:
256,192,25579,1,8,0:0:0:0:
256,192,25771,1,8,0:0:0:0:
256,192,25964,1,4,0:0:0:0:
256,192,26156,1,4,0:0:0:0:
256,192,26348,1,12,0:0:0:0:
256,192,26541,1,12,0:0:0:0:
256,192,26733,1,0,0:0:0:0:
256,192,27310,1,0,0:0:0:0:
256,192,27502,1,0,0:0:0:0:
256,192,27887,1,8,0:0:0:0:
256,192,28079,1,8,0:0:0:0:
256,192,28271,1,0,0:0:0:0:
256,192,28656,1,8,0:0:0:0:
256,192,29041,1,0,0:0:0:0:
256,192,29618,1,8,0:0:0:0:
256,192,29810,1,0,0:0:0:0:
256,192,30387,1,0,0:0:0:0:
256,192,30579,1,0,0:0:0:0:
256,192,30964,1,8,0:0:0:0:
256,192,31156,1,0,0:0:0:0:
256,192,31348,1,0,0:0:0:0:
256,192,31733,1,8,0:0:0:0:
256,192,32118,1,0,0:0:0:0:
256,192,32502,1,8,0:0:0:0:
256,192,32694,1,8,0:0:0:0:
256,192,32887,1,0,0:0:0:0:
256,192,33464,1,0,0:0:0:0:
256,192,33656,1,0,0:0:0:0:
256,192,34041,1,8,0:0:0:0:
256,192,34233,1,8,0:0:0:0:
256,192,34425,1,0,0:0:0:0:
256,192,34810,1,0,0:0:0:0:
256,192,35194,1,8,0:0:0:0:
256,192,35579,1,0,0:0:0:0:
256,192,35771,1,0,0:0:0:0:
256,192,35964,1,8,0:0:0:0:
256,192,36348,1,8,0:0:0:0:
256,192,36733,1,0,0:0:0:0:
256,192,37118,1,0,0:0:0:0:
256,192,37502,1,0,0:0:0:0:
256,192,38271,1,8,0:0:0:0:
256,192,39041,1,0,0:0:0:0:
256,192,39137,1,0,0:0:0:0:
256,192,39329,1,0,0:0:0:0:
256,192,39425,1,8,0:0:0:0:
256,192,39618,1,0,0:0:0:0:
256,192,39810,1,8,0:0:0:0:
256,192,39906,1,8,0:0:0:0:
256,192,40002,1,0,0:0:0:0:
256,192,40098,1,0,0:0:0:0:
256,192,40194,1,8,0:0:0:0:
256,192,40387,1,8,0:0:0:0:
256,192,40579,1,4,0:0:0:0:
256,192,40964,1,12,0:0:0:0:
256,192,41348,1,0,0:0:0:0:
256,192,41444,1,8,0:0:0:0:
256,192,41541,1,0,0:0:0:0:
256,192,41637,1,0,0:0:0:0:
256,192,41733,1,8,0:0:0:0:
256,192,41925,1,8,0:0:0:0:
256,192,42118,1,0,0:0:0:0:
256,192,42214,1,0,0:0:0:0:
256,192,42406,1,0,0:0:0:0:
256,192,42502,1,8,0:0:0:0:
256,192,42694,1,0,0:0:0:0:
256,192,42887,1,8,0:0:0:0:
256,192,43175,1,0,0:0:0:0:
256,192,43271,1,8,0:0:0:0:
256,192,43464,1,8,0:0:0:0:
256,192,43656,1,0,0:0:0:0:
256,192,43944,1,0,0:0:0:0:
256,192,44041,1,8,0:0:0:0:
256,192,44233,1,0,0:0:0:0:
256,192,44425,1,0,0:0:0:0:
256,192,44521,1,0,0:0:0:0:
256,192,44618,1,0,0:0:0:0:
256,192,44810,1,8,0:0:0:0:
256,192,45002,1,8,0:0:0:0:
256,192,45194,1,4,0:0:0:0:
256,192,45483,1,0,0:0:0:0:
256,192,45579,1,8,0:0:0:0:
256,192,45771,1,0,0:0:0:0:
256,192,45964,1,12,0:0:0:0:
256,192,46252,1,0,0:0:0:0:
256,192,46348,1,8,0:0:0:0:
256,192,46541,1,8,0:0:0:0:
256,192,46733,1,4,0:0:0:0:
256,192,47118,1,12,0:0:0:0:
256,192,47502,1,4,0:0:0:0:
256,192,47694,1,0,0:0:0:0:
256,192,47791,1,0,0:0:0:0:
256,192,47887,1,8,0:0:0:0:
256,192,48079,1,0,0:0:0:0:
256,192,48271,1,0,0:0:0:0:
256,192,48656,1,8,0:0:0:0:
256,192,48944,1,8,0:0:0:0:
256,192,49041,1,0,0:0:0:0:
256,192,49233,1,0,0:0:0:0:
256,192,49425,1,8,0:0:0:0:
256,192,49521,1,0,0:0:0:0:
256,192,49618,1,0,0:0:0:0:
256,192,49714,1,8,0:0:0:0:
256,192,49810,1,0,0:0:0:0:
256,192,49906,1,8,0:0:0:0:
256,192,50002,1,0,0:0:0:0:
256,192,50098,1,0,0:0:0:0:
256,192,50194,1,8,0:0:0:0:
256,192,50291,1,0,0:0:0:0:
256,192,50387,1,0,0:0:0:0:
256,192,50483,1,8,0:0:0:0:
256,192,50579,1,0,0:0:0:0:
256,192,50675,1,8,0:0:0:0:
256,192,50771,1,0,0:0:0:0:
256,192,50868,1,0,0:0:0:0:
256,192,50964,1,8,0:0:0:0:
256,192,51060,1,8,0:0:0:0:
256,192,51156,1,8,0:0:0:0:
256,192,51348,1,4,0:0:0:0:
256,192,51637,1,0,0:0:0:0:
256,192,51733,1,8,0:0:0:0:
256,192,51925,1,8,0:0:0:0:
256,192,52021,1,8,0:0:0:0:
256,192,52118,1,0,0:0:0:0:
256,192,52310,1,0,0:0:0:0:
256,192,52406,1,0,0:0:0:0:
256,192,52502,1,8,0:0:0:0:
256,192,52694,1,8,0:0:0:0:
256,192,52887,1,0,0:0:0:0:
256,192,53175,1,0,0:0:0:0:
256,192,53271,1,8,0:0:0:0:
256,192,53464,1,8,0:0:0:0:
256,192,53560,1,8,0:0:0:0:
256,192,53656,1,0,0:0:0:0:
256,192,53848,1,0,0:0:0:0:
256,192,53944,1,0,0:0:0:0:
256,192,54041,1,8,0:0:0:0:
256,192,54233,1,0,0:0:0:0:
256,192,54425,1,4,0:0:0:0:
256,192,54714,1,0,0:0:0:0:
256,192,54810,1,8,0:0:0:0:
256,192,55002,1,8,0:0:0:0:
256,192,55098,1,8,0:0:0:0:
256,192,55194,1,0,0:0:0:0:
256,192,55387,1,0,0:0:0:0:
256,192,55483,1,0,0:0:0:0:
256,192,55579,1,8,0:0:0:0:
256,192,55771,1,8,0:0:0:0:
256,192,55964,1,0,0:0:0:0:
256,192,56252,1,0,0:0:0:0:
256,192,56348,1,8,0:0:0:0:
256,192,56541,1,0,0:0:0:0:
256,192,56733,1,8,0:0:0:0:
256,192,56829,1,8,0:0:0:0:
256,192,56925,1,0,0:0:0:0:
256,192,57021,1,0,0:0:0:0:
256,192,57118,1,8,0:0:0:0:
256,192,57310,1,0,0:0:0:0:
256,192,57502,1,4,0:0:0:0:
256,192,57791,1,0,0:0:0:0:
256,192,57887,1,8,0:0:0:0:
256,192,58079,1,0,0:0:0:0:
256,192,58175,1,8,0:0:0:0:
256,192,58271,1,0,0:0:0:0:
256,192,58464,1,0,0:0:0:0:
256,192,58656,1,8,0:0:0:0:
256,192,59041,1,4,0:0:0:0:
256,192,59329,1,8,0:0:0:0:
256,192,59425,1,0,0:0:0:0:
256,192,59618,1,8,0:0:0:0:
256,192,59714,1,8,0:0:0:0:
256,192,59810,1,0,0:0:0:0:
256,192,59906,1,8,0:0:0:0:
256,192,60002,1,0,0:0:0:0:
256,192,60194,1,8,0:0:0:0:
256,192,60579,1,4,0:0:0:0:
256,192,60964,1,8,0:0:0:0:
256,192,61348,1,0,0:0:0:0:
256,192,61541,1,0,0:0:0:0:
256,192,61733,1,8,0:0:0:0:
256,192,62118,1,4,0:0:0:0:
256,192,62502,1,8,0:0:0:0:
256,192,62694,1,0,0:0:0:0:
256,192,62791,1,8,0:0:0:0:
256,192,62887,1,0,0:0:0:0:
256,192,63079,1,8,0:0:0:0:
256,192,63271,1,8,0:0:0:0:
256,192,63464,1,8,0:0:0:0:
256,192,63656,1,0,0:0:0:0:
256,192,63752,1,8,0:0:0:0:
256,192,63848,1,0,0:0:0:0:
256,192,63944,1,0,0:0:0:0:
256,192,64041,1,8,0:0:0:0:
256,192,64233,1,0,0:0:0:0:
256,192,64329,1,8,0:0:0:0:
256,192,64425,1,0,0:0:0:0:
256,192,64618,1,8,0:0:0:0:
256,192,64810,1,8,0:0:0:0:
256,192,65002,1,8,0:0:0:0:
256,192,65194,1,4,0:0:0:0:
256,192,65579,1,8,0:0:0:0:
256,192,65771,1,0,0:0:0:0:
256,192,65868,1,0,0:0:0:0:
256,192,65964,1,0,0:0:0:0:
256,192,66156,1,0,0:0:0:0:
256,192,66348,1,8,0:0:0:0:
256,192,66541,1,4,0:0:0:0:
256,192,66925,1,8,0:0:0:0:
256,192,67021,1,8,0:0:0:0:
256,192,67118,1,0,0:0:0:0:
256,192,67310,1,0,0:0:0:0:
256,192,67502,1,0,0:0:0:0:
256,192,67694,1,8,0:0:0:0:
256,192,67791,1,8,0:0:0:0:
256,192,67887,1,0,0:0:0:0:
256,192,68079,1,0,0:0:0:0:
256,192,68271,1,12,0:0:0:0:
256,192,68464,1,0,0:0:0:0:
256,192,68560,1,0,0:0:0:0:
256,192,68656,1,8,0:0:0:0:
256,192,68848,1,0,0:0:0:0:
256,192,69041,1,8,0:0:0:0:
256,192,69137,1,8,0:0:0:0:
256,192,69233,1,0,0:0:0:0:
256,192,69329,1,0,0:0:0:0:
256,192,69425,1,8,0:0:0:0:
256,192,69618,1,4,0:0:0:0:
256,192,70002,1,0,0:0:0:0:
256,192,70098,1,0,0:0:0:0:
256,192,70194,1,8,0:0:0:0:
256,192,70387,1,0,0:0:0:0:
256,192,70483,1,8,0:0:0:0:
256,192,70579,1,0,0:0:0:0:
256,192,70675,1,0,0:0:0:0:
256,192,70771,1,0,0:0:0:0:
256,192,70964,1,8,0:0:0:0:
256,192,71156,1,0,0:0:0:0:
256,192,71348,1,4,0:0:0:0:
256,192,71733,1,8,0:0:0:0:
256,192,71925,1,0,0:0:0:0:
256,192,72021,1,8,0:0:0:0:
256,192,72118,1,0,0:0:0:0:
256,192,72310,1,0,0:0:0:0:
256,192,72406,1,0,0:0:0:0:
256,192,72502,1,8,0:0:0:0:
256,192,72694,1,0,0:0:0:0:
256,192,72887,1,4,0:0:0:0:
256,192,73271,1,8,0:0:0:0:
256,192,73464,1,0,0:0:0:0:
256,192,73656,1,12,0:0:0:0:
256,192,74041,1,8,0:0:0:0:
256,192,74233,1,0,0:0:0:0:
256,192,74425,1,4,0:0:0:0:
256,192,74714,1,0,0:0:0:0:
256,192,74810,1,8,0:0:0:0:
256,192,75002,1,0,0:0:0:0:
256,192,75098,1,8,0:0:0:0:
256,192,75194,1,0,0:0:0:0:
256,192,75291,1,0,0:0:0:0:
256,192,75483,1,0,0:0:0:0:
256,192,75579,1,8,0:0:0:0:
256,192,75771,1,0,0:0:0:0:
256,192,76156,1,12,0:0:0:0:
256,192,76348,1,12,0:0:0:0:
256,192,76541,1,0,0:0:0:0:
256,192,76637,1,0,0:0:0:0:
256,192,76733,1,0,0:0:0:0:
256,192,76829,1,0,0:0:0:0:
256,192,76925,1,8,0:0:0:0:
256,192,77021,1,0,0:0:0:0:
256,192,77118,1,8,0:0:0:0:
256,192,77214,1,8,0:0:0:0:
256,192,77310,1,0,0:0:0:0:
256,192,77502,1,12,0:0:0:0:
256,192,77887,1,8,0:0:0:0:
256,192,78079,1,0,0:0:0:0:
256,192,78175,1,0,0:0:0:0:
256,192,78271,1,0,0:0:0:0:
256,192,78464,1,0,0:0:0:0:
256,192,78656,1,8,0:0:0:0:
256,192,78848,1,4,0:0:0:0:
256,192,79233,1,8,0:0:0:0:
256,192,79329,1,8,0:0:0:0:
256,192,79425,1,0,0:0:0:0:
256,192,79618,1,0,0:0:0:0:
256,192,79810,1,0,0:0:0:0:
256,192,80002,1,8,0:0:0:0:
256,192,80098,1,8,0:0:0:0:
256,192,80194,1,0,0:0:0:0:
256,192,80387,1,0,0:0:0:0:
256,192,80579,1,12,0:0:0:0:
256,192,80964,1,8,0:0:0:0:
256,192,81156,1,0,0:0:0:0:
256,192,81348,1,8,0:0:0:0:
256,192,81444,1,8,0:0:0:0:
256,192,81541,1,0,0:0:0:0:
256,192,81637,1,0,0:0:0:0:
256,192,81733,1,8,0:0:0:0:
256,192,81925,1,0,0:0:0:0:
256,192,82118,1,8,0:0:0:0:
256,192,82214,1,8,0:0:0:0:
256,192,82310,1,0,0:0:0:0:
256,192,82502,1,8,0:0:0:0:
256,192,82694,1,0,0:0:0:0:
256,192,82791,1,8,0:0:0:0:
256,192,82887,1,0,0:0:0:0:
256,192,82983,1,0,0:0:0:0:
256,192,83079,1,0,0:0:0:0:
256,192,83271,1,8,0:0:0:0:
256,192,83464,1,0,0:0:0:0:
256,192,83656,1,12,0:0:0:0:
256,192,83944,1,8,0:0:0:0:
256,192,84233,1,0,0:0:0:0:
256,192,84425,1,8,0:0:0:0:
256,192,84521,1,8,0:0:0:0:
256,192,84618,1,0,0:0:0:0:
256,192,84810,1,8,0:0:0:0:
256,192,85002,1,0,0:0:0:0:
256,192,85194,1,4,0:0:0:0:
256,192,85483,1,0,0:0:0:0:
256,192,85579,1,8,0:0:0:0:
256,192,85771,1,0,0:0:0:0:
256,192,85964,1,0,0:0:0:0:
256,192,86060,1,8,0:0:0:0:
256,192,86156,1,0,0:0:0:0:
256,192,86348,1,8,0:0:0:0:
256,192,86733,1,4,0:0:0:0:
256,192,87021,1,0,0:0:0:0:
256,192,87310,1,8,0:0:0:0:
256,192,87502,1,4,0:0:0:0:
256,192,87694,1,8,0:0:0:0:
256,192,87791,1,0,0:0:0:0:
256,192,87887,1,8,0:0:0:0:
256,192,87983,1,0,0:0:0:0:
256,192,88079,1,8,0:0:0:0:
256,192,88175,1,8,0:0:0:0:
256,192,88271,1,4,0:0:0:0:
256,192,88464,1,4,0:0:0:0:
256,192,89041,1,0,0:0:0:0:
256,192,89233,1,8,0:0:0:0:
256,192,89329,1,8,0:0:0:0:
256,192,89425,1,0,0:0:0:0:
256,192,89618,1,8,0:0:0:0:
256,192,89810,1,0,0:0:0:0:
256,192,90002,1,0,0:0:0:0:
256,192,90194,1,8,0:0:0:0:
256,192,90579,1,8,0:0:0:0:
256,192,90868,1,8,0:0:0:0:
256,192,91156,1,8,0:0:0:0:
256,192,91348,1,4,0:0:0:0:
256,192,91541,1,4,0:0:0:0:
256,192,91733,1,8,0:0:0:0:
256,192,92118,1,8,0:0:0:0:
256,192,92182,1,8,0:0:0:0:
256,192,92246,1,8,0:0:0:0:
256,192,92310,1,0,0:0:0:0:
256,192,92406,1,8,0:0:0:0:
256,192,92502,1,0,0:0:0:0:
256,192,92694,1,8,0:0:0:0:
256,192,92887,1,0,0:0:0:0:
256,192,93079,1,0,0:0:0:0:
256,192,93271,1,8,0:0:0:0:
256,192,93368,1,8,0:0:0:0:
256,192,93464,1,8,0:0:0:0:
256,192,93656,1,0,0:0:0:0:
256,192,93848,1,8,0:0:0:0:
256,192,94041,1,0,0:0:0:0:
256,192,94137,1,0,0:0:0:0:
256,192,94233,1,8,0:0:0:0:
256,192,94425,1,4,0:0:0:0:
256,192,94618,1,0,0:0:0:0:
256,192,94714,1,0,0:0:0:0:
256,192,94810,1,8,0:0:0:0:
256,192,95002,1,0,0:0:0:0:
256,192,95194,1,8,0:0:0:0:
256,192,95291,1,8,0:0:0:0:
256,192,95387,1,0,0:0:0:0:
256,192,95483,1,0,0:0:0:0:
256,192,95579,1,8,0:0:0:0:
256,192,95771,1,8,0:0:0:0:
256,192,95964,1,0,0:0:0:0:
256,192,96156,1,0,0:0:0:0:
256,192,96252,1,0,0:0:0:0:
256,192,96348,1,8,0:0:0:0:
256,192,96444,1,0,0:0:0:0:
256,192,96541,1,8,0:0:0:0:
256,192,96637,1,8,0:0:0:0:
256,192,96733,1,0,0:0:0:0:
256,192,96925,1,0,0:0:0:0:
256,192,97021,1,0,0:0:0:0:
256,192,97118,1,8,0:0:0:0:
256,192,97310,1,8,0:0:0:0:
256,192,97502,1,4,0:0:0:0:
256,192,97694,1,0,0:0:0:0:
256,192,97791,1,0,0:0:0:0:
256,192,97887,1,8,0:0:0:0:
256,192,98079,1,8,0:0:0:0:
256,192,98271,1,0,0:0:0:0:
256,192,98368,1,8,0:0:0:0:
256,192,98464,1,0,0:0:0:0:
256,192,98560,1,0,0:0:0:0:
256,192,98656,1,8,0:0:0:0:
256,192,98848,1,0,0:0:0:0:
256,192,99041,1,8,0:0:0:0:
256,192,99137,1,8,0:0:0:0:
256,192,99233,1,0,0:0:0:0:
256,192,99329,1,0,0:0:0:0:
256,192,99425,1,8,0:0:0:0:
256,192,99618,1,8,0:0:0:0:
256,192,99714,1,8,0:0:0:0:
256,192,99810,1,0,0:0:0:0:
256,192,99906,1,0,0:0:0:0:
256,192,100002,1,0,0:0:0:0:
256,192,100098,1,0,0:0:0:0:
256,192,100194,1,8,0:0:0:0:
256,192,100291,1,0,0:0:0:0:
256,192,100387,1,8,0:0:0:0:
256,192,100483,1,8,0:0:0:0:
256,192,100579,1,4,0:0:0:0:
304,160,101157,5,0,0:0:0:0:
320,192,101349,1,2,0:0:0:0:
352,320,101734,1,0,0:0:0:0:
352,320,101926,1,0,0:0:0:0:
352,320,102118,1,2,0:0:0:0:
352,336,102503,1,2,0:0:0:0:
400,352,102888,1,0,0:0:0:0:
352,288,103465,1,0,0:0:0:0:
384,304,103657,1,2,0:0:0:0:
352,304,104234,1,2,0:0:0:0:
352,304,104426,1,0,0:0:0:0:
336,288,104811,1,0,0:0:0:0:
336,288,105003,1,0,0:0:0:0:
352,304,105195,1,2,0:0:0:0:
352,304,105388,1,0,0:0:0:0:
352,304,105484,1,0,0:0:0:0:
336,304,105580,1,2,0:0:0:0:
208,176,105964,1,2,0:0:0:0:
256,196,106156,1,0,0:0:0:0:
256,196,106252,1,0,0:0:0:0:
256,196,106348,1,2,0:0:0:0:
272,144,106541,1,0,0:0:0:0:
240,192,106734,1,2,0:0:0:0:
288,168,107118,1,0,0:0:0:0:
292,152,107214,1,0,0:0:0:0:
292,152,107310,1,2,0:0:0:0:
336,192,107503,1,2,0:0:0:0:
320,224,107888,1,0,0:0:0:0:
320,240,108080,1,0,0:0:0:0:
320,224,108272,1,2,0:0:0:0:
336,256,108657,1,0,0:0:0:0:
336,272,109041,1,2,0:0:0:0:
292,268,109233,1,0,0:0:0:0:
292,268,109329,1,0,0:0:0:0:
292,268,109425,1,2,0:0:0:0:
352,288,109618,1,0,0:0:0:0:
352,288,109811,1,2,0:0:0:0:
352,288,110195,1,2,0:0:0:0:
272,160,110580,1,2,0:0:0:0:
272,160,110965,1,0,0:0:0:0:
84,192,111156,1,0,0:0:0:0:
272,144,111349,1,2,0:0:0:0:
184,220,111541,1,2,0:0:0:0:
220,160,111733,1,2,0:0:0:0:
304,256,111829,1,2,0:0:0:0:
220,168,111925,1,2,0:0:0:0:
272,144,112118,1,0,0:0:0:0:
304,256,112310,1,2,0:0:0:0:
304,256,112406,1,2,0:0:0:0:
304,256,112502,1,2,0:0:0:0:
400,176,112695,1,0,0:0:0:0:
400,176,112888,1,6,0:0:0:0:
368,160,113080,1,0,0:0:0:0:
400,176,113177,1,0,0:0:0:0:
400,176,113273,1,2,0:0:0:0:
352,288,113465,1,0,0:0:0:0:
368,288,113657,1,2,0:0:0:0:
384,272,114042,1,4,0:0:0:0:
336,272,114234,1,0,0:0:0:0:
336,272,114330,1,0,0:0:0:0:
336,272,114427,1,2,0:0:0:0:
272,176,114619,1,2,0:0:0:0:
272,176,114811,1,0,0:0:0:0:
272,176,115003,1,2,0:0:0:0:
288,176,115100,1,2,0:0:0:0:
288,176,115196,1,0,0:0:0:0:
352,288,115388,1,4,0:0:0:0:
352,288,115580,1,2,0:0:0:0:
336,272,115773,1,2,0:0:0:0:
336,272,115965,1,4,0:0:0:0:
368,160,116157,1,0,0:0:0:0:
400,176,116254,1,0,0:0:0:0:
400,176,116350,1,2,0:0:0:0:
352,288,116542,1,0,0:0:0:0:
368,288,116734,1,2,0:0:0:0:
288,160,116927,1,0,0:0:0:0:
384,272,117119,1,4,0:0:0:0:
336,272,117311,1,0,0:0:0:0:
336,272,117407,1,0,0:0:0:0:
336,272,117504,1,2,0:0:0:0:
272,208,117888,1,6,0:0:0:0:
352,272,118272,1,4,0:0:0:0:
192,160,118657,1,0,0:0:0:0:
320,128,118849,1,0,0:0:0:0:
320,128,119041,1,6,0:0:0:0:
288,176,119234,1,0,0:0:0:0:
288,176,119330,1,0,0:0:0:0:
288,176,119426,1,2,0:0:0:0:
368,272,119618,1,4,0:0:0:0:
368,272,119811,1,2,0:0:0:0:
352,256,120003,1,0,0:0:0:0:
352,256,120099,1,0,0:0:0:0:
352,256,120195,1,2,0:0:0:0:
352,288,120388,1,4,0:0:0:0:
368,272,120580,1,2,0:0:0:0:
352,304,120965,1,4,0:0:0:0:
368,288,121157,1,2,0:0:0:0:
320,256,121349,1,4,0:0:0:0:
304,176,121541,1,0,0:0:0:0:
304,176,121638,1,0,0:0:0:0:
304,176,121734,1,2,0:0:0:0:
288,176,121926,1,0,0:0:0:0:
304,176,122118,1,6,0:0:0:0:
304,160,122503,1,4,0:0:0:0:
320,224,122887,1,6,0:0:0:0:
320,240,123080,1,0,0:0:0:0:
336,240,123272,1,0,0:0:0:0:
336,240,123368,1,0,0:0:0:0:
336,240,123465,1,2,0:0:0:0:
336,272,123561,1,0,0:0:0:0:
336,240,123657,1,0,0:0:0:0:
352,256,123753,1,0,0:0:0:0:
352,256,123849,1,2,0:0:0:0:
352,256,123945,1,2,0:0:0:0:
352,272,124041,1,0,0:0:0:0:
352,272,124138,1,0,0:0:0:0:
352,272,124234,1,2,0:0:0:0:
352,272,124330,1,0,0:0:0:0:
352,272,124426,1,2,0:0:0:0:
352,272,124522,1,2,0:0:0:0:
352,272,124618,1,0,0:0:0:0:
352,256,124715,1,0,0:0:0:0:
352,256,124811,1,2,0:0:0:0:
352,256,124907,1,2,0:0:0:0:
352,256,125003,1,0,0:0:0:0:
352,256,125099,1,2,0:0:0:0:
352,256,125195,1,0,0:0:0:0:
300,140,125291,1,0,0:0:0:0:
300,140,125387,1,2,0:0:0:0:
300,140,125483,1,2,0:0:0:0:
304,224,125580,1,0,0:0:0:0:
300,140,125675,1,0,0:0:0:0:
320,224,125772,1,0,0:0:0:0:
320,224,125868,1,0,0:0:0:0:
320,224,125965,1,2,0:0:0:0:
328,268,126060,1,2,0:0:0:0:
320,272,126157,1,0,0:0:0:0:
288,88,126220,1,0,0:0:0:0:
288,88,126284,1,0,0:0:0:0:
288,88,126348,1,0,0:0:0:0:
288,88,126412,1,0,0:0:0:0:
288,88,126476,1,0,0:0:0:0:
288,88,126541,1,0,0:0:0:0:
288,88,126605,1,0,0:0:0:0:
288,88,126669,1,0,0:0:0:0:
336,272,126734,1,2,0:0:0:0:
336,288,126926,1,2,0:0:0:0:
336,272,127118,1,0,0:0:0:0:
336,272,127215,1,0,0:0:0:0:
336,272,127311,1,2,0:0:0:0:
336,272,127503,1,0,0:0:0:0:
352,320,127695,1,0,0:0:0:0:
368,304,127888,1,2,0:0:0:0:
368,304,127984,1,0,0:0:0:0:
368,288,128080,1,0,0:0:0:0:
368,304,128272,1,2,0:0:0:0:
240,176,128368,1,2,0:0:0:0:
256,176,128465,1,2,0:0:0:0:
256,176,128561,1,2,0:0:0:0:
240,176,128657,1,2,0:0:0:0:
256,192,128849,1,0,0:0:0:0:
272,192,129041,1,0,0:0:0:0:
272,192,129138,1,0,0:0:0:0:
272,192,129234,1,2,0:0:0:0:
272,176,129426,1,0,0:0:0:0:
272,192,129618,1,2,0:0:0:0:
272,192,129715,1,2,0:0:0:0:
288,208,129811,1,2,0:0:0:0:
368,336,130003,1,2,0:0:0:0:
288,192,130195,1,0,0:0:0:0:
304,192,130388,1,2,0:0:0:0:
236,176,130483,1,0,0:0:0:0:
304,192,130580,1,0,0:0:0:0:
304,176,130676,1,0,0:0:0:0:
304,176,130772,1,2,0:0:0:0:
304,176,130965,1,4,0:0:0:0:
304,176,131157,1,0,0:0:0:0:
304,176,131349,1,6,0:0:0:0:
160,192,131638,1,0,0:0:0:0:
240,144,131734,1,2,0:0:0:0:
256,144,131926,1,4,0:0:0:0:
256,144,132118,1,0,0:0:0:0:
300,232,132310,1,0,0:0:0:0:
316,236,132406,1,0,0:0:0:0:
256,144,132503,1,0,0:0:0:0:
240,144,132695,1,0,0:0:0:0:
240,144,132791,1,2,0:0:0:0:
240,144,132888,1,0,0:0:0:0:
288,112,133080,1,2,0:0:0:0:
288,112,133272,1,0,0:0:0:0:
288,112,133368,1,0,0:0:0:0:
288,112,133465,1,2,0:0:0:0:
288,112,133657,1,4,0:0:0:0:
288,112,133849,1,2,0:0:0:0:
272,112,134041,1,0,0:0:0:0:
272,112,134234,1,0,0:0:0:0:
232,264,134329,1,0,0:0:0:0:
272,112,134426,1,2,0:0:0:0:
252,184,134810,1,0,0:0:0:0:
272,168,135002,1,4,0:0:0:0:
176,160,135195,1,6,0:0:0:0:
176,160,135484,1,0,0:0:0:0:
176,160,135580,1,2,0:0:0:0:
176,160,135772,1,0,0:0:0:0:
176,144,135965,1,2,0:0:0:0:
304,256,136157,1,0,0:0:0:0:
304,256,136349,1,0,0:0:0:0:
304,256,136541,1,0,0:0:0:0:
304,256,136734,1,2,0:0:0:0:
304,288,136926,1,2,0:0:0:0:
304,288,137118,1,2,0:0:0:0:
224,176,137214,1,2,0:0:0:0:
304,288,137311,1,2,0:0:0:0:
304,288,137503,1,2,0:0:0:0:
272,164,137694,1,4,0:0:0:0:
272,164,137887,1,4,0:0:0:0:
280,276,138079,1,2,0:0:0:0:
300,252,138271,1,4,0:0:0:0:
304,252,138464,1,4,0:0:0:0:
268,216,138656,1,0,0:0:0:0:
268,216,138752,1,0,0:0:0:0:
268,216,138848,1,0,0:0:0:0:
268,216,138944,1,0,0:0:0:0:
268,216,139041,1,2,0:0:0:0:
336,288,139233,1,2,0:0:0:0:
336,272,139425,1,0,0:0:0:0:
336,272,139522,1,0,0:0:0:0:
336,272,139618,1,2,0:0:0:0:
336,272,139810,1,0,0:0:0:0:
352,320,140002,1,0,0:0:0:0:
368,304,140195,1,2,0:0:0:0:
368,304,140291,1,0,0:0:0:0:
368,288,140387,1,0,0:0:0:0:
368,304,140579,1,2,0:0:0:0:
240,176,140675,1,2,0:0:0:0:
256,176,140772,1,2,0:0:0:0:
256,176,140868,1,2,0:0:0:0:
240,176,140964,1,2,0:0:0:0:
256,192,141156,1,0,0:0:0:0:
272,192,141348,1,0,0:0:0:0:
272,192,141445,1,0,0:0:0:0:
272,192,141541,1,2,0:0:0:0:
272,176,141733,1,0,0:0:0:0:
272,192,141925,1,2,0:0:0:0:
272,192,142022,1,2,0:0:0:0:
288,208,142118,1,2,0:0:0:0:
368,336,142310,1,2,0:0:0:0:
288,192,142502,1,0,0:0:0:0:
304,192,142695,1,2,0:0:0:0:
236,176,142790,1,0,0:0:0:0:
304,192,142887,1,0,0:0:0:0:
304,176,142983,1,0,0:0:0:0:
304,176,143079,1,2,0:0:0:0:
304,176,143272,1,4,0:0:0:0:
304,176,143464,1,0,0:0:0:0:
304,176,143656,1,6,0:0:0:0:
160,192,143945,1,0,0:0:0:0:
240,144,144041,1,2,0:0:0:0:
256,144,144233,1,4,0:0:0:0:
256,144,144425,1,0,0:0:0:0:
300,232,144617,1,0,0:0:0:0:
316,236,144713,1,0,0:0:0:0:
256,144,144810,1,0,0:0:0:0:
240,144,145002,1,0,0:0:0:0:
240,144,145098,1,2,0:0:0:0:
240,144,145195,1,0,0:0:0:0:
288,112,145387,1,2,0:0:0:0:
288,112,145579,1,0,0:0:0:0:
288,112,145675,1,0,0:0:0:0:
288,112,145772,1,2,0:0:0:0:
288,112,145964,1,4,0:0:0:0:
288,112,146156,1,2,0:0:0:0:
272,112,146348,1,0,0:0:0:0:
272,112,146541,1,0,0:0:0:0:
232,264,146636,1,0,0:0:0:0:
272,112,146733,1,2,0:0:0:0:
152,152,147118,1,0,0:0:0:0:
272,168,147309,1,4,0:0:0:0:
176,160,147502,1,6,0:0:0:0:
176,160,147791,1,0,0:0:0:0:
176,160,147887,1,2,0:0:0:0:
176,160,148079,1,0,0:0:0:0:
176,144,148272,1,2,0:0:0:0:
304,256,148464,1,0,0:0:0:0:
304,256,148656,1,0,0:0:0:0:
304,256,148848,1,2,0:0:0:0:
304,256,149041,1,0,0:0:0:0:
304,288,149233,1,2,0:0:0:0:
220,188,149329,1,2,0:0:0:0:
304,288,149425,1,2,0:0:0:0:
224,176,149521,1,2,0:0:0:0:
304,288,149618,1,2,0:0:0:0:
228,192,149714,1,2,0:0:0:0:
304,288,149810,1,0,0:0:0:0:
292,184,150194,1,0,0:0:0:0:
308,280,150579,1,0,0:0:0:0:
308,280,150675,1,0,0:0:0:0:
256,152,150771,1,2,0:0:0:0:
256,152,150868,1,2,0:0:0:0:
256,152,150964,1,0,0:0:0:0:
256,152,151060,1,0,0:0:0:0:
244,156,151156,1,2,0:0:0:0:
244,156,151252,1,2,0:0:0:0:
244,156,151348,1,0,0:0:0:0:
336,216,151733,1,0,0:0:0:0:
280,200,152118,1,2,0:0:0:0:
280,200,152214,1,2,0:0:0:0:
284,200,152310,1,0,0:0:0:0:
284,200,152406,1,0,0:0:0:0:
284,200,152502,1,2,0:0:0:0:
284,200,152598,1,0,0:0:0:0:
284,200,152694,1,0,0:0:0:0:
284,200,152791,1,0,0:0:0:0:
284,200,152887,1,2,0:0:0:0:
244,200,153079,1,0,0:0:0:0:
244,200,153175,1,0,0:0:0:0:
244,200,153271,1,2,0:0:0:0:
320,276,153464,1,2,0:0:0:0:
320,276,153560,1,0,0:0:0:0:
320,276,153656,1,0,0:0:0:0:
336,184,153848,1,0,0:0:0:0:
324,176,153944,1,0,0:0:0:0:
328,184,154041,1,2,0:0:0:0:
340,288,154233,1,0,0:0:0:0:
340,288,154329,1,0,0:0:0:0:
340,288,154425,1,2,0:0:0:0:
340,308,154618,1,0,0:0:0:0:
344,304,154810,1,2,0:0:0:0:
304,288,155194,1,0,0:0:0:0:
292,184,155578,1,0,0:0:0:0:
308,280,155963,1,0,0:0:0:0:
308,280,156059,1,0,0:0:0:0:
256,152,156155,1,2,0:0:0:0:
256,152,156252,1,2,0:0:0:0:
256,152,156348,1,0,0:0:0:0:
256,152,156444,1,0,0:0:0:0:
244,156,156540,1,2,0:0:0:0:
244,156,156636,1,2,0:0:0:0:
244,156,156732,1,0,0:0:0:0:
336,216,157117,1,0,0:0:0:0:
280,200,157502,1,2,0:0:0:0:
280,200,157598,1,2,0:0:0:0:
284,200,157694,1,0,0:0:0:0:
284,200,157790,1,0,0:0:0:0:
284,200,157886,1,2,0:0:0:0:
284,200,157982,1,0,0:0:0:0:
284,200,158078,1,0,0:0:0:0:
284,200,158175,1,0,0:0:0:0:
284,200,158271,1,2,0:0:0:0:
244,200,158463,1,0,0:0:0:0:
244,200,158559,1,0,0:0:0:0:
244,200,158655,1,2,0:0:0:0:
320,276,158848,1,2,0:0:0:0:
320,276,158944,1,0,0:0:0:0:
320,276,159040,1,0,0:0:0:0:
336,184,159232,1,0,0:0:0:0:
324,176,159328,1,0,0:0:0:0:
328,184,159425,1,2,0:0:0:0:
340,288,159617,1,0,0:0:0:0:
340,288,159713,1,0,0:0:0:0:
340,288,159809,1,2,0:0:0:0:
340,308,160002,1,0,0:0:0:0:
344,304,160194,1,2,0:0:0:0:
168,148,160291,1,2,0:0:0:0:
168,148,160387,1,2,0:0:0:0:
168,148,160483,1,2,0:0:0:0:
328,256,160578,1,0,0:0:0:0:
244,176,160964,1,0,0:0:0:0:
308,256,161348,1,0,0:0:0:0:
308,252,161541,1,0,0:0:0:0:
308,256,161733,1,2,0:0:0:0:
296,200,161925,1,2,0:0:0:0:
292,204,162118,1,0,0:0:0:0:
144,176,162310,1,0,0:0:0:0:
176,144,162502,1,2,0:0:0:0:
316,280,162887,1,0,0:0:0:0:
316,280,162983,1,0,0:0:0:0:
316,280,163079,1,2,0:0:0:0:
296,272,163271,1,0,0:0:0:0:
296,272,163464,1,0,0:0:0:0:
300,272,163656,1,2,0:0:0:0:
244,176,164041,1,0,0:0:0:0:
308,256,164425,1,0,0:0:0:0:
308,252,164618,1,0,0:0:0:0:
308,256,164810,1,2,0:0:0:0:
296,200,165002,1,2,0:0:0:0:
292,204,165195,1,4,0:0:0:0:
212,160,165387,1,2,0:0:0:0:
300,240,165579,1,4,0:0:0:0:
296,136,165771,1,2,0:0:0:0:
316,280,165964,1,4,0:0:0:0:
296,272,166348,1,0,0:0:0:0:
176,168,166444,1,0,0:0:0:0:
296,272,166541,1,2,0:0:0:0:
300,272,166733,1,2,0:0:0:0:
236,160,166925,1,2,0:0:0:0:
236,160,167118,1,0,0:0:0:0:
240,152,167310,1,0,0:0:0:0:
244,160,167502,1,2,0:0:0:0:
244,160,167694,1,0,0:0:0:0:
244,160,167791,1,0,0:0:0:0:
244,176,167887,1,2,0:0:0:0:
308,256,168271,1,0,0:0:0:0:
308,252,168464,1,0,0:0:0:0:
308,256,168656,1,2,0:0:0:0:
296,200,168848,1,2,0:0:0:0:
292,204,169041,1,0,0:0:0:0:
300,240,169425,1,0,0:0:0:0:
316,280,169810,1,0,0:0:0:0:
316,280,169906,1,0,0:0:0:0:
316,280,170002,1,2,0:0:0:0:
296,272,170194,1,0,0:0:0:0:
296,272,170387,1,0,0:0:0:0:
300,272,170579,1,6,0:0:0:0:
288,132,170771,1,6,0:0:0:0:
288,132,170964,1,6,0:0:0:0:
288,132,171156,1,6,0:0:0:0:
288,132,171348,1,4,0:0:0:0:
256,192,171541,12,0,175964,0:0:0:0:
220,180,176541,5,0,0:0:0:0:
284,248,176733,1,2,0:0:0:0:
276,132,176925,1,0,0:0:0:0:
276,136,177118,1,0,0:0:0:0:
284,248,177310,1,0,0:0:0:0:
284,248,177502,1,2,0:0:0:0:
240,164,178079,1,0,0:0:0:0:
248,160,178271,1,2,0:0:0:0:
332,300,178656,1,0,0:0:0:0:
328,288,178848,1,0,0:0:0:0:
344,280,179618,1,0,0:0:0:0:
336,240,179810,1,2,0:0:0:0:
336,240,180002,1,0,0:0:0:0:
336,240,180194,1,0,0:0:0:0:
340,248,180387,1,2,0:0:0:0:
344,252,180579,1,0,0:0:0:0:
292,260,181156,1,0,0:0:0:0:
296,252,181348,1,2,0:0:0:0:
328,312,181733,1,0,0:0:0:0:
328,304,181925,1,2,0:0:0:0:
336,312,182310,1,0,0:0:0:0:
352,344,183656,1,0,0:0:0:0:
308,264,184041,1,0,0:0:0:0:
308,256,184233,1,0,0:0:0:0:
312,260,184425,1,2,0:0:0:0:
340,348,184810,1,0,0:0:0:0:
288,192,185194,1,2,0:0:0:0:
296,188,185387,1,2,0:0:0:0:
312,232,185579,1,0,0:0:0:0:
312,232,185771,1,0,0:0:0:0:
248,152,185964,1,2,0:0:0:0:
352,384,186348,1,0,0:0:0:0:
208,216,186541,1,0,0:0:0:0:
236,168,186733,1,2,0:0:0:0:
236,168,186829,1,2,0:0:0:0:
240,168,186925,1,0,0:0:0:0:
236,168,187118,1,0,0:0:0:0:
244,160,187214,1,0,0:0:0:0:
244,160,187310,1,2,0:0:0:0:
244,160,187502,1,4,0:0:0:0:
300,180,187791,1,4,0:0:0:0:
300,180,188079,1,4,0:0:0:0:
264,232,188271,1,0,0:0:0:0:
264,232,188368,1,0,0:0:0:0:
264,232,188464,1,2,0:0:0:0:
268,228,188560,1,0,0:0:0:0:
272,224,188656,1,2,0:0:0:0:
276,224,188752,1,2,0:0:0:0:
276,224,188848,1,0,0:0:0:0:
276,224,188944,1,2,0:0:0:0:
276,220,189041,1,0,0:0:0:0:
272,216,189137,1,0,0:0:0:0:
272,216,189233,1,2,0:0:0:0:
272,216,189329,1,0,0:0:0:0:
272,216,189425,1,2,0:0:0:0:
276,216,189521,1,2,0:0:0:0:
276,216,189618,1,0,0:0:0:0:
276,216,189714,1,0,0:0:0:0:
304,272,189810,1,2,0:0:0:0:
368,160,190002,1,0,0:0:0:0:
400,176,190099,1,0,0:0:0:0:
400,176,190195,1,2,0:0:0:0:
352,288,190387,1,0,0:0:0:0:
368,288,190579,1,2,0:0:0:0:
384,272,190964,1,4,0:0:0:0:
336,272,191156,1,0,0:0:0:0:
336,272,191252,1,0,0:0:0:0:
336,272,191349,1,2,0:0:0:0:
272,176,191541,1,2,0:0:0:0:
272,176,191733,1,0,0:0:0:0:
272,176,191925,1,0,0:0:0:0:
288,176,192022,1,0,0:0:0:0:
288,176,192118,1,2,0:0:0:0:
272,208,192213,1,0,0:0:0:0:
352,288,192310,1,2,0:0:0:0:
352,288,192406,1,2,0:0:0:0:
352,288,192502,1,0,0:0:0:0:
336,272,192695,1,2,0:0:0:0:
336,272,192887,1,4,0:0:0:0:
368,160,193079,1,0,0:0:0:0:
400,176,193176,1,0,0:0:0:0:
400,176,193272,1,2,0:0:0:0:
352,288,193464,1,0,0:0:0:0:
368,288,193656,1,2,0:0:0:0:
288,160,193849,1,0,0:0:0:0:
384,272,194041,1,4,0:0:0:0:
336,272,194233,1,0,0:0:0:0:
336,272,194329,1,0,0:0:0:0:
336,272,194426,1,2,0:0:0:0:
224,160,194617,1,0,0:0:0:0:
224,160,194713,1,0,0:0:0:0:
224,160,194809,1,2,0:0:0:0:
224,160,194906,1,0,0:0:0:0:
224,160,195002,1,2,0:0:0:0:
304,272,195194,1,0,0:0:0:0:
304,272,195386,1,0,0:0:0:0:
304,272,195579,1,6,0:0:0:0:
224,160,195963,1,4,0:0:0:0:
368,160,196156,1,0,0:0:0:0:
400,176,196253,1,0,0:0:0:0:
400,176,196349,1,2,0:0:0:0:
352,288,196541,1,0,0:0:0:0:
368,288,196733,1,6,0:0:0:0:
384,272,197118,1,4,0:0:0:0:
336,272,197310,1,0,0:0:0:0:
336,272,197406,1,0,0:0:0:0:
336,272,197503,1,2,0:0:0:0:
272,176,197695,1,2,0:0:0:0:
272,176,197886,1,4,0:0:0:0:
272,176,198079,1,2,0:0:0:0:
288,176,198176,1,2,0:0:0:0:
288,176,198272,1,0,0:0:0:0:
352,288,198464,1,0,0:0:0:0:
352,288,198560,1,0,0:0:0:0:
352,288,198656,1,2,0:0:0:0:
336,272,198849,1,2,0:0:0:0:
336,272,199041,1,4,0:0:0:0:
368,160,199233,1,0,0:0:0:0:
400,176,199330,1,0,0:0:0:0:
400,176,199426,1,2,0:0:0:0:
352,288,199618,1,4,0:0:0:0:
368,288,199809,1,6,0:0:0:0:
232,196,200002,1,0,0:0:0:0:
232,196,200098,1,0,0:0:0:0:
236,192,200194,1,0,0:0:0:0:
236,192,200291,1,0,0:0:0:0:
236,192,200387,1,0,0:0:0:0:
236,192,200483,1,0,0:0:0:0:
236,192,200579,1,2,0:0:0:0:
328,284,200964,1,0,0:0:0:0:
280,236,201348,1,2,0:0:0:0:
280,236,201541,1,2,0:0:0:0:
280,236,201733,1,0,0:0:0:0:
336,272,201829,1,0,0:0:0:0:
336,272,201925,1,0,0:0:0:0:
336,272,202118,1,2,0:0:0:0:
336,272,202310,1,0,0:0:0:0:
336,272,202502,1,2,0:0:0:0:
340,268,202694,1,2,0:0:0:0:
340,268,202887,1,2,0:0:0:0:
344,268,203079,1,2,0:0:0:0:
288,188,203271,1,0,0:0:0:0:
288,188,203464,1,0,0:0:0:0:
288,188,203656,1,6,0:0:0:0:
284,192,204425,1,4,0:0:0:0:
248,168,205002,1,2,0:0:0:0:
336,268,205194,1,4,0:0:0:0:
308,268,205579,1,2,0:0:0:0:
308,268,205771,1,2,0:0:0:0:
244,204,205964,1,4,0:0:0:0:
260,204,206348,1,0,0:0:0:0:
272,216,206733,1,4,0:0:0:0:
308,228,206925,1,0,0:0:0:0:
312,224,207118,1,2,0:0:0:0:
312,224,207310,1,0,0:0:0:0:
312,224,207502,1,4,0:0:0:0:
312,224,207694,1,2,0:0:0:0:
312,220,207887,1,0,0:0:0:0:
312,224,208079,1,0,0:0:0:0:
316,216,208175,1,0,0:0:0:0:
316,216,208271,1,2,0:0:0:0:
240,144,208464,1,2,0:0:0:0:
360,268,211348,1,2,0:0:0:0:
360,268,211541,1,2,0:0:0:0:
352,224,214425,1,0,0:0:0:0:
368,160,214617,1,0,0:0:0:0:
400,176,214714,1,0,0:0:0:0:
400,176,214810,1,2,0:0:0:0:
352,288,215002,1,0,0:0:0:0:
368,288,215194,1,2,0:0:0:0:
384,272,215579,1,4,0:0:0:0:
336,272,215771,1,0,0:0:0:0:
336,272,215867,1,0,0:0:0:0:
336,272,215964,1,2,0:0:0:0:
272,176,216156,1,2,0:0:0:0:
272,176,216348,1,0,0:0:0:0:
272,176,216540,1,2,0:0:0:0:
288,176,216637,1,2,0:0:0:0:
288,176,216733,1,0,0:0:0:0:
352,288,216925,1,0,0:0:0:0:
352,288,217021,1,0,0:0:0:0:
352,288,217117,1,2,0:0:0:0:
336,272,217310,1,2,0:0:0:0:
336,272,217502,1,4,0:0:0:0:
368,160,217694,1,0,0:0:0:0:
400,176,217791,1,0,0:0:0:0:
400,176,217887,1,2,0:0:0:0:
352,288,218079,1,0,0:0:0:0:
368,288,218271,1,2,0:0:0:0:
288,160,218464,1,0,0:0:0:0:
384,272,218656,1,4,0:0:0:0:
336,272,218848,1,0,0:0:0:0:
336,272,218944,1,0,0:0:0:0:
336,272,219041,1,2,0:0:0:0:
272,176,219233,1,2,0:0:0:0:
272,176,219425,1,0,0:0:0:0:
256,176,219617,1,0,0:0:0:0:
288,176,219810,1,8,0:0:0:0:
288,176,220002,1,8,0:0:0:0:
288,160,220194,1,8,0:0:0:0:
304,160,220387,1,8,0:0:0:0:
352,224,220579,1,0,0:0:0:0:
368,160,220771,1,0,0:0:0:0:
400,176,220868,1,0,0:0:0:0:
400,176,220964,1,2,0:0:0:0:
352,288,221156,1,0,0:0:0:0:
368,288,221348,1,2,0:0:0:0:
384,272,221733,1,4,0:0:0:0:
336,272,221925,1,0,0:0:0:0:
336,272,222021,1,0,0:0:0:0:
336,272,222118,1,2,0:0:0:0:
272,176,222310,1,2,0:0:0:0:
272,176,222502,1,0,0:0:0:0:
272,176,222694,1,2,0:0:0:0:
288,176,222791,1,2,0:0:0:0:
288,176,222887,1,0,0:0:0:0:
352,288,223079,1,0,0:0:0:0:
352,288,223175,1,0,0:0:0:0:
352,288,223271,1,2,0:0:0:0:
336,272,223464,1,2,0:0:0:0:
336,272,223656,1,4,0:0:0:0:
368,160,223848,1,0,0:0:0:0:
400,176,223945,1,0,0:0:0:0:
400,176,224041,1,2,0:0:0:0:
352,288,224233,1,0,0:0:0:0:
368,288,224425,1,2,0:0:0:0:
288,160,224618,1,0,0:0:0:0:
384,272,224810,1,4,0:0:0:0:
336,272,225002,1,0,0:0:0:0:
336,272,225098,1,0,0:0:0:0:
336,272,225195,1,2,0:0:0:0:
268,172,225387,1,2,0:0:0:0:
268,172,225579,1,4,0:0:0:0:
280,184,225964,1,4,0:0:0:0:
216,232,226156,1,0,0:0:0:0:
216,232,226252,1,0,0:0:0:0:
224,236,226348,1,0,0:0:0:0:
224,236,226444,1,0,0:0:0:0:
224,236,226541,1,2,0:0:0:0:
352,224,226733,1,0,0:0:0:0:
368,160,226925,1,0,0:0:0:0:
400,176,227022,1,0,0:0:0:0:
400,176,227118,1,2,0:0:0:0:
352,288,227310,1,0,0:0:0:0:
368,288,227502,1,2,0:0:0:0:
384,272,227887,1,4,0:0:0:0:
336,272,228079,1,0,0:0:0:0:
336,272,228175,1,0,0:0:0:0:
336,272,228272,1,2,0:0:0:0:
272,176,228464,1,2,0:0:0:0:
272,176,228656,1,0,0:0:0:0:
272,176,228848,1,2,0:0:0:0:
288,176,228945,1,2,0:0:0:0:
288,176,229041,1,0,0:0:0:0:
352,288,229233,1,0,0:0:0:0:
352,288,229329,1,0,0:0:0:0:
352,288,229425,1,2,0:0:0:0:
336,272,229618,1,2,0:0:0:0:
336,272,229810,1,4,0:0:0:0:
368,160,230002,1,0,0:0:0:0:
400,176,230099,1,0,0:0:0:0:
400,176,230195,5,2,0:0:0:0:
352,288,230387,1,0,0:0:0:0:
368,288,230579,1,2,0:0:0:0:
288,160,230772,1,0,0:0:0:0:
384,272,230964,1,4,0:0:0:0:
336,272,231156,1,0,0:0:0:0:
336,272,231252,1,0,0:0:0:0:
336,272,231349,1,2,0:0:0:0:
216,128,231444,1,2,0:0:0:0:
224,120,231541,1,2,0:0:0:0:
216,116,231637,1,2,0:0:0:0:
216,108,231733,1,2,0:0:0:0:
340,80,231797,1,2,0:0:0:0:
340,72,231861,1,2,0:0:0:0:
340,72,231925,1,2,0:0:0:0:
340,72,231989,1,2,0:0:0:0:
336,72,232053,1,2,0:0:0:0:
272,144,232117,1,0,0:0:0:0:
