osu file format v14

[General]
AudioFilename: Song.mp3
AudioLeadIn: 1500
PreviewTime: 62094
Countdown: 0
SampleSet: Normal
StackLeniency: 0.7
Mode: 0
LetterboxInBreaks: 0
WidescreenStoryboard: 0

[Editor]
Bookmarks: 340,3067,13976,26249,27612,38521,49430,56249,62521,73430,84339,87067,88430,88567,88703
DistanceSpacing: 0.8
BeatDivisor: 4
GridSize: 8
TimelineZoom: 1.7

[Metadata]
Title:Amakakeru Hoshi TV ver.
TitleUnicode:天かける星 TV ver.
Artist:Suara
ArtistUnicode:Suara
Creator:Taeyang
Version:Hard
Source:うたわれるもの 偽りの仮面
Tags:utawarerumono Itsuwari no Kamen season 2
BeatmapID:898887
BeatmapSetID:414667

[Difficulty]
HPDrainRate:5
CircleSize:3.8
OverallDifficulty:5.2
ApproachRate:7
SliderMultiplier:1.1
SliderTickRate:1

[Events]
//Background and Video events
0,0,"BG.jpg",0,0
Video,0,"video.flv"
//Break Periods
//Storyboard Layer 0 (Background)
//Storyboard Layer 1 (Fail)
//Storyboard Layer 2 (Pass)
//Storyboard Layer 3 (Foreground)
//Storyboard Sound Samples

[TimingPoints]
322,272.727272727273,5,2,1,50,1,0
390,-100,5,2,1,30,0,0
3049,-100,5,2,1,40,0,0
12594,-100,5,2,2,50,0,0
13140,-100,5,2,2,60,0,0
13958,-100,5,2,2,70,0,0
27594,-100,5,2,1,50,0,0
38503,-100,5,2,3,60,0,0
49412,-100,5,2,3,65,0,0
56231,272.727272727273,3,2,3,65,1,0
60321,-100,3,2,3,70,0,0
60594,-100,3,2,3,60,0,0
60867,-100,3,2,3,50,0,0
61140,272.727272727273,5,2,3,40,1,0
61958,-100,3,2,3,60,0,0
62230,-100,3,2,3,50,0,0
62367,-100,3,2,3,60,0,0
62503,-83.3333333333333,5,1,4,70,0,1
73344,-83.3333333333333,5,1,4,70,0,0
73412,-83.3333333333333,5,1,4,70,0,1
84253,-83.3333333333333,5,1,4,70,0,0
84321,-83.3333333333333,5,1,4,75,0,1
85685,-83.3333333333333,5,1,4,80,0,1
86980,-83.3333333333333,5,1,4,80,0,0
87049,-83.3333333333333,5,1,4,85,0,1
88412,-83.3333333333333,5,1,4,90,0,1
88685,-83.3333333333333,5,1,4,100,0,0

[Colours]
Combo1 : 235,242,140
Combo2 : 250,133,133
Combo3 : 134,171,249
Combo4 : 143,239,189
SliderTrackOverride : 133,218,250
SliderBorder : 245,235,156

[HitObjects]
83,223,322,5,4,2:1:0:0:
134,152,594,2,0,L|126:71,2,55,2|0|8,0:0|0:0|0:0,0:0:0:0:
204,204,1140,2,0,P|273:213|321:189,1,110,2|8,0:0|0:0,0:0:0:0:
382,150,1685,2,0,L|392:32,2,110,2|8|2,0:0|0:0|0:0,0:0:0:0:
409,233,2503,1,8,0:0:0:0:
370,311,2776,2,0,P|344:303|317:301,1,55,8|8,0:0|0:0,0:0:0:0:
274,310,3049,6,0,P|222:328|168:323,1,110,6|0,0:0|0:0,0:0:0:0:
126,310,3458,2,0,L|119:195,1,110,2|0,0:0|0:0,0:0:0:0:
134,158,3867,1,2,0:0:0:0:
127,70,4140,1,8,0:0:0:0:
207,105,4412,2,0,P|252:131|316:131,1,110,2|0,0:0|0:0,0:0:0:0:
394,113,4958,2,0,P|399:85|398:58,2,55,2|0|2,0:0|0:0|0:0,0:0:0:0:
392,201,5503,2,0,P|392:228|397:255,1,55,8|0,0:0|0:0,0:0:0:0:
406,299,5776,6,0,P|353:283|299:289,1,110,2|0,0:0|0:0,0:0:0:0:
259,308,6185,2,0,P|206:323|152:317,1,110,2|0,0:0|0:0,0:0:0:0:
110,304,6594,1,2,0:0:0:0:
118,216,6867,1,8,0:0:0:0:
52,157,7140,2,0,L|63:37,1,110,2|0,0:0|0:0,0:0:0:0:
146,23,7685,1,2,0:0:0:0:
214,78,7958,2,0,P|267:89|332:67,1,110,2|8,0:0|0:0,0:0:0:0:
359,55,8367,1,0,0:0:0:0:
397,76,8503,6,0,L|390:185,1,110,2|0,0:0|0:0,0:0:0:0:
387,229,8912,2,0,P|334:214|280:222,1,110,2|0,0:0|0:0,0:0:0:0:
242,244,9322,1,2,0:0:0:0:
256,330,9594,1,8,0:0:0:0:
172,301,9867,2,0,P|153:250|165:197,1,110,2|0,0:0|0:0,0:0:0:0:
225,132,10412,1,2,0:0:0:0:
180,55,10685,2,0,L|63:51,1,110,2|8,0:0|0:0,0:0:0:0:
17,122,11231,1,2,0:0:0:0:
73,188,11503,6,0,L|70:249,1,55,0|2,0:0|0:0,0:0:0:0:
66,287,11776,2,0,P|125:274|183:291,1,110,0|2,0:0|0:0,0:0:0:0:
257,310,12322,2,0,P|263:338|259:364,2,55,8|0|2,0:0|0:0|0:0,0:0:0:0:
249,266,12731,2,0,P|235:213|244:158,1,110,8|0,0:0|0:0,0:0:0:0:
269,123,13140,2,0,L|383:124,1,110,8|6,0:0|0:0,0:0:0:0:
405,40,13685,2,0,L|329:38,1,55,2|8,0:0|0:0,0:0:0:0:
305,35,13958,5,6,0:0:0:0:
305,35,14094,2,0,P|252:24|197:37,1,110,8|8,0:0|0:0,0:0:0:0:
160,58,14503,2,0,L|163:186,1,110,2|2,0:0|0:0,0:0:0:0:
215,238,15049,2,0,L|210:292,1,55,2|8,0:0|0:0,0:0:0:0:
206,336,15322,1,2,0:0:0:0:
205,336,15458,2,0,P|152:346|100:331,1,110,8|8,0:0|0:0,0:0:0:0:
71,297,15867,2,0,L|68:187,1,110,2|2,0:0|0:0,0:0:0:0:
89,101,16412,2,0,P|131:106|150:102,1,55,2|8,0:0|0:0,0:0:0:0:
183,86,16685,5,6,0:0:0:0:
183,86,16822,2,0,P|228:77|303:88,1,110,8|8,0:0|0:0,0:0:0:0:
328,107,17231,2,0,L|320:226,1,110,2|2,0:0|0:0,0:0:0:0:
240,252,17776,2,0,L|236:195,1,55,2|8,0:0|0:0,0:0:0:0:
198,175,18049,2,0,P|153:184|78:173,1,110,6|2,0:0|0:0,0:0:0:0:
25,236,18594,2,0,L|32:308,1,55,2|8,0:0|0:0,0:0:0:0:
36,334,18867,2,0,P|86:313|141:314,1,110,6|2,0:0|0:0,0:0:0:0:
226,334,19412,5,6,0:0:0:0:
226,334,19549,2,0,P|276:354|331:353,1,110,8|8,0:0|0:0,0:0:0:0:
369,331,19958,2,0,L|380:207,1,110,2|2,0:0|0:0,0:0:0:0:
399,135,20503,2,0,P|371:132|345:139,1,55,2|8,0:0|0:0,0:0:0:0:
303,152,20776,1,2,0:0:0:0:
303,152,20912,2,0,P|248:156|196:139,1,110,8|8,0:0|0:0,0:0:0:0:
155,123,21322,1,2,0:0:0:0:
67,122,21594,2,0,P|67:85|61:54,2,55,2|8|2,0:0|0:0|0:0,0:0:0:0:
47,207,22140,5,6,0:0:0:0:
47,207,22276,2,0,P|102:200|155:213,1,110,8|8,0:0|0:0,0:0:0:0:
195,232,22685,1,2,0:0:0:0:
266,283,22958,2,0,P|259:309|261:350,2,55,2|8|2,0:0|0:0|0:0,0:0:0:0:
318,212,23503,2,0,P|328:148|324:97,1,110,6|0,0:0|0:0,0:0:0:0:
313,60,23912,2,0,L|439:69,1,110,8|8,0:0|0:0,0:0:0:0:
466,72,24322,2,0,P|467:44|474:18,2,55,6|8|2,0:0|0:0|0:0,0:0:0:0:
488,157,24867,5,6,0:0:0:0:
488,157,25003,2,0,L|480:284,1,110,8|8,0:0|0:0,0:0:0:0:
466,308,25412,2,0,P|389:290|345:297,1,110,2|10,0:0|0:0,0:0:0:0:
273,314,25958,2,0,L|266:243,1,55,2|8,0:0|0:0,0:0:0:0:
280,217,26231,1,4,0:1:0:0:
221,152,27594,6,0,P|186:155|152:146,1,55,6|0,0:0|0:0,0:0:0:0:
122,144,27867,2,0,L|131:11,2,110,2|2|8,0:0|0:0|0:0,0:0:0:0:
58,204,28685,1,2,0:0:0:0:
55,293,28958,2,0,P|108:279|162:288,1,110,2|0,0:0|0:0,0:0:0:0:
201,308,29367,2,0,P|253:321|307:312,1,110,8|0,0:0|0:0,0:0:0:0:
347,292,29776,1,8,0:0:0:0:
386,213,30049,1,8,0:0:0:0:
461,257,30322,6,0,L|457:332,2,55,2|0|2,0:0|0:0|0:0,0:0:0:0:
487,172,30867,2,0,P|492:124|472:63,1,110,2|8,0:0|0:0,0:0:0:0:
386,55,31412,2,0,P|359:60|331:55,1,55,2|0,0:0|0:0,0:0:0:0:
288,46,31685,2,0,L|290:155,1,110,2|0,0:0|0:0,0:0:0:0:
268,194,32094,2,0,L|270:303,1,110,8|0,0:0|0:0,0:0:0:0:
294,340,32503,1,8,0:0:0:0:
208,359,32776,1,8,0:0:0:0:
132,313,33049,6,0,P|123:289|124:259,1,55,2|0,0:0|0:0,0:0:0:0:
133,217,33322,2,0,P|152:165|152:110,1,110,2|2,0:0|0:0,0:0:0:0:
76,65,33867,2,0,P|141:20|186:30,1,110,8|2,0:0|0:0,0:0:0:0:
207,43,34276,1,0,0:0:0:0:
243,64,34412,2,0,P|295:81|349:73,1,110,2|0,0:0|0:0,0:0:0:0:
391,58,34822,2,0,L|385:167,1,110,8|0,0:0|0:0,0:0:0:0:
362,205,35231,1,8,0:0:0:0:
399,284,35503,1,8,0:0:0:0:
353,359,35776,6,0,P|378:369|405:371,2,55,2|0|2,0:0|0:0|0:0,0:0:0:0:
275,317,36322,2,0,P|224:295|170:298,1,110,2|8,0:0|0:0,0:0:0:0:
88,331,36867,2,0,P|80:304|82:277,1,55,2|0,0:0|0:0,0:0:0:0:
97,235,37140,2,0,P|118:193|121:126,1,110,2|0,0:0|0:0,0:0:0:0:
92,97,37549,2,0,L|225:88,1,110,8|0,0:0|0:0,0:0:0:0:
245,89,37958,1,8,0:0:0:0:
322,131,38231,1,4,0:3:0:0:
409,121,38503,6,0,P|416:94|417:67,2,55,6|0|0,0:0|0:0|0:0,0:0:0:0:
394,162,38912,2,0,P|381:231|389:280,1,110,8|2,0:0|0:0,0:0:0:0:
403,310,39322,1,8,0:0:0:0:
320,338,39594,1,8,0:0:0:0:
244,291,39867,2,0,L|248:175,1,110,2|0,0:0|0:0,0:0:0:0:
255,136,40276,2,0,P|192:148|145:124,1,110,8|2,0:0|0:0,0:0:0:0:
125,94,40685,1,8,0:0:0:0:
207,61,40958,1,8,0:0:0:0:
255,135,41231,6,0,P|280:144|308:145,1,55,2|0,0:0|0:0,0:0:0:0:
348,128,41503,1,0,0:0:0:0:
384,103,41640,2,0,L|499:114,1,110,8|2,0:0|0:0,0:0:0:0:
498,157,42049,1,8,0:0:0:0:
460,236,42322,1,8,0:0:0:0:
498,314,42594,2,0,P|416:311|374:239,1,165,2|8,0:0|0:0,0:0:0:0:
405,166,43276,1,2,0:0:0:0:
428,129,43412,2,0,L|305:117,1,110,8|8,0:0|0:0,0:0:0:0:
234,91,43958,6,0,P|230:65|240:31,2,55,6|0|0,0:0|0:0|0:0,0:0:0:0:
240,134,44367,2,0,P|240:205|210:244,1,110,8|2,0:0|0:0,0:0:0:0:
182,259,44776,1,8,0:0:0:0:
94,247,45049,1,8,0:0:0:0:
36,179,45322,2,0,L|41:62,1,110,2|0,0:0|0:0,0:0:0:0:
72,38,45731,2,0,P|124:57|177:49,1,110,8|2,0:0|0:0,0:0:0:0:
216,28,46140,1,8,0:0:0:0:
284,82,46412,1,8,0:0:0:0:
365,47,46685,6,0,P|394:43|431:43,1,55,2|0,0:0|0:0,0:0:0:0:
461,56,46958,1,0,0:0:0:0:
496,81,47094,2,0,L|487:190,1,110,8|2,0:0|0:0,0:0:0:0:
482,234,47503,1,8,0:0:0:0:
399,265,47776,1,8,0:0:0:0:
320,224,48049,2,0,P|311:278|333:327,1,110,2|0,0:0|0:0,0:0:0:0:
362,361,48458,2,0,L|252:355,1,110,8|2,0:0|0:0,0:0:0:0:
218,327,48867,1,8,0:0:0:0:
131,345,49140,1,2,0:0:0:0:
60,292,49412,6,0,L|63:173,1,110,6|0,0:0|0:0,0:0:0:0:
64,137,49822,2,0,P|117:148|171:137,1,110,8|0,0:0|0:0,0:0:0:0:
206,110,50231,1,8,0:0:0:0:
280,155,50503,1,2,0:0:0:0:
209,207,50776,2,0,L|205:316,1,110,2|0,0:0|0:0,0:0:0:0:
202,361,51185,2,0,P|255:348|309:356,1,110,8|0,0:0|0:0,0:0:0:0:
351,368,51594,1,8,0:0:0:0:
420,313,51867,1,2,0:0:0:0:
358,249,52140,6,0,P|348:197|359:140,1,110,2|0,0:0|0:0,0:0:0:0:
382,104,52549,2,0,L|272:97,1,110,8|0,0:0|0:0,0:0:0:0:
228,95,52958,1,8,0:0:0:0:
146,127,53231,1,2,0:0:0:0:
69,83,53503,2,0,P|57:137|79:186,1,110,2|0,0:0|0:0,0:0:0:0:
101,224,53912,2,0,P|112:278|90:327,1,110,8|0,0:0|0:0,0:0:0:0:
53,351,54322,1,8,0:0:0:0:
24,268,54595,1,2,0:0:0:0:
101,224,54867,6,0,L|219:229,1,110,6|0,0:0|0:0,0:0:0:0:
243,258,55276,2,0,L|361:263,1,110,8|0,0:0|0:0,0:0:0:0:
392,242,55685,1,8,0:0:0:0:
362,159,55958,1,2,0:0:0:0:
416,89,56231,2,0,P|364:71|312:85,1,110,6|0,0:0|0:0,0:0:0:0:
274,107,56640,2,0,P|222:124|170:110,1,110,8|0,0:0|0:0,0:0:0:0:
131,89,57049,2,0,L|126:211,1,110,6|0,0:0|0:0,0:0:0:0:
123,242,57458,1,8,0:0:0:0:
81,319,57731,1,8,0:0:0:0:
116,344,57867,6,0,P|168:330|222:339,1,110,6|2,0:0|0:0,0:0:0:0:
307,362,58412,1,0,0:0:0:0:
386,323,58685,2,0,L|392:199,1,110,8|2,0:0|0:0,0:0:0:0:
416,128,59231,1,2,0:0:0:0:
330,147,59503,6,0,P|275:152|221:142,1,110,6|8,0:0|0:0,0:0:0:0:
137,114,60049,1,8,0:0:0:0:
62,160,60321,2,0,L|65:230,1,55,12|8,0:0|0:0,0:0:0:0:
94,247,60594,2,0,L|97:317,1,55,8|8,0:0|0:0,0:0:0:0:
117,339,60867,2,0,P|146:344|175:342,1,55,8|8,0:0|0:0,0:0:0:0:
216,339,61140,5,10,0:0:0:0:
388,304,61685,2,0,L|384:360,2,55,8|8|2,0:0|0:0|0:0,0:0:0:0:
390,215,62230,2,0,P|362:219|335:214,1,55,8|8,0:0|0:0,0:0:0:0:
285,196,62503,5,6,0:2:0:0:
285,196,62640,2,0,P|226:168|162:178,1,131.99999597168,8|8,0:0|0:0,0:0:0:0:
118,205,63049,2,0,L|120:294,1,65.9999979858399,2|8,0:0|0:0,0:0:0:0:
121,323,63321,1,2,0:0:0:0:
212,265,63594,1,2,0:0:0:0:
304,316,63867,1,2,0:0:0:0:
304,316,64003,2,0,P|389:327|446:290,1,131.99999597168,8|8,0:0|0:0,0:0:0:0:
452,260,64412,2,0,L|455:189,1,65.9999979858399,2|8,0:0|0:0,0:0:0:0:
429,147,64685,2,0,L|432:76,1,65.9999979858399,2|8,0:0|0:0,0:0:0:0:
396,40,64958,2,0,P|367:53|334:55,1,65.9999979858399,2|8,0:0|0:0,0:0:0:0:
281,50,65230,5,6,0:0:0:0:
281,50,65367,2,0,P|233:36|148:47,1,131.99999597168,8|8,0:0|0:0,0:0:0:0:
114,82,65776,2,0,L|115:158,1,65.9999979858399,2|8,0:0|0:0,0:0:0:0:
90,195,66049,1,2,0:0:0:0:
164,269,66321,1,2,0:0:0:0:
118,363,66594,1,6,0:0:0:0:
118,363,66730,2,0,P|183:371|240:340,1,131.99999597168,8|8,0:0|0:0,0:0:0:0:
282,306,67140,2,0,P|313:298|346:299,1,65.9999979858399,2|8,0:0|0:0,0:0:0:0:
397,315,67412,2,0,P|428:323|461:322,1,65.9999979858399,2|8,0:0|0:0,0:0:0:0:
504,290,67685,2,0,L|505:224,1,65.9999979858399,2|8,0:0|0:0,0:0:0:0:
507,171,67958,5,6,0:0:0:0:
506,171,68094,2,0,P|441:176|380:154,1,131.99999597168,8|8,0:0|0:0,0:0:0:0:
329,138,68503,2,0,L|327:44,1,65.9999979858399,2|8,0:0|0:0,0:0:0:0:
329,19,68776,1,2,0:0:0:0:
227,47,69049,1,2,0:0:0:0:
122,31,69321,1,2,0:0:0:0:
122,31,69458,2,0,L|125:162,1,131.99999597168,8|8,0:0|0:0,0:0:0:0:
114,214,69867,2,0,P|61:205|31:206,2,65.9999979858399,2|8|2,0:0|0:0|0:0,0:0:0:0:
162,235,70276,1,8,0:0:0:0:
213,247,70412,2,0,P|245:245|278:237,1,65.9999979858399,2|8,0:0|0:0,0:0:0:0:
328,220,70685,5,6,0:0:0:0:
328,220,70821,2,0,L|321:84,1,131.99999597168,8|8,0:0|0:0,0:0:0:0:
320,35,71230,2,0,P|357:44|386:40,1,65.9999979858399,2|8,0:0|0:0,0:0:0:0:
435,27,71503,1,2,0:0:0:0:
426,132,71776,2,0,L|421:197,1,65.9999979858399,2|8,0:0|0:0,0:0:0:0:
417,250,72049,1,12,0:0:0:0:
427,300,72185,2,0,P|363:289|299:303,1,131.99999597168,0|2,0:0|0:0,0:0:0:0:
246,302,72594,2,0,P|254:236|251:212,2,65.9999979858399,8|8|4,0:3|0:3|0:3,0:0:0:0:
199,327,73003,1,4,0:3:0:0:
151,302,73140,2,0,P|122:285|89:283,1,65.9999979858399,2|2,0:0|0:0,0:0:0:0:
37,283,73412,5,6,0:2:0:0:
37,283,73549,2,0,L|32:137,1,131.99999597168,8|8,0:0|0:0,0:0:0:0:
89,62,74094,1,8,0:0:0:0:
134,87,74230,2,0,P|165:95|198:89,1,65.9999979858399,2|8,0:0|0:0,0:0:0:0:
250,78,74503,2,0,P|281:69|314:75,1,65.9999979858399,2|8,0:0|0:0,0:0:0:0:
366,85,74776,1,2,0:0:0:0:
366,85,74912,2,0,P|345:146|363:209,1,131.99999597168,8|8,0:0|0:0,0:0:0:0:
390,254,75321,2,0,P|398:312|389:336,1,65.9999979858399,2|8,0:0|0:0,0:0:0:0:
366,361,75594,2,0,P|338:342|306:337,1,65.9999979858399,2|8,0:0|0:0,0:0:0:0:
255,323,75867,2,0,P|227:341|195:346,1,65.9999979858399,2|8,0:0|0:0,0:0:0:0:
142,347,76140,5,6,0:0:0:0:
142,347,76276,2,0,P|157:283|134:223,1,131.99999597168,8|8,0:0|0:0,0:0:0:0:
60,146,76821,1,8,0:0:0:0:
68,93,76958,2,0,L|77:17,1,65.9999979858399,2|8,0:0|0:0,0:0:0:0:
127,38,77230,2,0,P|158:48|191:49,1,65.9999979858399,2|8,0:0|0:0,0:0:0:0:
242,36,77503,1,6,0:0:0:0:
242,36,77640,2,0,L|242:168,1,131.99999597168,8|8,0:0|0:0,0:0:0:0:
229,219,78049,2,0,P|179:209|144:213,2,65.9999979858399,2|8|2,0:0|0:0|0:0,0:0:0:0:
270,252,78458,1,8,0:0:0:0:
310,286,78594,2,0,L|376:282,1,65.9999979858399,2|8,0:0|0:0,0:0:0:0:
428,275,78867,5,6,0:0:0:0:
428,275,79003,2,0,P|408:212|422:149,1,131.99999597168,8|8,0:0|0:0,0:0:0:0:
439,98,79412,2,0,L|348:90,1,65.9999979858399,2|8,0:0|0:0,0:0:0:0:
324,112,79685,2,0,L|233:104,1,65.9999979858399,2|8,0:0|0:0,0:0:0:0:
215,74,79958,2,0,L|124:66,1,65.9999979858399,2|8,0:0|0:0,0:0:0:0:
105,97,80230,2,0,P|116:128|106:178,1,65.9999979858399,2|8,0:0|0:0,0:0:0:0:
93,209,80503,1,0,0:0:0:0:
138,304,80776,2,0,P|117:329|104:359,2,65.9999979858399,2|8|2,0:0|0:0|0:0,0:0:0:0:
185,280,81185,1,8,0:0:0:0:
237,278,81321,2,0,P|270:285|317:281,1,65.9999979858399,2|8,0:0|0:0,0:0:0:0:
354,275,81594,5,6,0:0:0:0:
354,275,81730,2,0,L|363:134,1,131.99999597168,8|8,0:0|0:0,0:0:0:0:
354,90,82140,2,0,P|417:92|437:84,2,65.9999979858399,2|8|2,0:0|0:0|0:0,0:0:0:0:
304,70,82549,1,8,0:0:0:0:
254,53,82685,2,0,P|221:48|189:54,1,65.9999979858399,2|8,0:0|0:0,0:0:0:0:
144,83,82958,2,0,L|148:214,1,131.99999597168,6|0,0:0|0:0,0:0:0:0:
173,262,83367,1,8,0:0:0:0:
168,314,83503,2,0,P|136:324|104:324,2,65.9999979858399,2|8|6,0:0|0:0|0:0,0:0:0:0:
270,288,84049,2,0,P|302:284|337:297,1,65.9999979858399,2|8,0:0|0:0,0:0:0:0:
383,311,84321,5,6,0:2:0:0:
383,311,84458,2,0,L|390:174,1,131.99999597168,0|0,0:0|0:0,0:0:0:0:
391,126,84867,2,0,P|423:129|455:123,2,65.9999979858399,2|8|2,0:0|0:0|0:0,0:0:0:0:
339,112,85276,1,8,0:0:0:0:
291,89,85412,2,0,L|285:176,1,65.9999979858399,2|8,0:0|0:0,0:0:0:0:
281,207,85685,1,6,0:0:0:0:
236,302,85958,1,8,0:0:0:0:
341,294,86230,1,2,0:0:0:0:
281,207,86503,2,0,P|223:195|197:202,1,65.9999979858399,6|8,0:0|0:0,0:0:0:0:
168,215,86776,2,0,P|110:227|84:220,1,65.9999979858399,2|8,0:0|0:0,0:0:0:0:
51,224,87049,5,6,0:2:0:0:
47,118,87321,2,0,L|43:35,2,65.9999979858399,2|8|2,0:0|0:0|0:0,0:0:0:0:
95,139,87730,1,8,0:0:0:0:
144,120,87867,2,0,P|182:111|212:114,1,65.9999979858399,6|0,0:0|0:0,0:0:0:0:
260,123,88140,1,8,0:3:0:0:
352,173,88412,5,14,0:0:0:0:
352,173,88549,1,10,0:0:0:0:
352,173,88685,1,10,0:0:0:0:
