osu file format v14

[General]
AudioFilename: Song.mp3
AudioLeadIn: 1500
PreviewTime: 62094
Countdown: 0
SampleSet: Soft
StackLeniency: 0.7
Mode: 0
LetterboxInBreaks: 0
WidescreenStoryboard: 0

[Editor]
Bookmarks: 340,3067,13976,26249,27612,38521,49430,56249,62521,73430,84339,87067,88430,88567,88703
DistanceSpacing: 0.9
BeatDivisor: 4
GridSize: 8
TimelineZoom: 2.6

[Metadata]
Title:Amakakeru Hoshi TV ver.
TitleUnicode:天かける星 TV ver.
Artist:Suara
ArtistUnicode:Suara
Creator:Taeyang
Version:Another
Source:うたわれるもの 偽りの仮面
Tags:utawarerumono Itsuwari no Kamen season 2
BeatmapID:898969
BeatmapSetID:414667

[Difficulty]
HPDrainRate:6
CircleSize:4
OverallDifficulty:7.4
ApproachRate:9
SliderMultiplier:1.4
SliderTickRate:1

[Events]
//Background and Video events
0,0,"BG.jpg",0,0
Video,0,"video.flv"
//Break Periods
//Storyboard Layer 0 (Background)
//Storyboard Layer 1 (Fail)
//Storyboard Layer 2 (Pass)
//Storyboard Layer 3 (Foreground)
//Storyboard Sound Samples

[TimingPoints]
322,272.727272727273,5,2,1,50,1,0
390,-100,5,2,1,30,0,0
3049,-100,5,2,1,40,0,0
12594,-100,5,2,2,50,0,0
13140,-100,5,2,2,60,0,0
13958,-100,5,2,2,70,0,0
27594,-125,5,2,1,50,0,0
38503,-100,5,2,3,60,0,0
49412,-100,5,2,3,65,0,0
56231,272.727272727273,3,2,3,65,1,0
60321,-100,3,2,3,70,0,0
60594,-100,3,2,3,60,0,0
60867,-100,3,2,3,50,0,0
61140,272.727272727273,5,2,3,40,1,0
61958,-100,3,2,3,60,0,0
62230,-100,3,2,3,50,0,0
62367,-100,3,2,3,60,0,0
62503,-83.3333333333333,5,1,4,70,0,1
73344,-83.3333333333333,5,1,4,70,0,0
73412,-83.3333333333333,5,1,4,70,0,1
84253,-83.3333333333333,5,1,4,70,0,0
84321,-83.3333333333333,5,1,4,75,0,1
85685,-83.3333333333333,5,1,4,80,0,1
86980,-83.3333333333333,5,1,4,80,0,0
87049,-83.3333333333333,5,1,4,85,0,1
88412,-83.3333333333333,5,1,4,90,0,1
88685,-83.3333333333333,5,1,4,100,0,0

[Colours]
Combo1 : 235,242,140
Combo2 : 250,133,133
Combo3 : 134,171,249
Combo4 : 143,239,189
SliderTrackOverride : 133,218,250
SliderBorder : 245,235,156

[HitObjects]
141,177,322,5,4,2:1:0:0:
141,177,594,2,0,P|176:170|208:179,1,70,2|0,0:0|0:0,0:0:0:0:
338,241,867,2,0,L|335:171,1,70,8|8,0:0|0:0,0:0:0:0:
410,284,1140,2,0,P|354:322|288:306,1,140,2|8,0:0|0:0,0:0:0:0:
170,252,1549,1,8,0:0:0:0:
170,252,1685,6,0,L|167:321,1,70,2|0,0:0|0:0,0:0:0:0:
89,209,1958,2,0,L|86:139,1,70,8|0,0:0|0:0,0:0:0:0:
230,117,2231,2,0,L|232:186,1,70,2|0,0:0|0:0,0:0:0:0:
310,338,2503,2,0,L|312:268,1,70,8|0,0:0|0:0,0:0:0:0:
315,119,2776,1,8,0:0:0:0:
406,252,2912,1,8,0:0:0:0:
216,214,3049,6,0,B|212:104|212:104|185:144,1,140,6|0,0:0|0:0,0:0:0:0:
147,264,3458,2,0,P|206:297|270:277,1,140,2|0,0:0|0:0,0:0:0:0:
376,178,3867,2,0,L|448:172,1,70,2|0,0:0|0:0,0:0:0:0:
501,265,4140,2,0,L|431:259,1,70,8|0,0:0|0:0,0:0:0:0:
323,97,4412,6,0,B|435:87|435:87|401:62,1,140,2|0,0:0|0:0,0:0:0:0:
254,46,4822,1,2,0:0:0:0:
254,45,4958,2,0,P|239:77|240:112,1,70,0|0,0:0|0:0,0:0:0:0:
323,234,5231,2,0,P|303:205|272:189,1,70,2|0,0:0|0:0,0:0:0:0:
120,224,5503,1,8,0:0:0:0:
249,265,5640,1,0,0:0:0:0:
83,298,5776,6,0,P|40:246|49:179,1,140,2|0,0:0|0:0,0:0:0:0:
174,58,6185,2,0,B|209:80|209:80|215:184,1,140,2|0,0:0|0:0,0:0:0:0:
254,350,6594,2,0,L|259:281,1,70,2|0,0:0|0:0,0:0:0:0:
328,131,6867,2,0,L|332:200,1,70,8|0,0:0|0:0,0:0:0:0:
411,333,7140,6,0,B|442:312|442:312|449:209,1,140,2|0,0:0|0:0,0:0:0:0:
411,100,7549,1,2,0:0:0:0:
411,100,7685,2,0,P|444:89|470:66,1,70,0|0,0:0|0:0,0:0:0:0:
307,41,7958,2,0,P|272:34|238:42,1,70,2|0,0:0|0:0,0:0:0:0:
158,206,8231,1,8,0:0:0:0:
308,147,8367,1,0,0:0:0:0:
130,52,8503,6,0,L|137:191,1,140,2|0,0:0|0:0,0:0:0:0:
325,163,8912,2,0,L|317:302,1,140,2|0,0:0|0:0,0:0:0:0:
132,346,9322,2,0,L|138:270,1,70,2|0,0:0|0:0,0:0:0:0:
225,120,9594,2,0,L|230:189,1,70,8|0,0:0|0:0,0:0:0:0:
315,327,9867,6,0,P|382:347|449:329,1,140,2|0,0:0|0:0,0:0:0:0:
471,233,10276,1,2,0:0:0:0:
422,148,10412,2,0,L|425:78,1,70,0|0,0:0|0:0,0:0:0:0:
321,41,10685,2,0,L|324:110,1,70,2|0,0:0|0:0,0:0:0:0:
334,231,10958,1,8,0:0:0:0:
236,116,11094,1,0,0:0:0:0:
149,241,11231,6,0,B|139:248|129:265|129:265|134:156,1,140,2|0,0:0|0:0,0:0:0:0:
204,299,11640,1,2,0:0:0:0:
45,283,11776,2,0,L|48:213,1,70,0|0,0:0|0:0,0:0:0:0:
113,67,12049,2,0,L|116:136,1,70,2|0,0:0|0:0,0:0:0:0:
27,44,12322,1,8,0:0:0:0:
194,19,12458,1,0,0:0:0:0:
134,156,12594,5,2,0:0:0:0:
303,129,12731,2,0,L|298:269,1,140,8|0,0:0|0:0,0:0:0:0:
151,172,13140,2,0,L|155:241,1,70,8|0,0:0|0:0,0:0:0:0:
318,283,13412,2,0,L|322:214,1,70,6|8,0:0|0:0,0:0:0:0:
251,342,13685,1,2,0:0:0:0:
233,213,13822,1,8,0:0:0:0:
408,202,13958,5,6,0:0:0:0:
377,343,14094,2,0,P|314:370|251:342,1,140,8|8,0:0|0:0,0:0:0:0:
204,136,14503,2,0,P|238:129|271:140,1,70,2|8,0:0|0:0,0:0:0:0:
155,244,14776,2,0,P|121:254|87:248,1,70,2|8,0:0|0:0,0:0:0:0:
129,100,15049,1,2,0:0:0:0:
233,213,15185,1,8,0:0:0:0:
331,77,15322,5,2,0:0:0:0:
414,240,15458,2,0,B|426:266|426:266|436:155,1,140,8|8,0:0|0:0,0:0:0:0:
260,35,15867,2,0,P|248:68|253:103,1,70,2|8,0:0|0:0,0:0:0:0:
315,241,16140,2,0,P|320:206|309:174,1,70,2|8,0:0|0:0,0:0:0:0:
163,284,16412,1,2,0:0:0:0:
303,323,16549,1,8,0:0:0:0:
205,188,16685,5,6,0:0:0:0:
73,282,16822,2,0,B|46:305|46:305|56:201,1,140,8|8,0:0|0:0,0:0:0:0:
124,46,17231,2,0,L|132:115,1,70,2|8,0:0|0:0,0:0:0:0:
195,281,17503,2,0,L|203:212,1,70,2|8,0:0|0:0,0:0:0:0:
224,62,17776,1,2,0:0:0:0:
324,170,17912,1,8,0:0:0:0:
455,97,18049,6,0,P|420:89|387:98,1,70,6|8,0:0|0:0,0:0:0:0:
355,244,18322,2,0,P|320:251|287:242,1,70,2|0,0:0|0:0,0:0:0:0:
423,185,18594,2,0,P|441:214|445:249,1,70,2|8,0:0|0:0,0:0:0:0:
199,249,18867,2,0,P|202:214|221:184,1,70,6|8,0:0|0:0,0:0:0:0:
387,98,19140,1,2,0:0:0:0:
401,116,19412,5,6,0:0:0:0:
392,317,19549,2,0,P|323:331|255:318,1,140,8|8,0:0|0:0,0:0:0:0:
144,364,19958,2,0,L|135:277,1,70,2|8,0:0|0:0,0:0:0:0:
208,149,20231,2,0,L|200:218,1,70,2|8,0:0|0:0,0:0:0:0:
120,117,20503,1,2,0:0:0:0:
280,95,20640,1,8,0:0:0:0:
199,249,20776,5,2,0:0:0:0:
62,178,20912,2,0,P|35:115|65:53,1,140,8|8,0:0|0:0,0:0:0:0:
211,99,21322,2,0,P|246:103|280:95,1,70,2|8,0:0|0:0,0:0:0:0:
403,53,21594,2,0,L|399:139,1,70,2|8,0:0|0:0,0:0:0:0:
292,182,21867,2,0,L|295:251,1,70,2|8,0:0|0:0,0:0:0:0:
434,326,22140,5,6,0:0:0:0:
268,337,22276,2,0,L|275:196,1,140,8|8,0:0|0:0,0:0:0:0:
120,113,22685,2,0,L|122:182,1,70,2|8,0:0|0:0,0:0:0:0:
206,87,22958,2,0,L|208:156,1,70,2|8,0:0|0:0,0:0:0:0:
135,265,23231,2,0,P|100:264|70:248,1,70,2|8,0:0|0:0,0:0:0:0:
208,156,23503,5,6,0:0:0:0:
191,336,23640,2,0,P|124:357|55:348,1,140,8|8,0:0|0:0,0:0:0:0:
227,262,24049,2,0,P|256:282|269:314,1,70,2|8,0:0|0:0,0:0:0:0:
69,247,24322,2,0,L|67:177,1,70,6|8,0:0|0:0,0:0:0:0:
209,157,24594,2,0,L|211:87,1,70,2|8,0:0|0:0,0:0:0:0:
58,45,24867,5,6,0:0:0:0:
227,72,25003,1,8,0:0:0:0:
82,164,25140,2,0,L|84:233,1,70,2|8,0:0|0:0,0:0:0:0:
154,323,25412,2,0,P|196:296|236:295,1,70,2|8,0:0|0:0,0:0:0:0:
362,350,25685,2,0,P|329:337|305:312,1,70,10|0,0:0|0:0,0:0:0:0:
327,113,25958,1,2,0:0:0:0:
377,267,26094,1,8,0:0:0:0:
219,373,26231,1,4,0:1:0:0:
256,192,26299,12,0,27322,0:0:0:0:
186,270,27594,6,0,L|130:266,1,56,6|0,0:0|0:0,0:0:0:0:
201,186,27867,1,2,0:0:0:0:
265,239,28003,2,0,P|271:266|267:293,1,56,8|2,0:0|0:0,0:0:0:0:
134,130,28412,2,0,P|182:103|237:109,1,112,8|2,0:0|0:0,0:0:0:0:
306,158,28822,1,0,0:0:0:0:
385,132,28958,6,0,L|376:7,1,112,2|0,0:0|0:0,0:0:0:0:
495,85,29367,2,0,L|486:196,1,112,8|0,0:0|0:0,0:0:0:0:
491,295,29776,2,0,P|465:287|437:285,1,56,8|0,0:0|0:0,0:0:0:0:
298,296,30049,2,0,P|325:293|352:285,1,56,8|0,0:0|0:0,0:0:0:0:
219,261,30322,6,0,P|211:287|213:315,1,56,2|0,0:0|0:0,0:0:0:0:
294,213,30594,1,2,0:0:0:0:
217,177,30731,2,0,L|144:180,1,56,8|2,0:0|0:0,0:0:0:0:
39,40,31140,2,0,L|150:43,1,112,8|2,0:0|0:0,0:0:0:0:
226,84,31549,1,0,0:0:0:0:
102,128,31685,6,0,B|80:160|80:160|86:232,1,112,2|0,0:0|0:0,0:0:0:0:
157,318,32094,2,0,P|103:310|56:339,1,112,8|0,0:0|0:0,0:0:0:0:
220,371,32503,2,0,P|237:350|242:323,1,56,8|0,0:0|0:0,0:0:0:0:
183,198,32776,2,0,P|188:225|206:247,1,56,8|0,0:0|0:0,0:0:0:0:
326,316,33049,6,0,L|328:260,1,56,2|0,0:0|0:0,0:0:0:0:
389,201,33322,1,2,0:0:0:0:
452,314,33458,2,0,L|449:258,1,56,8|2,0:0|0:0,0:0:0:0:
459,66,33867,2,0,L|462:177,1,112,8|2,0:0|0:0,0:0:0:0:
450,259,34276,1,0,0:0:0:0:
350,135,34412,6,0,P|303:107|249:117,1,112,2|0,0:0|0:0,0:0:0:0:
179,42,34822,2,0,P|170:68|168:96,1,56,8|0,0:0|0:0,0:0:0:0:
185,211,35094,1,0,0:0:0:0:
55,173,35231,2,0,L|110:169,1,56,8|0,0:0|0:0,0:0:0:0:
21,264,35503,2,0,L|76:267,1,56,8|0,0:0|0:0,0:0:0:0:
228,282,35776,6,0,P|251:267|265:243,1,56,2|0,0:0|0:0,0:0:0:0:
308,171,36049,1,2,0:0:0:0:
421,244,36185,2,0,L|418:307,1,56,8|2,0:0|0:0,0:0:0:0:
501,129,36594,2,0,B|479:155|479:155|401:149,1,112,8|2,0:0|0:0,0:0:0:0:
289,140,37003,1,0,0:0:0:0:
387,44,37140,6,0,L|275:48,1,112,2|0,0:0|0:0,0:0:0:0:
207,190,37549,2,0,L|95:185,1,112,8|0,0:0|0:0,0:0:0:0:
190,99,37958,1,8,0:0:0:0:
233,325,38231,1,4,0:3:0:0:
240,345,38503,6,0,L|310:341,1,70,6|0,0:0|0:0,0:0:0:0:
462,279,38776,1,0,0:0:0:0:
462,279,38912,2,0,L|392:275,1,70,8|0,0:0|0:0,0:0:0:0:
274,206,39185,1,2,0:0:0:0:
368,108,39322,2,0,B|388:87|388:87|378:197,1,140,8|8,0:0|0:0,0:0:0:0:
320,47,39731,1,0,0:0:0:0:
470,43,39867,6,0,L|457:182,1,140,2|0,0:0|0:0,0:0:0:0:
438,329,40276,2,0,P|372:307|306:327,1,140,8|2,0:0|0:0,0:0:0:0:
175,362,40685,2,0,L|168:286,1,70,8|0,0:0|0:0,0:0:0:0:
53,308,40958,2,0,L|59:238,1,70,8|0,0:0|0:0,0:0:0:0:
76,97,41231,5,2,0:0:0:0:
76,97,41367,1,0,0:0:0:0:
149,189,41503,1,0,0:0:0:0:
149,188,41640,2,0,P|183:191|218:186,1,70,8|0,0:0|0:0,0:0:0:0:
347,147,41912,1,2,0:0:0:0:
425,217,42049,2,0,B|416:322|416:322|437:294,1,140,8|8,0:0|0:0,0:0:0:0:
486,152,42458,1,0,0:0:0:0:
345,177,42594,6,0,L|334:316,1,140,2|0,0:0|0:0,0:0:0:0:
164,224,43003,2,0,P|231:212|285:254,1,140,8|2,0:0|0:0,0:0:0:0:
213,359,43412,2,0,P|204:326|211:291,1,70,8|0,0:0|0:0,0:0:0:0:
93,178,43685,2,0,P|118:154|151:143,1,70,8|0,0:0|0:0,0:0:0:0:
305,243,43958,5,6,0:0:0:0:
305,243,44094,1,0,0:0:0:0:
416,156,44231,1,0,0:0:0:0:
416,156,44367,2,0,B|398:125|398:125|394:230,1,140,8|2,0:0|0:0,0:0:0:0:
329,81,44776,2,0,P|388:47|453:69,1,140,8|8,0:0|0:0,0:0:0:0:
310,158,45185,1,0,0:0:0:0:
191,105,45322,6,0,B|162:129|162:129|166:231,1,140,2|0,0:0|0:0,0:0:0:0:
45,358,45731,2,0,L|52:217,1,140,8|2,0:0|0:0,0:0:0:0:
75,46,46140,2,0,L|80:116,1,70,8|0,0:0|0:0,0:0:0:0:
182,250,46412,2,0,L|178:319,1,70,8|0,0:0|0:0,0:0:0:0:
76,205,46685,5,2,0:0:0:0:
76,205,46822,1,0,0:0:0:0:
190,130,46958,1,0,0:0:0:0:
190,130,47094,2,0,B|297:145|297:145|324:128,1,140,8|2,0:0|0:0,0:0:0:0:
409,12,47503,2,0,P|400:45|402:80,1,70,8|0,0:0|0:0,0:0:0:0:
463,244,47776,1,8,0:0:0:0:
495,109,47912,1,0,0:0:0:0:
400,187,48049,6,0,P|378:252|410:312,1,140,2|0,0:0|0:0,0:0:0:0:
422,170,48458,2,0,L|282:172,1,140,8|2,0:0|0:0,0:0:0:0:
142,224,48867,2,0,L|217:228,1,70,8|0,0:0|0:0,0:0:0:0:
101,136,49140,2,0,L|176:140,1,70,2|0,0:0|0:0,0:0:0:0:
46,204,49412,6,0,P|14:143|34:78,1,140,6|0,0:0|0:0,0:0:0:0:
128,29,49822,2,0,B|157:52|157:52|259:48,1,140,8|0,0:0|0:0,0:0:0:0:
365,42,50231,2,0,P|357:91|362:120,1,70,8|0,0:0|0:0,0:0:0:0:
275,172,50503,2,0,P|300:195|331:211,1,70,2|0,0:0|0:0,0:0:0:0:
250,299,50776,6,0,B|352:291|352:291|324:315,1,140,2|0,0:0|0:0,0:0:0:0:
193,362,51185,2,0,P|165:301|190:237,1,140,8|0,0:0|0:0,0:0:0:0:
84,168,51594,2,0,L|153:162,1,70,8|0,0:0|0:0,0:0:0:0:
49,83,51867,2,0,L|118:77,1,70,2|0,0:0|0:0,0:0:0:0:
302,65,52140,6,0,B|277:91|277:91|283:194,1,140,2|0,0:0|0:0,0:0:0:0:
361,331,52549,2,0,B|367:219|367:219|379:245,1,140,8|0,0:0|0:0,0:0:0:0:
278,362,52958,2,0,L|270:292,1,70,8|0,0:0|0:0,0:0:0:0:
198,168,53231,2,0,L|190:237,1,70,2|0,0:0|0:0,0:0:0:0:
106,337,53503,6,0,L|87:198,1,140,2|0,0:0|0:0,0:0:0:0:
177,85,53912,2,0,P|110:95|61:48,1,140,8|0,0:0|0:0,0:0:0:0:
239,26,54322,2,0,P|259:55|260:90,1,70,8|0,0:0|0:0,0:0:0:0:
357,128,54594,2,0,P|341:159|312:178,1,70,2|0,0:0|0:0,0:0:0:0:
166,181,54867,6,0,B|139:210|139:210|145:310,1,140,6|0,0:0|0:0,0:0:0:0:
357,254,55276,2,0,P|301:214|237:233,1,140,8|0,0:0|0:0,0:0:0:0:
407,319,55685,2,0,P|430:293|438:259,1,70,8|0,0:0|0:0,0:0:0:0:
290,294,55958,2,0,L|294:366,1,70,2|0,0:0|0:0,0:0:0:0:
138,289,56231,6,0,B|144:183|144:183|115:149,1,140,6|0,0:0|0:0,0:0:0:0:
65,331,56640,2,0,P|120:371|186:357,1,140,8|0,0:0|0:0,0:0:0:0:
323,213,57049,2,0,P|378:172|444:186,1,140,6|0,0:0|0:0,0:0:0:0:
290,294,57458,2,0,P|259:277|241:248,1,70,8|0,0:0|0:0,0:0:0:0:
397,255,57731,1,8,0:0:0:0:
228,367,57867,6,0,L|224:227,1,140,6|2,0:0|0:0,0:0:0:0:
224,227,58412,1,0,0:0:0:0:
434,174,58685,1,8,0:0:0:0:
434,173,58958,2,0,L|437:33,1,140,2|2,0:0|0:0,0:0:0:0:
494,239,59503,6,0,P|429:261|367:232,1,140,6|8,0:0|0:0,0:0:0:0:
148,78,60049,1,8,0:0:0:0:
39,222,60321,1,12,0:0:0:0:
115,294,60458,1,8,0:0:0:0:
218,279,60594,2,0,P|224:244|218:210,1,70,8|8,0:0|0:0,0:0:0:0:
76,134,60867,2,0,P|102:156|135:168,1,70,8|8,0:0|0:0,0:0:0:0:
356,120,61140,5,10,0:0:0:0:
376,138,61685,2,0,L|370:228,1,70,8|8,0:0|0:0,0:0:0:0:
300,351,61958,2,0,L|296:282,1,70,2|0,0:0|0:0,0:0:0:0:
231,143,62230,1,8,0:0:0:0:
178,292,62367,1,8,0:0:0:0:
369,235,62503,5,6,0:2:0:0:
296,89,62640,2,0,P|221:60|155:106,1,167.999994873047,8|8,0:0|0:0,0:0:0:0:
178,292,63049,1,2,0:0:0:0:
50,193,63185,1,8,0:0:0:0:
231,143,63321,2,0,L|237:251,1,83.9999974365235,2|8,0:0|0:0,0:0:0:0:
349,335,63594,2,0,L|353:251,1,83.9999974365235,2|8,0:0|0:0,0:0:0:0:
268,358,63867,5,2,0:0:0:0:
432,381,64003,2,0,L|440:213,1,167.999994873047,8|8,0:0|0:0,0:0:0:0:
495,58,64412,2,0,P|453:73|415:77,1,83.9999974365235,2|8,0:0|0:0,0:0:0:0:
251,118,64685,2,0,P|292:122|331:137,1,83.9999974365235,2|8,0:0|0:0,0:0:0:0:
451,220,64958,1,2,0:0:0:0:
419,67,65094,1,8,0:0:0:0:
286,230,65230,5,6,0:0:0:0:
221,39,65367,2,0,P|166:98|186:175,1,167.999994873047,8|8,0:0|0:0,0:0:0:0:
306,248,65776,2,0,L|300:331,1,83.9999974365235,2|8,0:0|0:0,0:0:0:0:
182,348,66049,1,2,0:0:0:0:
286,230,66185,1,8,0:0:0:0:
381,365,66321,2,0,L|386:281,1,83.9999974365235,2|8,0:0|0:0,0:0:0:0:
405,72,66594,5,6,0:0:0:0:
458,200,66730,2,0,B|486:180|486:180|352:167,1,167.999994873047,8|8,0:0|0:0,0:0:0:0:
133,142,67140,2,0,L|240:126,1,83.9999974365235,2|8,0:0|0:0,0:0:0:0:
312,258,67412,2,0,L|205:242,1,83.9999974365235,2|8,0:0|0:0,0:0:0:0:
50,218,67685,1,2,0:0:0:0:
184,315,67821,1,8,0:0:0:0:
231,125,67958,5,6,0:0:0:0:
33,227,68094,2,0,L|27:59,1,167.999994873047,8|8,0:0|0:0,0:0:0:0:
229,41,68503,2,0,P|269:48|302:75,1,83.9999974365235,2|8,0:0|0:0,0:0:0:0:
228,245,68776,1,2,0:0:0:0:
147,117,68912,1,8,0:0:0:0:
313,158,69049,2,0,L|310:244,1,83.9999974365235,2|8,0:0|0:0,0:0:0:0:
384,102,69321,5,2,0:0:0:0:
396,263,69458,2,0,P|343:323|262:315,1,167.999994873047,8|8,0:0|0:0,0:0:0:0:
133,208,69867,2,0,P|174:208|214:222,1,83.9999974365235,2|8,0:0|0:0,0:0:0:0:
77,271,70140,1,2,0:0:0:0:
180,128,70276,1,8,0:0:0:0:
309,240,70412,2,0,P|351:234|387:212,1,83.9999974365235,2|8,0:0|0:0,0:0:0:0:
503,142,70685,5,6,0:0:0:0:
458,325,70821,2,0,L|286:318,1,167.999994873047,8|8,0:0|0:0,0:0:0:0:
145,254,71230,2,0,L|62:258,1,83.9999974365235,2|8,0:0|0:0,0:0:0:0:
197,317,71503,2,0,P|222:284|226:243,1,83.9999974365235,2|8,0:0|0:0,0:0:0:0:
138,160,71776,1,2,0:0:0:0:
280,115,71912,1,8,0:0:0:0:
102,28,72049,5,12,0:0:0:0:
301,37,72185,2,0,P|357:93|337:171,1,167.999994873047,0|2,0:0|0:0,0:0:0:0:
156,178,72594,1,8,0:3:0:0:
156,178,72730,1,8,0:3:0:0:
260,277,72867,1,4,0:3:0:0:
260,277,73003,1,4,0:3:0:0:
280,115,73140,1,2,0:0:0:0:
365,221,73276,1,2,0:0:0:0:
366,241,73344,1,2,0:0:0:0:
368,262,73412,5,6,0:2:0:0:
455,136,73549,2,0,B|425:108|425:108|299:114,1,167.999994873047,8|8,0:0|0:0,0:0:0:0:
119,121,73958,2,0,P|112:166|129:205,1,83.9999974365235,2|8,0:0|0:0,0:0:0:0:
262,282,74230,1,2,0:0:0:0:
195,154,74367,1,8,0:0:0:0:
99,288,74503,2,0,L|209:284,1,83.9999974365235,2|8,0:0|0:0,0:0:0:0:
38,208,74776,5,2,0:0:0:0:
23,372,74912,2,0,L|190:365,1,167.999994873047,8|8,0:0|0:0,0:0:0:0:
387,358,75321,2,0,P|400:312|399:269,1,83.9999974365235,2|8,0:0|0:0,0:0:0:0:
271,150,75594,2,0,P|271:191|284:231,1,83.9999974365235,2|8,0:0|0:0,0:0:0:0:
368,94,75867,1,2,0:0:0:0:
188,106,76003,1,8,0:0:0:0:
295,245,76140,5,6,0:0:0:0:
382,82,76276,2,0,B|398:56|398:56|260:64,1,167.999994873047,8|8,0:0|0:0,0:0:0:0:
98,207,76685,2,0,P|32:226|-4:219,1,83.9999974365235,2|8,0:0|0:0,0:0:0:0:
107,88,76958,2,0,P|149:89|188:106,1,83.9999974365235,2|8,0:0|0:0,0:0:0:0:
347,172,77230,1,2,0:0:0:0:
211,257,77367,1,8,0:0:0:0:
368,297,77503,5,6,0:0:0:0:
165,325,77640,2,0,P|130:252|174:184,1,167.999994873047,8|8,0:0|0:0,0:0:0:0:
359,156,78049,2,0,P|376:119|378:77,1,83.9999974365235,2|8,0:0|0:0,0:0:0:0:
216,24,78321,2,0,P|217:65|235:103,1,83.9999974365235,2|8,0:0|0:0,0:0:0:0:
328,231,78594,1,2,0:0:0:0:
183,308,78730,1,8,0:0:0:0:
347,358,78867,5,6,0:0:0:0:
163,302,79003,2,0,B|135:288|135:288|132:151,1,167.999994873047,8|8,0:0|0:0,0:0:0:0:
48,263,79412,1,2,0:0:0:0:
214,228,79549,1,8,0:0:0:0:
185,83,79685,2,0,P|149:64|108:68,1,83.9999974365235,2|8,0:0|0:0,0:0:0:0:
274,161,79958,2,0,L|279:77,1,83.9999974365235,2|8,0:0|0:0,0:0:0:0:
201,236,80230,5,2,0:0:0:0:
356,224,80367,2,0,L|365:56,1,167.999994873047,8|8,0:0|0:0,0:0:0:0:
274,161,80776,1,2,0:0:0:0:
440,225,80912,1,8,0:0:0:0:
328,334,81049,2,0,P|286:338|245:327,1,83.9999974365235,2|8,0:0|0:0,0:0:0:0:
104,359,81321,2,0,L|101:276,1,83.9999974365235,2|8,0:0|0:0,0:0:0:0:
91,79,81594,5,6,0:0:0:0:
241,137,81730,2,0,B|273:162|273:162|145:154,1,167.999994873047,8|8,0:0|0:0,0:0:0:0:
340,199,82140,2,0,P|352:159|337:120,1,83.9999974365235,2|8,0:0|0:0,0:0:0:0:
173,237,82412,2,0,L|261:242,1,83.9999974365235,2|8,0:0|0:0,0:0:0:0:
145,154,82685,1,2,0:0:0:0:
121,313,82821,1,8,0:0:0:0:
276,245,82958,5,6,0:0:0:0:
106,79,83094,2,0,P|60:144|92:218,1,167.999994873047,8|8,0:0|0:0,0:0:0:0:
218,80,83503,2,0,L|313:84,1,83.9999974365235,2|8,0:0|0:0,0:0:0:0:
448,185,83776,2,0,L|353:189,1,83.9999974365235,6|8,0:0|0:0,0:0:0:0:
484,106,84049,1,2,0:0:0:0:
417,267,84185,1,8,0:0:0:0:
260,166,84321,6,0,P|222:184|199:218,1,83.9999974365235,6|0,0:2|0:0,0:0:0:0:
229,379,84594,2,0,P|231:337|213:300,1,83.9999974365235,8|0,0:0|0:0,0:0:0:0:
61,246,84867,2,0,P|95:268|137:272,1,83.9999974365235,2|8,0:0|0:0,0:0:0:0:
276,245,85140,1,2,0:0:0:0:
276,245,85276,1,8,0:0:0:0:
121,192,85412,1,2,0:0:0:0:
121,192,85549,1,8,0:0:0:0:
152,353,85685,6,0,L|241:349,1,83.9999974365235,6|0,0:0|0:0,0:0:0:0:
377,250,85958,2,0,L|293:246,1,83.9999974365235,8|0,0:0|0:0,0:0:0:0:
107,172,86230,2,0,L|190:168,1,83.9999974365235,2|8,0:0|0:0,0:0:0:0:
431,128,86503,1,6,0:0:0:0:
431,128,86640,1,8,0:0:0:0:
245,85,86776,1,2,0:0:0:0:
245,85,86913,1,8,0:0:0:0:
293,246,87049,6,0,P|289:295|267:328,1,83.9999974365235,6|8,0:2|0:0,0:0:0:0:
185,151,87321,2,0,P|159:109|157:69,1,83.9999974365235,2|8,0:0|0:0,0:0:0:0:
328,164,87594,2,0,P|373:182|397:214,1,83.9999974365235,2|8,0:0|0:0,0:0:0:0:
285,341,87867,1,6,0:0:0:0:
245,85,88140,2,0,L|323:80,3,41.9999987182618,8|8|4|4,0:3|0:3|0:3|0:3,0:0:0:0:
331,80,88412,5,14,0:0:0:0:
166,169,88549,1,10,0:0:0:0:
407,230,88685,1,10,0:0:0:0:
