osu file format v14

[General]
AudioFilename: audio.mp3
AudioLeadIn: 0
PreviewTime: 88066
Countdown: 1
SampleSet: Normal
StackLeniency: 0.7
Mode: 1
LetterboxInBreaks: 0
WidescreenStoryboard: 0

[Editor]
Bookmarks: 22237,44180,66123,118237,140180,214237,233437,244409,266352,288295
DistanceSpacing: 1.1
BeatDivisor: 4
GridSize: 4
TimelineZoom: 4.099999

[Metadata]
Title:Prism Sympathy (Asterisk Remix)
TitleUnicode:Prism Sympathy (Asterisk Remix)
Artist:StylipS
ArtistUnicode:スタイリップス
Creator:zigizigiefe
Version:Prismatic
Source:Fate/kaleid liner プリズマ☆イリヤ
Tags:PRISMA☆ILLYA ending type moon Hardcore techno Asterisk_
BeatmapID:1510402
BeatmapSetID:714769

[Difficulty]
HPDrainRate:4
CircleSize:5
OverallDifficulty:7
ApproachRate:5
SliderMultiplier:1.4
SliderTickRate:1

[Events]
//Background and Video events
0,0,"prismBG.jpg",0,0
//Break Periods
//Storyboard Layer 0 (Background)
//Storyboard Layer 1 (Fail)
//Storyboard Layer 2 (Pass)
//Storyboard Layer 3 (Foreground)
//Storyboard Sound Samples

[TimingPoints]
294,342.857142857143,4,1,0,100,1,0
9294,-98.159509202454,4,1,0,100,0,0
9379,-96.3855421686747,4,1,0,100,0,0
9465,-94.6745562130178,4,1,0,100,0,0
9551,-93.0232558139535,4,1,0,100,0,0
9722,-89.8876404494382,4,1,0,100,0,0
9894,-86.9565217391304,4,1,0,100,0,0
10579,-117.647058823529,4,1,0,100,0,0
10665,-115.107913669065,4,1,0,100,0,0
10751,-112.676056338028,4,1,0,100,0,0
10836,-110.344827586207,4,1,0,100,0,0
11008,-105.960264900662,4,1,0,100,0,0
11094,-103.896103896104,4,1,0,100,0,0
11265,-100,4,1,0,100,0,0
12636,-96.7741938605619,4,1,0,100,0,0
14008,-93.7500005859375,4,1,0,100,0,0
15379,-90.9090909090909,4,1,0,100,0,0
16751,-88.2352943771626,4,1,0,100,0,0
16836,-88.3245928788297,4,1,0,100,0,0
16922,-88.1542699724518,4,1,0,100,0,0
17008,-87.9846026945285,4,1,0,100,0,0
17094,-87.8155872667399,4,1,0,100,0,0
17179,-87.6472199397425,4,1,0,100,0,0
17265,-87.4794969928923,4,1,0,100,0,0
17351,-87.31241473397,4,1,0,100,0,0
17436,-87.1459694989107,4,1,0,100,0,0
17522,-86.9801576515357,4,1,0,100,0,0
17608,-86.8149755832881,4,1,0,100,0,0
17694,-86.6504197129705,4,1,0,100,0,0
17779,-86.4864864864865,4,1,0,100,0,0
17865,-86.3231723765848,4,1,0,100,0,0
17951,-86.1604738826064,4,1,0,100,0,0
18036,-85.9983875302338,4,1,0,100,0,0
18122,-85.8369098712446,4,1,0,100,0,0
18208,-85.6760374832664,4,1,0,100,0,0
18294,-85.515766969535,4,1,0,100,0,0
18379,-85.3560949586556,4,1,0,100,0,0
18465,-85.1970181043664,4,1,0,100,0,0
18551,-85.0385330853043,4,1,0,100,0,0
18636,-84.8806366047746,4,1,0,100,0,0
18722,-84.7233253905216,4,1,0,100,0,0
18808,-84.5665961945032,4,1,0,100,0,0
18894,-84.4104457926668,4,1,0,100,0,0
18979,-84.2548709847288,4,1,0,100,0,0
19065,-84.0998685939553,4,1,0,100,0,0
19151,-83.9454354669465,4,1,0,100,0,0
19236,-83.7915684734224,4,1,0,100,0,0
19322,-83.6382645060115,4,1,0,100,0,0
19408,-83.4855204800417,4,1,0,100,0,0
19494,-83.3333333333333,4,1,0,100,0,0
20865,-83.3333333333333,4,1,0,100,0,0
21036,-84.6560846560847,4,1,0,100,0,0
21122,-85.3333333333333,4,1,0,100,0,0
21208,-86.0215053763441,4,1,0,100,0,0
21379,-87.431693989071,4,1,0,100,0,0
21551,-88.8888888888889,4,1,0,100,0,0
21636,-89.6358543417367,4,1,0,100,0,0
21722,-90.3954802259887,4,1,0,100,0,0
21808,-91.1680911680912,4,1,0,100,0,0
21894,-91.9540229885058,4,1,0,100,0,0
21979,-92.7536231884058,4,1,0,100,0,0
22065,-93.5672514619883,4,1,0,100,0,0
22236,-95.2380952380952,4,1,0,100,0,0
32008,-94.1176470588235,4,1,0,100,0,0
32351,-93.0232558139535,4,1,0,100,0,0
32694,-91.9540229885057,4,1,0,100,0,0
33036,-90.9090909090909,4,1,0,100,0,0
33379,-89.8876404494382,4,1,0,100,0,0
34065,-88.8888888888889,4,1,0,100,0,0
34751,-87.9120879120879,4,1,0,100,0,0
35436,-86.9565217391304,4,1,0,100,0,0
36122,-86.0215053763441,4,1,0,100,0,0
36808,-85.1063829787234,4,1,0,100,0,0
37494,-84.2105263157895,4,1,0,100,0,0
38179,-83.3333333333333,4,1,0,100,0,0
41151,-83.3333333333333,4,1,0,100,0,0
41208,-82.6446280991735,4,1,0,100,0,0
41265,-82.6446280991735,4,1,0,100,0,0
41322,-81.9672131147541,4,1,0,100,0,0
41379,-81.9672131147541,4,1,0,100,0,0
41436,-81.3008130081301,4,1,0,100,0,0
41522,-80.6451612903226,4,1,0,100,0,0
41608,-80.6451612903226,4,1,0,100,0,0
41694,-80,4,1,0,100,0,0
41779,-80,4,1,0,100,0,0
41865,-79.3650793650794,4,1,0,100,0,0
41951,-79.3650793650794,4,1,0,100,0,0
42036,-78.740157480315,4,1,0,100,0,0
42122,-78.125,4,1,0,100,0,0
42179,-78.125,4,1,0,100,0,0
42236,-77.5193798449612,4,1,0,100,0,0
42294,-77.5193798449612,4,1,0,100,0,0
42379,-77.5193798449612,4,1,0,100,0,0
42465,-76.9230769230769,4,1,0,100,0,0
42522,-78.125,4,1,0,100,0,0
42579,-78.740157480315,4,1,0,100,0,0
42636,-80,4,1,0,100,0,0
42694,-81.3008130081301,4,1,0,100,0,0
42751,-81.9672131147541,4,1,0,100,0,0
42808,-83.3333333333333,4,1,0,100,0,0
42979,-85.1063829787234,4,1,0,100,0,0
43065,-86.0215053763441,4,1,0,100,0,0
43236,-87.9120879120879,4,1,0,100,0,0
43322,-88.8888888888889,4,1,0,100,0,0
43494,-90.9090909090909,4,1,0,100,0,0
43579,-91.9540229885058,4,1,0,100,0,0
43665,-93.0232558139535,4,1,0,100,0,0
43751,-94.1176470588235,4,1,0,100,0,0
43922,-96.3855421686747,4,1,0,100,0,0
44008,-97.5609756097561,4,1,0,100,0,0
44179,-100,4,1,0,100,0,0
60636,-100,4,1,0,100,0,0
60808,-98.9247311827957,4,1,0,100,0,0
60894,-98.3957219251337,4,1,0,100,0,0
60979,-97.8723404255319,4,1,0,100,0,0
61065,-97.3544973544974,4,1,0,100,0,0
61151,-96.8421052631579,4,1,0,100,0,0
61236,-96.3350785340314,4,1,0,100,0,0
61322,-95.8333333333333,4,1,0,100,0,0
61494,-94.8453608247423,4,1,0,100,0,0
61579,-94.3589743589744,4,1,0,100,0,0
61665,-93.8775510204082,4,1,0,100,0,0
61751,-93.4010152284264,4,1,0,100,0,0
61836,-92.9292929292929,4,1,0,100,0,0
62008,-92,4,1,0,100,0,0
62179,-91.0891089108911,4,1,0,100,0,0
62265,-90.64039408867,4,1,0,100,0,0
62351,-90.1960784313725,4,1,0,100,0,0
62436,-89.7560975609756,4,1,0,100,0,0
62522,-89.3203883495146,4,1,0,100,0,0
62608,-88.8888888888889,4,1,0,100,0,0
62694,-88.4615384615385,4,1,0,100,0,0
62865,-87.6190476190476,4,1,0,100,0,0
62951,-87.2037914691943,4,1,0,100,0,0
63036,-86.7924528301887,4,1,0,100,0,0
63122,-86.3849765258216,4,1,0,100,0,0
63208,-85.981308411215,4,1,0,100,0,0
63379,-85.1851851851852,4,1,0,100,0,0
63465,-84.7926267281106,4,1,0,100,0,0
63551,-84.4036697247707,4,1,0,100,0,0
63636,-84.0182648401826,4,1,0,100,0,0
63722,-83.6363636363636,4,1,0,100,0,0
63808,-83.2579185520362,4,1,0,100,0,0
63894,-82.8828828828829,4,1,0,100,0,0
63979,-82.5112107623318,4,1,0,100,0,0
64065,-82.1428571428571,4,1,0,100,0,0
64151,-81.7777777777778,4,1,0,100,0,0
64236,-81.4159292035398,4,1,0,100,0,0
64322,-81.057268722467,4,1,0,100,0,0
64408,-80.7017543859649,4,1,0,100,0,0
64579,-80,4,1,0,100,0,0
64922,-83.7209302325581,4,1,0,100,0,0
65265,-87.8048780487805,4,1,0,100,0,0
65436,-90,4,1,0,100,0,0
65522,-91.1392405063291,4,1,0,100,0,0
65694,-93.5064935064935,4,1,0,100,0,0
65779,-94.7368421052632,4,1,0,100,0,0
65865,-96,4,1,0,100,0,0
65951,-97.2972972972973,4,1,0,100,0,0
66122,-100,4,1,0,100,0,0
75551,-99.009900990099,4,1,0,100,0,0
75894,-97.0873786407767,4,1,0,100,0,0
76065,-96.1538461538461,4,1,0,100,0,0
76236,-95.2380952380952,4,1,0,100,0,0
76579,-93.4579439252336,4,1,0,100,0,0
76751,-92.5925925925926,4,1,0,100,0,0
76922,-91.743119266055,4,1,0,100,0,0
77094,-90.9090909090909,4,1,0,100,0,0
81036,-90.4977375565611,4,1,0,100,0,0
81379,-89.6860986547085,4,1,0,100,0,0
81551,-89.2857142857143,4,1,0,100,0,0
81722,-88.8888888888889,4,1,0,100,0,0
81894,-88.495575221239,4,1,0,100,0,0
82065,-88.1057268722467,4,1,0,100,0,0
82236,-87.719298245614,4,1,0,100,0,0
82579,-86.9565217391304,4,1,0,100,0,0
84979,-86.9565217391304,4,1,0,100,0,0
85151,-86.7469879518072,4,1,0,100,0,0
85494,-86.3309352517986,4,1,0,100,0,0
85665,-86.1244019138756,4,1,0,100,0,0
85836,-85.9188544152745,4,1,0,100,0,0
86179,-85.5106888361045,4,1,0,100,0,0
86351,-85.3080568720379,4,1,0,100,0,0
86522,-85.1063829787234,4,1,0,100,0,0
86865,-84.7058823529412,4,1,0,100,0,0
87208,-84.3091334894614,4,1,0,100,0,0
87379,-84.1121495327103,4,1,0,100,0,0
87551,-83.9160839160839,4,1,0,100,0,0
87636,-83.8183934807916,4,1,0,100,0,0
87808,-83.6236933797909,4,1,0,100,0,0
87894,-83.5266821345708,4,1,0,100,0,0
88065,-83.3333333333333,4,1,0,100,0,1
97494,-83.3333333333333,4,1,0,100,0,0
99036,-83.3333333333333,4,1,0,100,0,1
115494,-83.3333333333333,4,1,0,100,0,0
117036,-84.6560846560847,4,1,0,100,0,0
117208,-86.0215053763441,4,1,0,100,0,0
117379,-87.431693989071,4,1,0,100,0,0
117551,-88.8888888888889,4,1,0,100,0,0
117722,-90.3954802259887,4,1,0,100,0,0
117808,-91.1680911680912,4,1,0,100,0,0
117894,-91.9540229885058,4,1,0,100,0,0
117979,-92.7536231884058,4,1,0,100,0,0
118065,-93.5672514619883,4,1,0,100,0,0
118236,-95.2380952380952,4,1,0,100,0,0
128008,-94.1176470588235,4,1,0,100,0,0
128351,-93.0232558139535,4,1,0,100,0,0
128694,-91.9540229885057,4,1,0,100,0,0
129036,-90.9090909090909,4,1,0,100,0,0
129379,-89.8876404494382,4,1,0,100,0,0
130065,-88.8888888888889,4,1,0,100,0,0
130751,-87.9120879120879,4,1,0,100,0,0
131436,-86.9565217391304,4,1,0,100,0,0
132122,-86.0215053763441,4,1,0,100,0,0
132808,-85.1063829787234,4,1,0,100,0,0
133494,-84.2105263157895,4,1,0,100,0,0
134179,-83.3333333333333,4,1,0,100,0,0
137151,-83.3333333333333,4,1,0,100,0,0
137208,-82.6446280991735,4,1,0,100,0,0
137265,-82.6446280991735,4,1,0,100,0,0
137322,-81.9672131147541,4,1,0,100,0,0
137379,-81.9672131147541,4,1,0,100,0,0
137436,-81.3008130081301,4,1,0,100,0,0
137522,-80.6451612903226,4,1,0,100,0,0
137608,-80.6451612903226,4,1,0,100,0,0
137694,-80,4,1,0,100,0,0
137779,-80,4,1,0,100,0,0
137865,-79.3650793650794,4,1,0,100,0,0
137951,-79.3650793650794,4,1,0,100,0,0
138036,-78.740157480315,4,1,0,100,0,0
138122,-78.125,4,1,0,100,0,0
138179,-78.125,4,1,0,100,0,0
138236,-77.5193798449612,4,1,0,100,0,0
138294,-77.5193798449612,4,1,0,100,0,0
138379,-77.5193798449612,4,1,0,100,0,0
138465,-76.9230769230769,4,1,0,100,0,0
138522,-78.125,4,1,0,100,0,0
138579,-78.740157480315,4,1,0,100,0,0
138636,-80,4,1,0,100,0,0
138694,-81.3008130081301,4,1,0,100,0,0
138751,-81.9672131147541,4,1,0,100,0,0
138808,-83.3333333333333,4,1,0,100,0,0
138979,-86.0215053763441,4,1,0,100,0,0
139065,-87.431693989071,4,1,0,100,0,0
139236,-90.3954802259887,4,1,0,100,0,0
139322,-91.9540229885058,4,1,0,100,0,0
139494,-95.2380952380952,4,1,0,100,0,0
139579,-96.969696969697,4,1,0,100,0,0
139665,-98.7654320987654,4,1,0,100,0,0
139751,-100.62893081761,4,1,0,100,0,0
139922,-104.575163398693,4,1,0,100,0,0
140008,-106.666666666667,4,1,0,100,0,0
140179,-111.111111111111,4,1,0,100,0,0
150808,-107.14285752551,4,1,0,100,0,0
150979,-103.448276575505,4,1,0,100,0,0
151151,-100,4,1,0,100,0,0
156636,-100,4,1,0,100,0,0
156808,-98.9247311827957,4,1,0,100,0,0
156894,-98.3957219251337,4,1,0,100,0,0
156979,-97.8723404255319,4,1,0,100,0,0
157065,-97.3544973544974,4,1,0,100,0,0
157151,-96.8421052631579,4,1,0,100,0,0
157236,-96.3350785340314,4,1,0,100,0,0
157322,-95.8333333333333,4,1,0,100,0,0
157494,-94.8453608247423,4,1,0,100,0,0
157579,-94.3589743589744,4,1,0,100,0,0
157665,-93.8775510204082,4,1,0,100,0,0
157751,-93.4010152284264,4,1,0,100,0,0
157836,-92.9292929292929,4,1,0,100,0,0
158008,-92,4,1,0,100,0,0
158179,-91.0891089108911,4,1,0,100,0,0
158265,-90.64039408867,4,1,0,100,0,0
158351,-90.1960784313725,4,1,0,100,0,0
158436,-89.7560975609756,4,1,0,100,0,0
158522,-89.3203883495146,4,1,0,100,0,0
158608,-88.8888888888889,4,1,0,100,0,0
158694,-88.4615384615385,4,1,0,100,0,0
158865,-87.6190476190476,4,1,0,100,0,0
158951,-87.2037914691943,4,1,0,100,0,0
159036,-86.7924528301887,4,1,0,100,0,0
159122,-86.3849765258216,4,1,0,100,0,0
159208,-85.981308411215,4,1,0,100,0,0
159379,-85.1851851851852,4,1,0,100,0,0
159465,-84.7926267281106,4,1,0,100,0,0
159551,-84.4036697247707,4,1,0,100,0,0
159636,-84.0182648401826,4,1,0,100,0,0
159722,-83.6363636363636,4,1,0,100,0,0
159808,-83.2579185520362,4,1,0,100,0,0
159894,-82.8828828828829,4,1,0,100,0,0
159979,-82.5112107623318,4,1,0,100,0,0
160065,-82.1428571428571,4,1,0,100,0,0
160151,-81.7777777777778,4,1,0,100,0,0
160236,-81.4159292035398,4,1,0,100,0,0
160322,-81.057268722467,4,1,0,100,0,0
160408,-80.7017543859649,4,1,0,100,0,0
160579,-80,4,1,0,100,0,0
160922,-83.7209302325581,4,1,0,100,0,0
161265,-87.8048780487805,4,1,0,100,0,0
161436,-90,4,1,0,100,0,0
161522,-91.1392405063291,4,1,0,100,0,0
161694,-93.5064935064935,4,1,0,100,0,0
161779,-94.7368421052632,4,1,0,100,0,0
161865,-96,4,1,0,100,0,0
161951,-97.2972972972973,4,1,0,100,0,0
162122,-100,4,1,0,100,0,0
172579,-97.5609756097561,4,1,0,100,0,0
172751,-95.2380952380952,4,1,0,100,0,0
172922,-93.0232558139535,4,1,0,100,0,0
173094,-90.9090909090909,4,1,0,100,0,0
177036,-90.4977375565611,4,1,0,100,0,0
177379,-89.6860986547085,4,1,0,100,0,0
177551,-89.2857142857143,4,1,0,100,0,0
177722,-88.8888888888889,4,1,0,100,0,0
177894,-88.495575221239,4,1,0,100,0,0
178065,-88.1057268722467,4,1,0,100,0,0
178236,-87.719298245614,4,1,0,100,0,0
178579,-86.9565217391304,4,1,0,100,0,0
180979,-86.9565217391304,4,1,0,100,0,0
181151,-86.7469879518072,4,1,0,100,0,0
181494,-86.3309352517986,4,1,0,100,0,0
181665,-86.1244019138756,4,1,0,100,0,0
181836,-85.9188544152745,4,1,0,100,0,0
182179,-85.5106888361045,4,1,0,100,0,0
182351,-85.3080568720379,4,1,0,100,0,0
182522,-85.1063829787234,4,1,0,100,0,0
182865,-84.7058823529412,4,1,0,100,0,0
183208,-84.3091334894614,4,1,0,100,0,0
183379,-84.1121495327103,4,1,0,100,0,0
183551,-83.9160839160839,4,1,0,100,0,0
183636,-83.8183934807916,4,1,0,100,0,0
183808,-83.6236933797909,4,1,0,100,0,0
183894,-83.5266821345708,4,1,0,100,0,0
184065,-83.3333333333333,4,1,0,100,0,1
193494,-83.3333333333333,4,1,0,100,0,0
195036,-83.3333333333333,4,1,0,100,0,1
211494,-83.3333333333333,4,1,0,100,0,0
212865,-83.3333333333333,4,1,0,100,0,0
213036,-85.1063829787234,4,1,0,100,0,0
213208,-86.9565217391304,4,1,0,100,0,0
213294,-87.9120879120879,4,1,0,100,0,0
213379,-88.8888888888889,4,1,0,100,0,0
213551,-90.9090909090909,4,1,0,100,0,0
213636,-91.9540229885058,4,1,0,100,0,0
213722,-93.0232558139535,4,1,0,100,0,0
213808,-94.1176470588235,4,1,0,100,0,0
213894,-95.2380952380952,4,1,0,100,0,0
213979,-96.3855421686747,4,1,0,100,0,0
214065,-97.5609756097561,4,1,0,100,0,0
214236,-100,4,1,0,100,0,0
233522,-99.6884735202492,4,1,0,100,0,0
233608,-99.3788819875776,4,1,0,100,0,0
233694,-99.0712074303406,4,1,0,100,0,0
233779,-98.7654320987654,4,1,0,100,0,0
233865,-98.4615384615385,4,1,0,100,0,0
233951,-98.159509202454,4,1,0,100,0,0
234036,-97.8593272171254,4,1,0,100,0,0
234122,-97.5609756097561,4,1,0,100,0,0
234208,-97.2644376899696,4,1,0,100,0,0
234294,-96.969696969697,4,1,0,100,0,0
234379,-96.6767371601208,4,1,0,100,0,0
234465,-96.3855421686747,4,1,0,100,0,0
234551,-96.0960960960961,4,1,0,100,0,0
234636,-95.8083832335329,4,1,0,100,0,0
234722,-95.5223880597015,4,1,0,100,0,0
234808,-95.2380952380952,4,1,0,100,0,0
234894,-94.9554896142433,4,1,0,100,0,0
234979,-94.6745562130178,4,1,0,100,0,0
235065,-94.3952802359882,4,1,0,100,0,0
235151,-94.1176470588235,4,1,0,100,0,0
235236,-93.841642228739,4,1,0,100,0,0
235322,-93.5672514619883,4,1,0,100,0,0
235408,-93.2944606413994,4,1,0,100,0,0
235494,-93.0232558139535,4,1,0,100,0,0
235579,-92.7536231884058,4,1,0,100,0,0
235665,-92.485549132948,4,1,0,100,0,0
235751,-92.2190201729107,4,1,0,100,0,0
235836,-91.9540229885058,4,1,0,100,0,0
235922,-91.6905444126075,4,1,0,100,0,0
236008,-91.4285714285714,4,1,0,100,0,0
236094,-91.1680911680912,4,1,0,100,0,0
236179,-90.9090909090909,4,1,0,100,0,0
236265,-90.6515580736544,4,1,0,100,0,0
236351,-90.3954802259887,4,1,0,100,0,0
236436,-90.1408450704225,4,1,0,100,0,0
236522,-89.8876404494382,4,1,0,100,0,0
236608,-89.6358543417367,4,1,0,100,0,0
236694,-89.3854748603352,4,1,0,100,0,0
236779,-89.1364902506964,4,1,0,100,0,0
236865,-88.8888888888889,4,1,0,100,0,0
236951,-88.6426592797784,4,1,0,100,0,0
237036,-88.3977900552486,4,1,0,100,0,0
237122,-88.1542699724518,4,1,0,100,0,0
237208,-87.9120879120879,4,1,0,100,0,0
237294,-87.6712328767123,4,1,0,100,0,0
237379,-87.431693989071,4,1,0,100,0,0
237465,-87.1934604904632,4,1,0,100,0,0
237551,-86.9565217391304,4,1,0,100,0,0
237636,-86.7208672086721,4,1,0,100,0,0
237722,-86.4864864864865,4,1,0,100,0,0
237808,-86.2533692722372,4,1,0,100,0,0
237894,-86.0215053763441,4,1,0,100,0,0
237979,-85.7908847184987,4,1,0,100,0,0
238065,-85.5614973262032,4,1,0,100,0,0
238151,-85.3333333333333,4,1,0,100,0,0
238236,-85.1063829787234,4,1,0,100,0,0
238322,-84.8806366047746,4,1,0,100,0,0
238408,-84.6560846560847,4,1,0,100,0,0
238494,-84.4327176781003,4,1,0,100,0,0
238579,-84.2105263157895,4,1,0,100,0,0
238665,-83.989501312336,4,1,0,100,0,0
238751,-83.7696335078534,4,1,0,100,0,0
238836,-83.5509138381201,4,1,0,100,0,0
238922,-83.3333333333333,4,1,0,100,0,0
243036,-83.3333333333333,4,1,0,100,0,0
243208,-84.6560846560847,4,1,0,100,0,0
243294,-85.3333333333333,4,1,0,100,0,0
243379,-86.0215053763441,4,1,0,100,0,0
243551,-87.431693989071,4,1,0,100,0,0
243722,-88.8888888888889,4,1,0,100,0,0
243808,-89.6358543417367,4,1,0,100,0,0
243894,-90.3954802259887,4,1,0,100,0,0
243979,-91.1680911680912,4,1,0,100,0,0
244151,-92.7536231884058,4,1,0,100,0,0
244236,-93.5672514619883,4,1,0,100,0,0
244408,-95.2380952380952,4,1,0,100,0,0
254179,-94.1176470588235,4,1,0,100,0,0
254522,-93.0232558139535,4,1,0,100,0,0
254865,-91.9540229885057,4,1,0,100,0,0
255207,-90.9090909090909,4,1,0,100,0,0
255550,-89.8876404494382,4,1,0,100,0,0
256236,-88.8888888888889,4,1,0,100,0,0
256922,-87.9120879120879,4,1,0,100,0,0
257607,-86.9565217391304,4,1,0,100,0,0
258293,-86.0215053763441,4,1,0,100,0,0
258979,-85.1063829787234,4,1,0,100,0,0
259665,-84.2105263157895,4,1,0,100,0,0
260350,-83.3333333333333,4,1,0,100,0,0
263322,-83.3333333333333,4,1,0,100,0,0
263379,-82.6446280991735,4,1,0,100,0,0
263436,-82.6446280991735,4,1,0,100,0,0
263493,-81.9672131147541,4,1,0,100,0,0
263550,-81.9672131147541,4,1,0,100,0,0
263607,-81.3008130081301,4,1,0,100,0,0
263693,-80.6451612903226,4,1,0,100,0,0
263779,-80.6451612903226,4,1,0,100,0,0
263865,-80,4,1,0,100,0,0
263950,-80,4,1,0,100,0,0
264036,-79.3650793650794,4,1,0,100,0,0
264122,-79.3650793650794,4,1,0,100,0,0
264207,-78.740157480315,4,1,0,100,0,0
264293,-78.125,4,1,0,100,0,0
264350,-78.125,4,1,0,100,0,0
264407,-77.5193798449612,4,1,0,100,0,0
264465,-77.5193798449612,4,1,0,100,0,0
264550,-77.5193798449612,4,1,0,100,0,0
264636,-76.9230769230769,4,1,0,100,0,0
264693,-78.125,4,1,0,100,0,0
264750,-78.740157480315,4,1,0,100,0,0
264807,-80,4,1,0,100,0,0
264865,-81.3008130081301,4,1,0,100,0,0
264922,-81.9672131147541,4,1,0,100,0,0
264979,-83.3333333333333,4,1,0,100,0,0
265151,-84.2105263157895,4,1,0,100,0,0
265236,-84.6560846560847,4,1,0,100,0,0
265408,-85.5614973262032,4,1,0,100,0,0
265494,-86.0215053763441,4,1,0,100,0,0
265665,-86.9565217391304,4,1,0,100,0,0
265751,-87.431693989071,4,1,0,100,0,0
265836,-87.9120879120879,4,1,0,100,0,0
265922,-88.3977900552486,4,1,0,100,0,0
266094,-89.3854748603352,4,1,0,100,0,0
266179,-89.8876404494382,4,1,0,100,0,0
266351,-90.9090909090909,4,1,0,100,0,0
280065,-89.2857142857143,4,1,0,100,0,0
282808,-87.719298245614,4,1,0,100,0,0
284179,-86.2068965517241,4,1,0,100,0,0
285551,-84.7457627118644,4,1,0,100,0,0
286922,-83.3333333333333,4,1,0,100,0,0
287179,-86.0215053763441,4,1,0,100,0,0
287265,-86.9565217391304,4,1,0,100,0,0
287436,-88.8888888888889,4,1,0,100,0,0
287608,-90.9090909090909,4,1,0,100,0,0
287694,-91.9540229885058,4,1,0,100,0,0
287779,-93.0232558139535,4,1,0,100,0,0
287865,-94.1176470588235,4,1,0,100,0,0
288036,-96.3855421686747,4,1,0,100,0,0
288122,-97.5609756097561,4,1,0,100,0,0
288294,-100,4,1,0,100,0,0

[HitObjects]
168,152,294,5,4,0:0:0:0:
196,224,551,1,8,0:0:0:0:
188,216,636,1,0,0:0:0:0:
188,216,808,1,8,0:0:0:0:
184,216,979,1,0,0:0:0:0:
200,208,1065,1,8,0:0:0:0:
200,216,1151,1,8,0:0:0:0:
200,212,1236,1,8,0:0:0:0:
200,212,1322,1,0,0:0:0:0:
196,216,1408,1,0,0:0:0:0:
196,216,1494,1,8,0:0:0:0:
168,152,1665,1,0,0:0:0:0:
164,116,1751,1,8,0:0:0:0:
196,224,1922,1,8,0:0:0:0:
188,216,2008,1,0,0:0:0:0:
188,216,2179,1,8,0:0:0:0:
184,216,2351,1,0,0:0:0:0:
200,208,2436,1,8,0:0:0:0:
200,216,2522,1,8,0:0:0:0:
200,212,2608,1,8,0:0:0:0:
200,212,2694,1,0,0:0:0:0:
196,216,2779,1,8,0:0:0:0:
196,216,2865,1,0,0:0:0:0:
168,152,3036,1,8,0:0:0:0:
188,216,3208,1,0,0:0:0:0:
196,224,3294,1,8,0:0:0:0:
180,48,3465,1,0,0:0:0:0:
188,216,3551,1,8,0:0:0:0:
184,216,3722,1,8,0:0:0:0:
200,208,3808,1,8,0:0:0:0:
200,212,3979,1,8,0:0:0:0:
200,212,4065,1,0,0:0:0:0:
196,216,4151,1,0,0:0:0:0:
196,216,4236,1,8,0:0:0:0:
168,152,4408,1,0,0:0:0:0:
164,116,4494,1,8,0:0:0:0:
196,224,4665,1,8,0:0:0:0:
188,216,4751,1,0,0:0:0:0:
188,216,4922,1,8,0:0:0:0:
184,216,5094,1,0,0:0:0:0:
200,208,5179,1,8,0:0:0:0:
200,216,5265,1,0,0:0:0:0:
200,212,5351,1,8,0:0:0:0:
200,212,5436,1,0,0:0:0:0:
196,216,5522,1,0,0:0:0:0:
196,216,5608,1,8,0:0:0:0:
168,152,5779,5,0,0:0:0:0:
168,152,5865,1,8,0:0:0:0:
196,224,6036,1,8,0:0:0:0:
188,216,6122,1,0,0:0:0:0:
188,216,6294,1,8,0:0:0:0:
200,212,6379,1,8,0:0:0:0:
184,216,6465,1,0,0:0:0:0:
200,208,6551,1,0,0:0:0:0:
200,216,6636,1,8,0:0:0:0:
200,212,6808,1,0,0:0:0:0:
196,216,6979,1,8,0:0:0:0:
196,216,7065,1,8,0:0:0:0:
168,152,7151,1,0,0:0:0:0:
164,116,7236,1,8,0:0:0:0:
220,64,7322,1,8,0:0:0:0:
188,216,7493,1,0,0:0:0:0:
188,216,7665,1,8,0:0:0:0:
196,224,7751,1,8,0:0:0:0:
184,216,7836,1,0,0:0:0:0:
200,208,7922,1,0,0:0:0:0:
200,216,8008,1,8,0:0:0:0:
200,212,8179,1,0,0:0:0:0:
196,216,8265,1,8,0:0:0:0:
196,216,8351,1,0,0:0:0:0:
168,152,8522,1,8,0:0:0:0:
188,216,8694,1,0,0:0:0:0:
196,224,8779,1,8,0:0:0:0:
180,48,8951,1,0,0:0:0:0:
188,216,9036,1,8,0:0:0:0:
184,216,9208,1,8,0:0:0:0:
200,208,9294,1,8,0:0:0:0:
196,216,9379,1,0,0:0:0:0:
200,212,9465,1,8,0:0:0:0:
200,212,9551,1,0,0:0:0:0:
196,216,9722,1,8,0:0:0:0:
168,152,9894,1,4,0:0:0:0:
184,216,10579,1,8,0:0:0:0:
200,208,10665,1,8,0:0:0:0:
200,216,10751,1,0,0:0:0:0:
200,212,10836,1,8,0:0:0:0:
196,216,11008,1,0,0:0:0:0:
196,216,11094,1,8,0:0:0:0:
168,152,11265,5,4,0:0:0:0:
152,92,11436,1,0,0:0:0:0:
196,224,11522,1,8,0:0:0:0:
188,216,11608,1,0,0:0:0:0:
188,216,11779,1,0,0:0:0:0:
184,216,11951,1,8,0:0:0:0:
200,216,12122,1,0,0:0:0:0:
200,212,12208,1,8,0:0:0:0:
200,212,12294,1,0,0:0:0:0:
200,208,12379,1,0,0:0:0:0:
196,216,12465,1,0,0:0:0:0:
164,116,12636,1,8,0:0:0:0:
168,152,12808,1,0,0:0:0:0:
196,224,12894,1,8,0:0:0:0:
188,216,12979,1,0,0:0:0:0:
188,216,13151,1,0,0:0:0:0:
200,216,13322,1,8,0:0:0:0:
200,212,13408,1,8,0:0:0:0:
200,212,13493,1,0,0:0:0:0:
196,216,13579,1,8,0:0:0:0:
196,216,13665,1,0,0:0:0:0:
184,216,13836,1,0,0:0:0:0:
168,152,14008,1,8,0:0:0:0:
188,216,14179,1,0,0:0:0:0:
196,224,14265,1,8,0:0:0:0:
180,48,14436,1,0,0:0:0:0:
188,216,14522,1,8,0:0:0:0:
184,216,14693,1,8,0:0:0:0:
200,208,14779,1,8,0:0:0:0:
200,72,14865,1,0,0:0:0:0:
200,212,14951,1,8,0:0:0:0:
200,212,15036,1,0,0:0:0:0:
196,216,15122,1,0,0:0:0:0:
196,216,15208,1,8,0:0:0:0:
164,116,15379,1,8,0:0:0:0:
168,152,15551,1,0,0:0:0:0:
196,224,15636,1,8,0:0:0:0:
188,216,15722,1,0,0:0:0:0:
188,216,15893,1,0,0:0:0:0:
200,216,16065,1,8,0:0:0:0:
200,208,16151,1,8,0:0:0:0:
184,216,16236,1,0,0:0:0:0:
200,212,16322,1,0,0:0:0:0:
200,212,16408,1,8,0:0:0:0:
196,216,16494,1,0,0:0:0:0:
196,216,16579,1,8,0:0:0:0:
168,152,16751,5,0,0:0:0:0:
168,152,16836,1,8,0:0:0:0:
168,64,16922,1,8,0:0:0:0:
196,224,17008,1,8,0:0:0:0:
188,216,17094,1,0,0:0:0:0:
168,64,17179,1,0,0:0:0:0:
188,216,17265,1,8,0:0:0:0:
200,212,17351,1,8,0:0:0:0:
184,216,17436,1,0,0:0:0:0:
200,208,17522,1,0,0:0:0:0:
200,216,17608,1,8,0:0:0:0:
120,128,17694,1,0,0:0:0:0:
200,212,17779,1,8,0:0:0:0:
128,124,17865,1,8,0:0:0:0:
196,216,17951,1,8,0:0:0:0:
196,216,18036,1,8,0:0:0:0:
168,152,18122,1,0,0:0:0:0:
164,116,18208,1,0,0:0:0:0:
204,80,18294,1,8,0:0:0:0:
184,64,18379,1,8,0:0:0:0:
188,216,18465,1,0,0:0:0:0:
184,64,18551,1,8,0:0:0:0:
188,216,18636,1,8,0:0:0:0:
196,224,18722,1,8,0:0:0:0:
184,216,18808,1,0,0:0:0:0:
200,208,18894,1,0,0:0:0:0:
200,216,18979,1,8,0:0:0:0:
72,80,19065,1,8,0:0:0:0:
200,212,19151,1,0,0:0:0:0:
196,216,19236,1,8,0:0:0:0:
196,216,19322,1,0,0:0:0:0:
144,40,19408,1,0,0:0:0:0:
168,152,19494,1,8,0:0:0:0:
124,96,19551,1,8,0:0:0:0:
124,96,19608,1,8,0:0:0:0:
188,216,19665,1,0,0:0:0:0:
196,224,19751,1,8,0:0:0:0:
248,108,19836,1,0,0:0:0:0:
180,48,19922,1,0,0:0:0:0:
188,216,20008,1,8,0:0:0:0:
244,116,20094,1,0,0:0:0:0:
156,16,20179,1,8,0:0:0:0:
184,216,20236,1,0,0:0:0:0:
196,216,20294,1,0,0:0:0:0:
200,208,20351,1,8,0:0:0:0:
200,212,20436,1,8,0:0:0:0:
200,212,20522,1,0,0:0:0:0:
224,124,20608,1,0,0:0:0:0:
196,216,20694,1,8,0:0:0:0:
168,152,20865,1,4,0:0:0:0:
192,132,21036,1,8,0:0:0:0:
200,128,21122,1,8,0:0:0:0:
196,132,21208,1,0,0:0:0:0:
196,132,21379,1,8,0:0:0:0:
200,216,21551,1,0,0:0:0:0:
200,208,21636,1,8,0:0:0:0:
184,216,21722,1,8,0:0:0:0:
200,212,21808,1,8,0:0:0:0:
192,120,21894,1,0,0:0:0:0:
196,216,21979,1,0,0:0:0:0:
196,216,22065,1,8,0:0:0:0:
168,152,22236,5,4,0:0:0:0:
152,92,22408,1,0,0:0:0:0:
196,224,22494,1,8,0:0:0:0:
188,216,22579,1,0,0:0:0:0:
188,216,22751,1,8,0:0:0:0:
200,216,22922,1,8,0:0:0:0:
184,216,23008,1,8,0:0:0:0:
200,212,23179,1,8,0:0:0:0:
200,212,23265,1,0,0:0:0:0:
200,208,23351,1,0,0:0:0:0:
196,216,23436,1,8,0:0:0:0:
164,116,23608,1,8,0:0:0:0:
168,152,23779,1,0,0:0:0:0:
196,224,23865,1,8,0:0:0:0:
188,216,23951,1,0,0:0:0:0:
272,88,24036,1,0,0:0:0:0:
188,216,24122,1,8,0:0:0:0:
200,216,24294,1,8,0:0:0:0:
200,212,24379,1,8,0:0:0:0:
196,216,24551,1,8,0:0:0:0:
196,216,24636,1,0,0:0:0:0:
200,212,24722,1,0,0:0:0:0:
184,216,24808,1,8,0:0:0:0:
164,88,24894,1,0,0:0:0:0:
168,152,24979,1,8,0:0:0:0:
188,216,25151,1,0,0:0:0:0:
196,224,25236,1,8,0:0:0:0:
180,48,25322,1,0,0:0:0:0:
188,216,25494,1,8,0:0:0:0:
184,216,25665,1,8,0:0:0:0:
200,208,25751,1,8,0:0:0:0:
200,72,25836,1,0,0:0:0:0:
200,212,25922,1,8,0:0:0:0:
200,212,26008,1,0,0:0:0:0:
196,216,26179,1,8,0:0:0:0:
196,216,26265,1,0,0:0:0:0:
164,116,26351,1,8,0:0:0:0:
168,152,26522,1,0,0:0:0:0:
196,224,26608,1,8,0:0:0:0:
188,216,26693,1,8,0:0:0:0:
88,88,26779,1,0,0:0:0:0:
188,216,26865,1,8,0:0:0:0:
200,216,27036,1,8,0:0:0:0:
200,208,27122,1,8,0:0:0:0:
196,216,27208,1,8,0:0:0:0:
200,212,27293,1,8,0:0:0:0:
200,212,27379,1,0,0:0:0:0:
240,76,27465,1,0,0:0:0:0:
196,216,27551,1,8,0:0:0:0:
168,152,27722,5,8,0:0:0:0:
152,92,27893,1,0,0:0:0:0:
196,224,27979,1,8,0:0:0:0:
188,216,28065,1,0,0:0:0:0:
188,216,28236,1,0,0:0:0:0:
200,212,28322,1,0,0:0:0:0:
200,208,28408,1,8,0:0:0:0:
184,216,28493,1,8,0:0:0:0:
200,216,28665,1,0,0:0:0:0:
200,212,28751,1,0,0:0:0:0:
196,216,28922,1,8,0:0:0:0:
164,116,29093,1,8,0:0:0:0:
168,152,29265,1,0,0:0:0:0:
196,224,29351,1,8,0:0:0:0:
188,216,29436,1,0,0:0:0:0:
188,216,29608,1,8,0:0:0:0:
272,88,29693,1,0,0:0:0:0:
200,216,29779,1,8,0:0:0:0:
200,212,29865,1,8,0:0:0:0:
196,216,30036,1,8,0:0:0:0:
196,216,30122,1,0,0:0:0:0:
184,216,30293,1,8,0:0:0:0:
164,88,30379,1,0,0:0:0:0:
168,152,30465,1,8,0:0:0:0:
188,216,30636,1,0,0:0:0:0:
196,224,30722,1,8,0:0:0:0:
180,48,30808,1,0,0:0:0:0:
188,216,30979,1,8,0:0:0:0:
200,212,31065,1,8,0:0:0:0:
184,216,31151,1,0,0:0:0:0:
200,208,31236,1,8,0:0:0:0:
200,212,31408,1,8,0:0:0:0:
200,212,31493,1,0,0:0:0:0:
196,216,31579,1,0,0:0:0:0:
196,216,31665,1,8,0:0:0:0:
164,116,31836,1,4,0:0:0:0:
168,152,32008,1,0,0:0:0:0:
196,224,32065,1,8,0:0:0:0:
64,148,32122,1,8,0:0:0:0:
188,216,32179,1,0,0:0:0:0:
88,88,32265,1,0,0:0:0:0:
188,216,32351,1,8,0:0:0:0:
180,32,32408,1,8,0:0:0:0:
208,92,32465,1,8,0:0:0:0:
200,216,32522,1,0,0:0:0:0:
200,208,32608,1,0,0:0:0:0:
200,212,32693,1,8,0:0:0:0:
208,92,32751,1,0,0:0:0:0:
92,132,32808,1,0,0:0:0:0:
200,212,32865,1,8,0:0:0:0:
196,216,32951,1,0,0:0:0:0:
196,216,33036,1,8,0:0:0:0:
84,112,33094,1,8,0:0:0:0:
208,92,33151,1,0,0:0:0:0:
208,92,33208,1,8,0:0:0:0:
204,148,33379,1,0,0:0:0:0:
204,148,33465,1,0,0:0:0:0:
204,148,33551,1,8,0:0:0:0:
204,148,33636,1,8,0:0:0:0:
204,148,33722,1,0,0:0:0:0:
204,148,33808,1,8,0:0:0:0:
204,148,33894,1,0,0:0:0:0:
196,160,34065,1,8,0:0:0:0:
196,160,34151,1,0,0:0:0:0:
196,164,34236,1,8,0:0:0:0:
192,164,34322,1,8,0:0:0:0:
192,164,34408,1,0,0:0:0:0:
192,164,34494,1,0,0:0:0:0:
192,168,34579,1,8,0:0:0:0:
204,148,34751,1,0,0:0:0:0:
204,148,34836,1,0,0:0:0:0:
204,148,34922,1,8,0:0:0:0:
204,148,35008,1,0,0:0:0:0:
204,148,35094,1,8,0:0:0:0:
204,148,35179,1,8,0:0:0:0:
204,148,35265,1,0,0:0:0:0:
196,160,35436,1,8,0:0:0:0:
196,164,35522,1,8,0:0:0:0:
196,160,35608,1,0,0:0:0:0:
192,164,35694,1,8,0:0:0:0:
192,164,35779,1,0,0:0:0:0:
184,96,35865,1,0,0:0:0:0:
192,168,35951,1,12,0:0:0:0:
204,148,36122,1,0,0:0:0:0:
204,148,36208,1,0,0:0:0:0:
204,148,36294,1,8,0:0:0:0:
204,148,36379,1,8,0:0:0:0:
204,148,36465,1,8,0:0:0:0:
204,148,36551,1,0,0:0:0:0:
204,148,36636,1,8,0:0:0:0:
196,160,36808,1,8,0:0:0:0:
196,160,36894,1,0,0:0:0:0:
196,164,36979,1,8,0:0:0:0:
192,164,37065,1,8,0:0:0:0:
192,164,37151,1,0,0:0:0:0:
192,168,37236,1,8,0:0:0:0:
192,164,37322,1,0,0:0:0:0:
204,148,37494,1,8,0:0:0:0:
204,148,37579,1,8,0:0:0:0:
204,148,37665,1,0,0:0:0:0:
204,148,37751,1,8,0:0:0:0:
204,148,37836,1,0,0:0:0:0:
204,148,37922,1,0,0:0:0:0:
204,148,38008,1,8,0:0:0:0:
196,160,38179,1,0,0:0:0:0:
196,160,38265,1,0,0:0:0:0:
196,164,38351,1,8,0:0:0:0:
192,164,38436,1,8,0:0:0:0:
192,164,38522,1,0,0:0:0:0:
284,64,38608,1,8,0:0:0:0:
192,168,38694,1,4,0:0:0:0:
176,76,38865,1,4,0:0:0:0:
196,76,39208,1,8,0:0:0:0:
196,76,39265,1,8,0:0:0:0:
196,76,39322,1,8,0:0:0:0:
196,80,39379,1,0,0:0:0:0:
208,108,39465,1,8,0:0:0:0:
196,76,39551,1,0,0:0:0:0:
160,112,39636,1,0,0:0:0:0:
196,76,39722,1,8,0:0:0:0:
196,76,39779,1,0,0:0:0:0:
196,76,39836,1,0,0:0:0:0:
196,76,39894,1,8,0:0:0:0:
144,112,40065,1,12,0:0:0:0:
144,116,40322,1,12,0:0:0:0:
136,120,40579,1,12,0:0:0:0:
140,116,40751,1,0,0:0:0:0:
140,116,40836,1,8,0:0:0:0:
152,112,41008,1,8,0:0:0:0:
196,76,41094,1,0,0:0:0:0:
196,76,41151,1,0,0:0:0:0:
196,76,41208,1,0,0:0:0:0:
196,76,41265,1,8,0:0:0:0:
196,76,41322,1,8,0:0:0:0:
196,76,41379,1,8,0:0:0:0:
196,36,41436,1,0,0:0:0:0:
192,40,41522,1,0,0:0:0:0:
192,40,41608,1,8,0:0:0:0:
192,40,41694,1,0,0:0:0:0:
192,44,41779,1,8,0:0:0:0:
192,44,41865,1,8,0:0:0:0:
192,44,41951,1,0,0:0:0:0:
192,48,42036,1,8,0:0:0:0:
196,76,42122,1,0,0:0:0:0:
196,76,42179,1,0,0:0:0:0:
196,76,42236,1,0,0:0:0:0:
192,48,42294,1,8,0:0:0:0:
192,48,42379,1,0,0:0:0:0:
196,76,42465,1,8,0:0:0:0:
196,76,42522,1,8,0:0:0:0:
196,76,42579,1,8,0:0:0:0:
196,76,42636,1,8,0:0:0:0:
196,76,42694,1,8,0:0:0:0:
196,76,42751,1,8,0:0:0:0:
188,128,42808,1,0,0:0:0:0:
188,64,42979,1,0,0:0:0:0:
188,68,43065,1,8,0:0:0:0:
152,56,43236,1,0,0:0:0:0:
152,56,43322,1,8,0:0:0:0:
144,64,43494,1,8,0:0:0:0:
144,64,43579,1,8,0:0:0:0:
144,68,43665,1,0,0:0:0:0:
144,68,43751,1,8,0:0:0:0:
144,68,43922,1,0,0:0:0:0:
144,64,44008,1,8,0:0:0:0:
176,168,44179,1,4,0:0:0:0:
192,176,44522,1,8,0:0:0:0:
188,112,44694,1,0,0:0:0:0:
188,112,44779,1,0,0:0:0:0:
188,112,44865,1,8,0:0:0:0:
188,112,45036,1,0,0:0:0:0:
188,112,45208,1,8,0:0:0:0:
188,112,45379,1,0,0:0:0:0:
184,116,45465,1,0,0:0:0:0:
180,116,45551,1,0,0:0:0:0:
180,64,45722,1,0,0:0:0:0:
180,64,45894,1,8,0:0:0:0:
180,64,46065,1,0,0:0:0:0:
180,64,46151,1,0,0:0:0:0:
180,64,46236,1,0,0:0:0:0:
180,64,46408,1,0,0:0:0:0:
180,64,46579,1,8,0:0:0:0:
184,76,46751,1,0,0:0:0:0:
180,76,46836,1,8,0:0:0:0:
176,80,46922,1,0,0:0:0:0:
192,176,47265,1,8,0:0:0:0:
188,112,47436,1,0,0:0:0:0:
188,112,47522,1,0,0:0:0:0:
188,112,47608,1,8,0:0:0:0:
188,112,47779,1,0,0:0:0:0:
188,112,47951,1,8,0:0:0:0:
188,112,48122,1,0,0:0:0:0:
184,116,48208,1,8,0:0:0:0:
180,116,48294,1,0,0:0:0:0:
180,64,48465,1,0,0:0:0:0:
180,64,48636,1,8,0:0:0:0:
180,64,48722,1,8,0:0:0:0:
180,64,48808,1,0,0:0:0:0:
180,64,48979,1,8,0:0:0:0:
180,64,49151,1,0,0:0:0:0:
224,48,49236,1,0,0:0:0:0:
180,64,49322,1,0,0:0:0:0:
184,76,49494,1,0,0:0:0:0:
192,112,49836,1,0,0:0:0:0:
192,112,50008,1,8,0:0:0:0:
192,112,50179,1,0,0:0:0:0:
192,112,50265,1,0,0:0:0:0:
192,112,50351,1,0,0:0:0:0:
196,108,50522,1,12,0:0:0:0:
184,92,50694,1,12,0:0:0:0:
240,152,50865,1,0,0:0:0:0:
192,112,51208,1,0,0:0:0:0:
192,112,51379,1,8,0:0:0:0:
192,112,51551,1,0,0:0:0:0:
192,112,51636,1,8,0:0:0:0:
192,112,51722,1,0,0:0:0:0:
196,108,51893,1,12,0:0:0:0:
184,92,52065,1,12,0:0:0:0:
220,48,52236,1,0,0:0:0:0:
240,152,52408,1,0,0:0:0:0:
184,120,52751,1,8,0:0:0:0:
184,120,52922,1,0,0:0:0:0:
184,120,53008,1,8,0:0:0:0:
184,120,53093,1,0,0:0:0:0:
192,120,53265,1,8,0:0:0:0:
192,120,53436,1,0,0:0:0:0:
192,120,53608,1,12,0:0:0:0:
188,116,53951,1,12,0:0:0:0:
140,100,54293,1,12,0:0:0:0:
144,96,54636,1,12,0:0:0:0:
144,96,54808,1,12,0:0:0:0:
140,100,54979,1,0,0:0:0:0:
176,168,55151,1,4,0:0:0:0:
192,176,55493,1,8,0:0:0:0:
188,112,55665,1,0,0:0:0:0:
188,112,55751,1,0,0:0:0:0:
188,112,55836,1,8,0:0:0:0:
188,112,56008,1,0,0:0:0:0:
188,112,56179,1,8,0:0:0:0:
184,116,56265,1,8,0:0:0:0:
188,112,56351,1,0,0:0:0:0:
180,116,56522,1,0,0:0:0:0:
180,64,56693,1,0,0:0:0:0:
180,64,56779,1,0,0:0:0:0:
180,64,56865,1,8,0:0:0:0:
180,64,57036,1,0,0:0:0:0:
180,64,57208,1,0,0:0:0:0:
216,96,57293,1,0,0:0:0:0:
180,64,57379,1,0,0:0:0:0:
180,64,57551,1,8,0:0:0:0:
184,76,57722,1,0,0:0:0:0:
180,76,57808,1,8,0:0:0:0:
176,80,57893,1,0,0:0:0:0:
192,176,58236,1,8,0:0:0:0:
188,112,58408,1,0,0:0:0:0:
188,112,58493,1,0,0:0:0:0:
188,112,58579,1,8,0:0:0:0:
188,112,58751,1,0,0:0:0:0:
188,112,58922,1,8,0:0:0:0:
188,112,59093,1,0,0:0:0:0:
184,116,59179,1,8,0:0:0:0:
180,116,59265,1,0,0:0:0:0:
180,64,59436,1,0,0:0:0:0:
180,64,59608,1,8,0:0:0:0:
180,64,59693,1,8,0:0:0:0:
180,64,59779,1,0,0:0:0:0:
180,64,59951,1,8,0:0:0:0:
180,64,60122,1,0,0:0:0:0:
224,48,60208,1,0,0:0:0:0:
180,64,60293,1,8,0:0:0:0:
88,96,60379,1,8,0:0:0:0:
184,76,60465,1,8,0:0:0:0:
116,76,60636,1,4,0:0:0:0:
192,112,60808,1,0,0:0:0:0:
160,96,60893,1,0,0:0:0:0:
192,112,60979,1,8,0:0:0:0:
192,112,61065,1,8,0:0:0:0:
160,100,61151,1,0,0:0:0:0:
192,112,61236,1,8,0:0:0:0:
192,112,61322,1,0,0:0:0:0:
200,48,61493,1,0,0:0:0:0:
240,152,61579,1,0,0:0:0:0:
104,68,61665,1,8,0:0:0:0:
184,92,61751,1,0,0:0:0:0:
180,40,61836,1,8,0:0:0:0:
120,104,62008,1,4,0:0:0:0:
192,112,62179,1,0,0:0:0:0:
192,112,62265,1,8,0:0:0:0:
140,112,62351,1,0,0:0:0:0:
140,112,62436,1,0,0:0:0:0:
192,112,62522,1,8,0:0:0:0:
192,112,62608,1,8,0:0:0:0:
192,112,62693,1,0,0:0:0:0:
196,108,62865,1,8,0:0:0:0:
176,120,62951,1,8,0:0:0:0:
184,92,63036,1,0,0:0:0:0:
220,48,63122,1,0,0:0:0:0:
184,120,63208,1,8,0:0:0:0:
240,152,63379,1,0,0:0:0:0:
184,48,63465,1,8,0:0:0:0:
184,48,63551,1,8,0:0:0:0:
184,120,63636,1,8,0:0:0:0:
176,48,63722,1,0,0:0:0:0:
196,100,63808,1,0,0:0:0:0:
184,120,63893,1,8,0:0:0:0:
184,120,63979,1,8,0:0:0:0:
184,120,64065,1,0,0:0:0:0:
196,88,64151,1,0,0:0:0:0:
192,120,64236,1,8,0:0:0:0:
184,104,64322,1,0,0:0:0:0:
192,120,64408,1,0,0:0:0:0:
192,120,64579,1,12,0:0:0:0:
188,116,64922,1,12,0:0:0:0:
140,100,65265,1,12,0:0:0:0:
144,96,65436,1,0,0:0:0:0:
144,96,65522,1,8,0:0:0:0:
188,20,65694,1,0,0:0:0:0:
188,20,65779,1,8,0:0:0:0:
140,100,65865,1,0,0:0:0:0:
188,20,65951,1,8,0:0:0:0:
344,128,66122,1,4,0:0:0:0:
156,144,66636,1,0,0:0:0:0:
156,144,66808,1,8,0:0:0:0:
156,144,67151,1,0,0:0:0:0:
152,144,67322,1,8,0:0:0:0:
216,76,67494,1,0,0:0:0:0:
148,144,67665,1,8,0:0:0:0:
216,80,67836,1,0,0:0:0:0:
216,80,68008,1,0,0:0:0:0:
216,80,68179,1,8,0:0:0:0:
156,108,68522,1,0,0:0:0:0:
156,108,68694,1,0,0:0:0:0:
156,108,68865,1,8,0:0:0:0:
240,112,69208,1,0,0:0:0:0:
232,112,69379,1,8,0:0:0:0:
232,112,69551,1,8,0:0:0:0:
184,80,69722,1,0,0:0:0:0:
184,80,69894,1,8,0:0:0:0:
184,80,70065,1,0,0:0:0:0:
216,148,70408,1,0,0:0:0:0:
216,148,70751,1,0,0:0:0:0:
208,148,70922,1,8,0:0:0:0:
208,152,71265,1,0,0:0:0:0:
208,152,71436,1,0,0:0:0:0:
344,128,71608,1,8,0:0:0:0:
156,144,72122,1,0,0:0:0:0:
156,144,72294,1,8,0:0:0:0:
156,144,72636,1,0,0:0:0:0:
152,144,72808,1,8,0:0:0:0:
148,144,72979,1,8,0:0:0:0:
216,76,73151,1,0,0:0:0:0:
216,80,73322,1,8,0:0:0:0:
216,80,73494,1,0,0:0:0:0:
216,80,73665,1,8,0:0:0:0:
156,108,74008,1,0,0:0:0:0:
156,108,74179,1,0,0:0:0:0:
156,108,74351,1,8,0:0:0:0:
240,112,74694,1,0,0:0:0:0:
184,80,74865,1,0,0:0:0:0:
232,112,75036,1,8,0:0:0:0:
168,104,75379,1,8,0:0:0:0:
184,80,75551,1,4,0:0:0:0:
216,148,75894,1,4,0:0:0:0:
192,92,76065,1,8,0:0:0:0:
216,148,76236,1,4,0:0:0:0:
208,148,76579,1,4,0:0:0:0:
208,152,76751,1,8,0:0:0:0:
208,152,76922,1,4,0:0:0:0:
144,72,77094,1,0,0:0:0:0:
144,72,77179,1,8,0:0:0:0:
144,72,77265,1,0,0:0:0:0:
144,72,77351,1,0,0:0:0:0:
144,76,77436,1,8,0:0:0:0:
144,76,77522,1,8,0:0:0:0:
144,76,77608,1,0,0:0:0:0:
144,80,77779,1,8,0:0:0:0:
224,72,77951,1,0,0:0:0:0:
224,72,78122,1,8,0:0:0:0:
224,72,78208,1,8,0:0:0:0:
224,72,78294,1,0,0:0:0:0:
220,72,78379,1,8,0:0:0:0:
220,72,78465,1,0,0:0:0:0:
196,144,78636,1,0,0:0:0:0:
196,144,78808,1,8,0:0:0:0:
196,144,78979,1,0,0:0:0:0:
196,144,79065,1,0,0:0:0:0:
196,144,79151,1,8,0:0:0:0:
196,136,79236,1,0,0:0:0:0:
184,64,79322,1,0,0:0:0:0:
184,64,79408,1,8,0:0:0:0:
180,64,79494,1,0,0:0:0:0:
260,120,79665,1,8,0:0:0:0:
144,72,79836,1,0,0:0:0:0:
144,72,79922,1,8,0:0:0:0:
144,72,80008,1,8,0:0:0:0:
144,72,80094,1,0,0:0:0:0:
144,76,80179,1,8,0:0:0:0:
144,76,80265,1,0,0:0:0:0:
144,76,80351,1,0,0:0:0:0:
144,80,80522,1,8,0:0:0:0:
224,72,80694,1,0,0:0:0:0:
224,72,80865,1,8,0:0:0:0:
224,72,81036,1,12,0:0:0:0:
196,144,81379,1,4,0:0:0:0:
196,144,81551,1,12,0:0:0:0:
196,144,81722,1,12,0:0:0:0:
184,64,81894,1,4,0:0:0:0:
196,144,82065,1,12,0:0:0:0:
180,64,82236,1,4,0:0:0:0:
240,112,82579,1,4,0:0:0:0:
236,132,82751,1,8,0:0:0:0:
236,132,82836,1,8,0:0:0:0:
236,132,82922,1,0,0:0:0:0:
184,72,83094,1,8,0:0:0:0:
184,72,83265,1,0,0:0:0:0:
184,72,83351,1,8,0:0:0:0:
184,72,83436,1,0,0:0:0:0:
184,72,83608,1,8,0:0:0:0:
184,72,83779,1,0,0:0:0:0:
184,72,83865,1,0,0:0:0:0:
240,112,83951,1,0,0:0:0:0:
236,132,84122,1,8,0:0:0:0:
236,132,84294,1,0,0:0:0:0:
236,132,84379,1,0,0:0:0:0:
184,72,84465,1,8,0:0:0:0:
184,72,84551,1,8,0:0:0:0:
184,72,84636,1,0,0:0:0:0:
184,72,84808,1,8,0:0:0:0:
172,112,84894,1,0,0:0:0:0:
184,72,84979,1,8,0:0:0:0:
184,72,85151,1,4,0:0:0:0:
216,136,85494,1,12,0:0:0:0:
220,136,85665,1,12,0:0:0:0:
216,136,85836,1,4,0:0:0:0:
224,144,86179,1,4,0:0:0:0:
224,144,86351,1,12,0:0:0:0:
220,144,86522,1,4,0:0:0:0:
224,144,86865,1,12,0:0:0:0:
224,144,87208,1,12,0:0:0:0:
220,144,87379,1,12,0:0:0:0:
216,52,87551,1,0,0:0:0:0:
216,52,87636,1,8,0:0:0:0:
216,56,87808,1,0,0:0:0:0:
216,56,87894,1,8,0:0:0:0:
240,124,88065,1,4,0:0:0:0:
204,124,88236,1,8,0:0:0:0:
200,128,88322,1,8,0:0:0:0:
200,132,88408,1,0,0:0:0:0:
200,128,88579,1,8,0:0:0:0:
176,128,88751,1,0,0:0:0:0:
180,116,88836,1,8,0:0:0:0:
180,112,89008,1,0,0:0:0:0:
188,120,89094,1,8,0:0:0:0:
156,36,89179,1,8,0:0:0:0:
188,120,89265,1,0,0:0:0:0:
184,116,89351,1,8,0:0:0:0:
240,124,89436,1,0,0:0:0:0:
204,124,89608,1,8,0:0:0:0:
200,128,89694,1,8,0:0:0:0:
200,132,89779,1,0,0:0:0:0:
172,84,89865,1,8,0:0:0:0:
200,128,90036,1,8,0:0:0:0:
176,128,90122,1,0,0:0:0:0:
180,116,90294,1,8,0:0:0:0:
180,112,90379,1,0,0:0:0:0:
188,120,90465,1,8,0:0:0:0:
188,120,90551,1,8,0:0:0:0:
188,120,90636,1,0,0:0:0:0:
184,116,90722,1,8,0:0:0:0:
240,124,90808,1,0,0:0:0:0:
204,124,90979,1,8,0:0:0:0:
200,132,91065,1,0,0:0:0:0:
200,128,91151,1,8,0:0:0:0:
180,88,91236,1,8,0:0:0:0:
200,128,91322,1,0,0:0:0:0:
176,128,91494,1,8,0:0:0:0:
180,116,91579,1,0,0:0:0:0:
180,112,91751,1,0,0:0:0:0:
188,120,91836,1,8,0:0:0:0:
156,36,91922,1,8,0:0:0:0:
188,120,92008,1,0,0:0:0:0:
184,116,92179,1,8,0:0:0:0:
240,124,92265,1,0,0:0:0:0:
204,124,92351,1,8,0:0:0:0:
200,128,92436,1,8,0:0:0:0:
200,132,92522,1,0,0:0:0:0:
200,128,92608,1,0,0:0:0:0:
172,84,92694,1,8,0:0:0:0:
176,128,92865,1,0,0:0:0:0:
180,116,92951,1,8,0:0:0:0:
180,112,93122,1,0,0:0:0:0:
188,120,93208,1,8,0:0:0:0:
188,120,93294,1,0,0:0:0:0:
188,120,93379,1,8,0:0:0:0:
184,116,93465,1,8,0:0:0:0:
240,124,93551,1,0,0:0:0:0:
204,124,93722,1,8,0:0:0:0:
200,128,93808,1,8,0:0:0:0:
200,132,93894,1,0,0:0:0:0:
200,128,94065,1,8,0:0:0:0:
176,128,94236,1,0,0:0:0:0:
180,116,94322,1,8,0:0:0:0:
188,120,94494,1,8,0:0:0:0:
180,112,94579,1,0,0:0:0:0:
156,36,94665,1,8,0:0:0:0:
184,116,94751,1,8,0:0:0:0:
188,120,94836,1,0,0:0:0:0:
240,124,94922,1,0,0:0:0:0:
204,124,95094,1,8,0:0:0:0:
200,132,95179,1,0,0:0:0:0:
200,128,95265,1,8,0:0:0:0:
172,84,95351,1,8,0:0:0:0:
200,128,95522,1,8,0:0:0:0:
176,128,95608,1,0,0:0:0:0:
180,116,95779,1,8,0:0:0:0:
188,120,95865,1,8,0:0:0:0:
180,112,95951,1,0,0:0:0:0:
188,120,96036,1,8,0:0:0:0:
188,120,96122,1,0,0:0:0:0:
184,116,96208,1,0,0:0:0:0:
240,124,96294,1,8,0:0:0:0:
200,132,96465,1,0,0:0:0:0:
204,124,96551,1,8,0:0:0:0:
200,128,96636,1,0,0:0:0:0:
180,88,96722,1,0,0:0:0:0:
200,128,96808,1,8,0:0:0:0:
176,128,96979,1,8,0:0:0:0:
180,116,97065,1,0,0:0:0:0:
180,112,97236,1,0,0:0:0:0:
188,120,97322,1,8,0:0:0:0:
188,120,97494,1,4,0:0:0:0:
204,124,97836,1,4,0:0:0:0:
176,128,98179,1,4,0:0:0:0:
172,84,98351,1,12,0:0:0:0:
232,88,98522,1,0,0:0:0:0:
180,112,98608,1,0,0:0:0:0:
188,120,98694,1,8,0:0:0:0:
188,120,98751,1,8,0:0:0:0:
176,72,98808,1,8,0:0:0:0:
188,120,98865,1,0,0:0:0:0:
240,124,99036,1,4,0:0:0:0:
204,124,99208,1,8,0:0:0:0:
200,132,99294,1,0,0:0:0:0:
200,128,99379,1,8,0:0:0:0:
200,128,99551,1,0,0:0:0:0:
176,128,99722,1,8,0:0:0:0:
180,116,99808,1,0,0:0:0:0:
180,112,99979,1,0,0:0:0:0:
188,120,100065,1,8,0:0:0:0:
188,120,100151,1,0,0:0:0:0:
156,36,100236,1,8,0:0:0:0:
184,116,100322,1,8,0:0:0:0:
240,124,100408,1,0,0:0:0:0:
204,124,100579,1,8,0:0:0:0:
200,132,100665,1,0,0:0:0:0:
200,128,100751,1,8,0:0:0:0:
172,84,100836,1,8,0:0:0:0:
200,128,101008,1,8,0:0:0:0:
176,128,101094,1,0,0:0:0:0:
180,116,101265,1,8,0:0:0:0:
180,112,101351,1,0,0:0:0:0:
188,120,101436,1,8,0:0:0:0:
188,120,101522,1,8,0:0:0:0:
188,120,101608,1,0,0:0:0:0:
184,116,101694,1,8,0:0:0:0:
240,124,101779,1,0,0:0:0:0:
204,124,101951,1,8,0:0:0:0:
200,128,102036,1,8,0:0:0:0:
200,132,102122,1,0,0:0:0:0:
200,128,102208,1,0,0:0:0:0:
180,88,102294,1,8,0:0:0:0:
180,116,102465,1,0,0:0:0:0:
176,128,102551,1,8,0:0:0:0:
180,112,102722,1,0,0:0:0:0:
188,120,102808,1,8,0:0:0:0:
156,36,102893,1,8,0:0:0:0:
188,120,102979,1,0,0:0:0:0:
184,116,103065,1,8,0:0:0:0:
240,124,103151,1,0,0:0:0:0:
204,124,103322,1,8,0:0:0:0:
200,132,103408,1,0,0:0:0:0:
200,128,103493,1,8,0:0:0:0:
172,84,103579,1,8,0:0:0:0:
200,128,103665,1,0,0:0:0:0:
180,116,103836,1,8,0:0:0:0:
176,128,103922,1,0,0:0:0:0:
180,112,104093,1,0,0:0:0:0:
188,120,104179,1,8,0:0:0:0:
188,120,104265,1,8,0:0:0:0:
188,120,104351,1,0,0:0:0:0:
240,124,104522,1,4,0:0:0:0:
204,124,104693,1,8,0:0:0:0:
200,132,104779,1,0,0:0:0:0:
200,128,104865,1,8,0:0:0:0:
200,128,105036,1,8,0:0:0:0:
180,116,105122,1,8,0:0:0:0:
176,128,105208,1,0,0:0:0:0:
192,108,105379,1,8,0:0:0:0:
188,120,105465,1,8,0:0:0:0:
180,112,105551,1,0,0:0:0:0:
156,36,105636,1,0,0:0:0:0:
184,116,105722,1,8,0:0:0:0:
240,124,105893,1,0,0:0:0:0:
204,124,106065,1,8,0:0:0:0:
200,132,106151,1,0,0:0:0:0:
200,128,106236,1,8,0:0:0:0:
172,84,106408,1,0,0:0:0:0:
176,128,106493,1,0,0:0:0:0:
200,128,106579,1,8,0:0:0:0:
180,112,106751,1,0,0:0:0:0:
188,120,106836,1,0,0:0:0:0:
180,116,106922,1,8,0:0:0:0:
188,120,107008,1,0,0:0:0:0:
188,120,107093,1,8,0:0:0:0:
240,124,107265,1,4,0:0:0:0:
200,132,107436,1,0,0:0:0:0:
204,124,107522,1,8,0:0:0:0:
200,128,107608,1,0,0:0:0:0:
200,128,107779,1,8,0:0:0:0:
180,88,107865,1,8,0:0:0:0:
180,116,107951,1,0,0:0:0:0:
176,128,108036,1,8,0:0:0:0:
180,112,108208,1,0,0:0:0:0:
188,120,108293,1,8,0:0:0:0:
188,120,108465,1,0,0:0:0:0:
188,24,108636,1,8,0:0:0:0:
188,24,108722,1,0,0:0:0:0:
204,124,108808,1,0,0:0:0:0:
192,20,108893,1,0,0:0:0:0:
192,20,108979,1,8,0:0:0:0:
176,128,109151,1,0,0:0:0:0:
172,84,109322,1,8,0:0:0:0:
100,104,109408,1,8,0:0:0:0:
232,88,109493,1,0,0:0:0:0:
180,112,109579,1,0,0:0:0:0:
188,120,109665,1,8,0:0:0:0:
188,120,109836,1,8,0:0:0:0:
224,56,110008,1,0,0:0:0:0:
188,120,110093,1,8,0:0:0:0:
224,56,110179,1,0,0:0:0:0:
224,56,110265,1,0,0:0:0:0:
160,68,110351,1,8,0:0:0:0:
160,68,110436,1,0,0:0:0:0:
160,68,110522,1,8,0:0:0:0:
156,72,110608,1,8,0:0:0:0:
164,80,110693,1,0,0:0:0:0:
164,76,110779,1,0,0:0:0:0:
164,76,110865,1,8,0:0:0:0:
164,76,110951,1,8,0:0:0:0:
164,76,111036,1,0,0:0:0:0:
164,76,111122,1,8,0:0:0:0:
164,76,111208,1,8,0:0:0:0:
164,76,111293,1,8,0:0:0:0:
224,56,111379,1,0,0:0:0:0:
188,120,111465,1,0,0:0:0:0:
224,56,111551,1,8,0:0:0:0:
224,56,111636,1,0,0:0:0:0:
160,68,111722,1,8,0:0:0:0:
160,68,111808,1,8,0:0:0:0:
160,68,111893,1,0,0:0:0:0:
156,72,111979,1,8,0:0:0:0:
164,80,112065,1,0,0:0:0:0:
164,76,112151,1,0,0:0:0:0:
164,76,112236,1,8,0:0:0:0:
164,76,112322,1,8,0:0:0:0:
164,76,112408,1,0,0:0:0:0:
164,76,112493,1,8,0:0:0:0:
164,76,112579,1,0,0:0:0:0:
164,76,112665,1,0,0:0:0:0:
224,56,112751,1,8,0:0:0:0:
188,120,112836,1,0,0:0:0:0:
224,56,112922,1,0,0:0:0:0:
224,56,113008,1,0,0:0:0:0:
160,68,113093,1,8,0:0:0:0:
160,68,113179,1,8,0:0:0:0:
160,68,113265,1,0,0:0:0:0:
156,72,113351,1,8,0:0:0:0:
164,80,113436,1,0,0:0:0:0:
164,76,113522,1,0,0:0:0:0:
164,76,113608,1,8,0:0:0:0:
164,76,113693,1,0,0:0:0:0:
164,76,113779,1,8,0:0:0:0:
164,76,113865,1,8,0:0:0:0:
164,76,113951,1,0,0:0:0:0:
164,76,114036,1,8,0:0:0:0:
224,56,114122,1,0,0:0:0:0:
188,120,114208,1,0,0:0:0:0:
224,56,114293,1,8,0:0:0:0:
224,56,114379,1,8,0:0:0:0:
160,68,114465,1,0,0:0:0:0:
160,68,114551,1,8,0:0:0:0:
160,68,114636,1,8,0:0:0:0:
156,72,114722,1,8,0:0:0:0:
164,80,114808,1,0,0:0:0:0:
164,76,114893,1,0,0:0:0:0:
164,76,114979,1,8,0:0:0:0:
164,76,115065,1,0,0:0:0:0:
164,76,115151,1,8,0:0:0:0:
164,76,115236,1,8,0:0:0:0:
164,76,115322,1,0,0:0:0:0:
152,88,115493,1,4,0:0:0:0:
160,104,115665,1,8,0:0:0:0:
152,96,115751,1,8,0:0:0:0:
152,96,115836,1,0,0:0:0:0:
148,92,116008,1,8,0:0:0:0:
148,92,116093,1,8,0:0:0:0:
148,92,116179,1,0,0:0:0:0:
144,88,116265,1,8,0:0:0:0:
144,88,116351,1,8,0:0:0:0:
144,88,116436,1,8,0:0:0:0:
144,88,116522,1,0,0:0:0:0:
144,88,116608,1,0,0:0:0:0:
144,88,116693,1,8,0:0:0:0:
144,68,116865,1,4,0:0:0:0:
136,68,117036,1,8,0:0:0:0:
128,64,117208,1,4,0:0:0:0:
128,64,117379,1,8,0:0:0:0:
128,64,117551,1,4,0:0:0:0:
156,72,117722,1,8,0:0:0:0:
152,64,117808,1,8,0:0:0:0:
152,64,117893,1,0,0:0:0:0:
156,64,117979,1,8,0:0:0:0:
156,64,118065,1,8,0:0:0:0:
168,152,118236,5,4,0:0:0:0:
152,92,118408,1,0,0:0:0:0:
196,224,118493,1,8,0:0:0:0:
188,216,118579,1,0,0:0:0:0:
188,216,118751,1,8,0:0:0:0:
200,216,118922,1,8,0:0:0:0:
184,216,119008,1,0,0:0:0:0:
200,212,119179,1,8,0:0:0:0:
200,212,119265,1,0,0:0:0:0:
200,208,119351,1,0,0:0:0:0:
196,216,119436,1,8,0:0:0:0:
164,116,119608,1,8,0:0:0:0:
168,152,119779,1,0,0:0:0:0:
196,224,119865,1,8,0:0:0:0:
188,216,119951,1,0,0:0:0:0:
272,88,120036,1,0,0:0:0:0:
188,216,120122,1,8,0:0:0:0:
200,216,120293,1,8,0:0:0:0:
200,212,120379,1,0,0:0:0:0:
196,216,120551,1,8,0:0:0:0:
196,216,120636,1,0,0:0:0:0:
200,212,120722,1,0,0:0:0:0:
184,216,120808,1,8,0:0:0:0:
164,88,120893,1,0,0:0:0:0:
168,152,120979,1,8,0:0:0:0:
188,216,121151,1,0,0:0:0:0:
196,224,121236,1,8,0:0:0:0:
180,48,121322,1,0,0:0:0:0:
188,216,121493,1,8,0:0:0:0:
200,208,121665,1,8,0:0:0:0:
184,216,121751,1,0,0:0:0:0:
200,72,121836,1,0,0:0:0:0:
200,212,121922,1,0,0:0:0:0:
200,212,122008,1,8,0:0:0:0:
196,216,122179,1,8,0:0:0:0:
196,216,122265,1,0,0:0:0:0:
164,116,122351,1,8,0:0:0:0:
168,152,122522,1,0,0:0:0:0:
196,224,122608,1,8,0:0:0:0:
188,216,122693,1,8,0:0:0:0:
88,88,122779,1,0,0:0:0:0:
188,216,122865,1,8,0:0:0:0:
200,208,123036,1,8,0:0:0:0:
200,216,123122,1,0,0:0:0:0:
196,216,123208,1,8,0:0:0:0:
200,212,123293,1,8,0:0:0:0:
200,212,123379,1,0,0:0:0:0:
240,76,123465,1,0,0:0:0:0:
196,216,123551,1,8,0:0:0:0:
168,152,123722,5,8,0:0:0:0:
152,92,123893,1,0,0:0:0:0:
196,224,123979,1,8,0:0:0:0:
188,216,124065,1,0,0:0:0:0:
188,216,124236,1,0,0:0:0:0:
200,212,124322,1,0,0:0:0:0:
200,208,124408,1,8,0:0:0:0:
184,216,124493,1,8,0:0:0:0:
200,216,124665,1,0,0:0:0:0:
200,212,124751,1,0,0:0:0:0:
196,216,124922,1,8,0:0:0:0:
164,116,125093,1,8,0:0:0:0:
168,152,125265,1,0,0:0:0:0:
196,224,125351,1,8,0:0:0:0:
188,216,125436,1,0,0:0:0:0:
188,216,125608,1,8,0:0:0:0:
272,88,125693,1,0,0:0:0:0:
200,216,125779,1,8,0:0:0:0:
200,212,125865,1,8,0:0:0:0:
196,216,126036,1,8,0:0:0:0:
196,216,126122,1,0,0:0:0:0:
184,216,126293,1,8,0:0:0:0:
164,88,126379,1,0,0:0:0:0:
168,152,126465,1,8,0:0:0:0:
188,216,126636,1,0,0:0:0:0:
196,224,126722,1,8,0:0:0:0:
180,48,126808,1,0,0:0:0:0:
188,216,126979,1,8,0:0:0:0:
200,212,127065,1,8,0:0:0:0:
184,216,127151,1,0,0:0:0:0:
200,208,127236,1,8,0:0:0:0:
200,212,127408,1,8,0:0:0:0:
200,212,127493,1,0,0:0:0:0:
196,216,127579,1,0,0:0:0:0:
196,216,127665,1,8,0:0:0:0:
164,116,127836,1,4,0:0:0:0:
168,152,128008,1,0,0:0:0:0:
196,224,128065,1,8,0:0:0:0:
64,148,128122,1,8,0:0:0:0:
188,216,128179,1,0,0:0:0:0:
88,88,128265,1,0,0:0:0:0:
188,216,128351,1,8,0:0:0:0:
180,32,128408,1,8,0:0:0:0:
208,92,128465,1,8,0:0:0:0:
200,216,128522,1,0,0:0:0:0:
200,208,128608,1,0,0:0:0:0:
200,212,128693,1,8,0:0:0:0:
208,92,128751,1,0,0:0:0:0:
92,132,128808,1,0,0:0:0:0:
200,212,128865,1,8,0:0:0:0:
196,216,128951,1,0,0:0:0:0:
196,216,129036,1,8,0:0:0:0:
84,112,129094,1,8,0:0:0:0:
208,92,129151,1,0,0:0:0:0:
208,92,129208,1,8,0:0:0:0:
204,148,129379,1,0,0:0:0:0:
204,148,129465,1,0,0:0:0:0:
204,148,129551,1,8,0:0:0:0:
204,148,129636,1,8,0:0:0:0:
204,148,129722,1,8,0:0:0:0:
204,148,129808,1,8,0:0:0:0:
204,148,129893,1,0,0:0:0:0:
196,160,130065,1,8,0:0:0:0:
196,160,130151,1,0,0:0:0:0:
196,164,130236,1,8,0:0:0:0:
192,164,130322,1,8,0:0:0:0:
192,164,130408,1,0,0:0:0:0:
192,164,130493,1,0,0:0:0:0:
192,168,130579,1,8,0:0:0:0:
204,148,130751,1,0,0:0:0:0:
204,148,130836,1,0,0:0:0:0:
204,148,130922,1,8,0:0:0:0:
204,148,131008,1,0,0:0:0:0:
204,148,131094,1,8,0:0:0:0:
204,148,131179,1,8,0:0:0:0:
204,148,131265,1,0,0:0:0:0:
196,160,131436,1,8,0:0:0:0:
196,164,131522,1,8,0:0:0:0:
196,160,131608,1,0,0:0:0:0:
192,164,131694,1,8,0:0:0:0:
192,164,131779,1,0,0:0:0:0:
168,120,131865,1,0,0:0:0:0:
192,168,131951,1,12,0:0:0:0:
204,148,132122,1,0,0:0:0:0:
204,148,132208,1,0,0:0:0:0:
204,148,132294,1,8,0:0:0:0:
204,148,132379,1,8,0:0:0:0:
204,148,132465,1,8,0:0:0:0:
204,148,132551,1,0,0:0:0:0:
204,148,132636,1,8,0:0:0:0:
196,160,132808,1,0,0:0:0:0:
196,160,132894,1,0,0:0:0:0:
196,164,132979,1,8,0:0:0:0:
192,164,133065,1,8,0:0:0:0:
192,164,133151,1,0,0:0:0:0:
192,168,133236,1,8,0:0:0:0:
192,164,133322,1,0,0:0:0:0:
204,148,133494,1,8,0:0:0:0:
204,148,133579,1,8,0:0:0:0:
204,148,133665,1,0,0:0:0:0:
204,148,133751,1,8,0:0:0:0:
204,148,133836,1,0,0:0:0:0:
204,148,133922,1,0,0:0:0:0:
204,148,134008,1,8,0:0:0:0:
196,160,134179,1,0,0:0:0:0:
196,160,134265,1,0,0:0:0:0:
196,164,134351,1,8,0:0:0:0:
192,164,134436,1,8,0:0:0:0:
192,164,134522,1,8,0:0:0:0:
196,56,134608,1,8,0:0:0:0:
192,168,134694,1,4,0:0:0:0:
176,76,134865,1,4,0:0:0:0:
196,76,135208,1,8,0:0:0:0:
196,76,135265,1,8,0:0:0:0:
196,76,135322,1,8,0:0:0:0:
196,80,135379,1,0,0:0:0:0:
208,108,135465,1,8,0:0:0:0:
196,76,135551,1,0,0:0:0:0:
160,112,135636,1,0,0:0:0:0:
196,76,135722,1,8,0:0:0:0:
196,76,135779,1,8,0:0:0:0:
196,76,135836,1,8,0:0:0:0:
196,76,135894,1,0,0:0:0:0:
144,112,136065,1,12,0:0:0:0:
144,116,136322,1,12,0:0:0:0:
136,120,136579,1,12,0:0:0:0:
140,116,136751,1,0,0:0:0:0:
140,116,136836,1,8,0:0:0:0:
152,112,137008,1,8,0:0:0:0:
196,76,137094,1,0,0:0:0:0:
196,76,137151,1,0,0:0:0:0:
196,76,137208,1,0,0:0:0:0:
196,76,137265,1,8,0:0:0:0:
196,76,137322,1,8,0:0:0:0:
196,76,137379,1,8,0:0:0:0:
196,36,137436,1,0,0:0:0:0:
192,40,137522,1,0,0:0:0:0:
192,40,137608,1,8,0:0:0:0:
192,40,137694,1,0,0:0:0:0:
192,44,137779,1,8,0:0:0:0:
192,44,137865,1,8,0:0:0:0:
192,44,137951,1,0,0:0:0:0:
192,48,138036,1,8,0:0:0:0:
196,76,138122,1,0,0:0:0:0:
196,76,138179,1,0,0:0:0:0:
196,76,138236,1,0,0:0:0:0:
192,48,138294,1,8,0:0:0:0:
192,48,138379,1,0,0:0:0:0:
196,76,138465,1,8,0:0:0:0:
196,76,138522,1,8,0:0:0:0:
196,76,138579,1,8,0:0:0:0:
196,76,138636,1,8,0:0:0:0:
196,76,138694,1,8,0:0:0:0:
196,76,138751,1,8,0:0:0:0:
188,128,138808,1,0,0:0:0:0:
188,64,138979,1,0,0:0:0:0:
188,68,139065,1,8,0:0:0:0:
152,56,139236,1,0,0:0:0:0:
152,56,139322,1,8,0:0:0:0:
144,64,139494,1,8,0:0:0:0:
144,64,139579,1,8,0:0:0:0:
144,68,139665,1,0,0:0:0:0:
144,68,139751,1,8,0:0:0:0:
144,68,139922,1,0,0:0:0:0:
144,64,140008,1,8,0:0:0:0:
176,168,140179,1,4,0:0:0:0:
200,120,140522,1,8,0:0:0:0:
200,120,140694,1,0,0:0:0:0:
200,120,141036,1,0,0:0:0:0:
200,120,141208,1,8,0:0:0:0:
200,120,141551,1,0,0:0:0:0:
200,120,141894,1,8,0:0:0:0:
200,120,142065,1,0,0:0:0:0:
200,120,142408,1,0,0:0:0:0:
200,120,142579,1,8,0:0:0:0:
200,120,142751,1,0,0:0:0:0:
204,64,142922,1,0,0:0:0:0:
200,120,143265,1,8,0:0:0:0:
200,120,143436,1,0,0:0:0:0:
200,120,143779,1,0,0:0:0:0:
200,120,143951,1,8,0:0:0:0:
224,88,144122,1,8,0:0:0:0:
200,120,144294,1,0,0:0:0:0:
200,120,144636,1,8,0:0:0:0:
200,120,144808,1,0,0:0:0:0:
224,88,144979,1,0,0:0:0:0:
200,120,145151,1,0,0:0:0:0:
200,120,145322,1,8,0:0:0:0:
128,136,145494,1,8,0:0:0:0:
204,64,145665,1,0,0:0:0:0:
200,120,146008,1,8,0:0:0:0:
200,120,146179,1,0,0:0:0:0:
200,120,146522,1,8,0:0:0:0:
200,120,146694,1,8,0:0:0:0:
200,120,147036,1,0,0:0:0:0:
200,120,147379,1,8,0:0:0:0:
200,120,147551,1,0,0:0:0:0:
200,120,147894,1,8,0:0:0:0:
200,120,148065,1,8,0:0:0:0:
200,120,148236,1,8,0:0:0:0:
204,64,148408,1,0,0:0:0:0:
244,112,148579,1,0,0:0:0:0:
244,112,148751,1,8,0:0:0:0:
244,112,148922,1,0,0:0:0:0:
176,80,149008,1,8,0:0:0:0:
176,80,149094,1,0,0:0:0:0:
168,72,149179,1,0,0:0:0:0:
168,72,149265,1,0,0:0:0:0:
176,68,149436,1,8,0:0:0:0:
172,68,149608,1,4,0:0:0:0:
172,68,149951,1,4,0:0:0:0:
172,68,150294,1,4,0:0:0:0:
172,68,150636,1,4,0:0:0:0:
172,68,150808,1,8,0:0:0:0:
140,100,150979,1,0,0:0:0:0:
176,168,151151,1,4,0:0:0:0:
192,176,151494,1,8,0:0:0:0:
188,112,151665,1,0,0:0:0:0:
188,112,151751,1,0,0:0:0:0:
188,112,151836,1,8,0:0:0:0:
188,112,152008,1,0,0:0:0:0:
188,112,152179,1,8,0:0:0:0:
184,116,152265,1,8,0:0:0:0:
188,112,152351,1,0,0:0:0:0:
180,116,152522,1,0,0:0:0:0:
180,64,152694,1,0,0:0:0:0:
180,64,152779,1,0,0:0:0:0:
180,64,152865,1,8,0:0:0:0:
180,64,153036,1,0,0:0:0:0:
216,96,153122,1,8,0:0:0:0:
180,64,153208,1,0,0:0:0:0:
180,64,153379,1,0,0:0:0:0:
180,64,153551,1,8,0:0:0:0:
184,76,153722,1,0,0:0:0:0:
180,76,153808,1,0,0:0:0:0:
176,80,153894,1,0,0:0:0:0:
192,176,154236,1,8,0:0:0:0:
188,112,154408,1,0,0:0:0:0:
188,112,154494,1,0,0:0:0:0:
188,112,154579,1,8,0:0:0:0:
188,112,154751,1,0,0:0:0:0:
188,112,154922,1,8,0:0:0:0:
172,120,155008,1,8,0:0:0:0:
188,112,155094,1,0,0:0:0:0:
184,116,155179,1,8,0:0:0:0:
180,116,155265,1,0,0:0:0:0:
180,64,155436,1,0,0:0:0:0:
180,64,155608,1,8,0:0:0:0:
180,64,155694,1,0,0:0:0:0:
180,64,155779,1,8,0:0:0:0:
180,64,155951,1,8,0:0:0:0:
180,64,156122,1,0,0:0:0:0:
224,48,156208,1,0,0:0:0:0:
180,64,156294,1,8,0:0:0:0:
88,96,156379,1,8,0:0:0:0:
184,76,156465,1,8,0:0:0:0:
160,96,156636,1,4,0:0:0:0:
192,112,156808,1,0,0:0:0:0:
160,96,156894,1,0,0:0:0:0:
192,112,156979,1,8,0:0:0:0:
192,112,157065,1,0,0:0:0:0:
160,100,157151,1,0,0:0:0:0:
192,112,157236,1,8,0:0:0:0:
192,112,157322,1,0,0:0:0:0:
200,48,157494,1,0,0:0:0:0:
240,152,157579,1,0,0:0:0:0:
104,68,157665,1,8,0:0:0:0:
184,92,157751,1,8,0:0:0:0:
180,40,157836,1,0,0:0:0:0:
120,104,158008,1,8,0:0:0:0:
192,112,158179,1,0,0:0:0:0:
140,112,158265,1,0,0:0:0:0:
192,112,158351,1,8,0:0:0:0:
140,112,158436,1,0,0:0:0:0:
192,112,158522,1,8,0:0:0:0:
192,112,158608,1,8,0:0:0:0:
192,112,158694,1,0,0:0:0:0:
196,108,158865,1,8,0:0:0:0:
176,120,158951,1,8,0:0:0:0:
184,92,159036,1,0,0:0:0:0:
220,48,159122,1,0,0:0:0:0:
184,120,159208,1,8,0:0:0:0:
240,152,159379,1,0,0:0:0:0:
184,48,159465,1,8,0:0:0:0:
184,48,159551,1,8,0:0:0:0:
184,120,159636,1,8,0:0:0:0:
176,48,159722,1,0,0:0:0:0:
196,100,159808,1,0,0:0:0:0:
184,120,159894,1,8,0:0:0:0:
184,120,159979,1,8,0:0:0:0:
184,120,160065,1,0,0:0:0:0:
196,88,160151,1,0,0:0:0:0:
192,120,160236,1,8,0:0:0:0:
184,104,160322,1,0,0:0:0:0:
192,120,160408,1,0,0:0:0:0:
192,120,160579,1,12,0:0:0:0:
188,116,160922,1,12,0:0:0:0:
140,100,161265,1,12,0:0:0:0:
144,96,161436,1,0,0:0:0:0:
144,96,161522,1,8,0:0:0:0:
188,20,161694,1,0,0:0:0:0:
188,20,161779,1,8,0:0:0:0:
140,100,161865,1,0,0:0:0:0:
188,20,161951,1,8,0:0:0:0:
344,128,162122,1,4,0:0:0:0:
232,168,162465,1,8,0:0:0:0:
156,144,162808,1,0,0:0:0:0:
156,144,162979,1,0,0:0:0:0:
156,144,163151,1,8,0:0:0:0:
152,144,163322,1,8,0:0:0:0:
216,76,163494,1,0,0:0:0:0:
216,80,163836,1,8,0:0:0:0:
216,80,164008,1,0,0:0:0:0:
216,80,164179,1,0,0:0:0:0:
156,108,164351,1,0,0:0:0:0:
156,108,164522,1,8,0:0:0:0:
156,108,164865,1,0,0:0:0:0:
240,112,165208,1,8,0:0:0:0:
232,112,165379,1,0,0:0:0:0:
184,80,165722,1,0,0:0:0:0:
184,80,165894,1,8,0:0:0:0:
184,80,166236,1,0,0:0:0:0:
216,148,166408,1,0,0:0:0:0:
208,148,166579,1,8,0:0:0:0:
216,148,166922,1,0,0:0:0:0:
164,60,167094,1,0,0:0:0:0:
344,128,167265,1,8,0:0:0:0:
208,152,167436,1,8,0:0:0:0:
344,128,167608,1,0,0:0:0:0:
232,168,167951,1,8,0:0:0:0:
156,144,168294,1,0,0:0:0:0:
156,144,168465,1,0,0:0:0:0:
156,144,168636,1,8,0:0:0:0:
152,144,168808,1,8,0:0:0:0:
216,76,168979,1,0,0:0:0:0:
216,80,169322,1,8,0:0:0:0:
216,80,169494,1,0,0:0:0:0:
216,80,169665,1,0,0:0:0:0:
156,108,169836,1,0,0:0:0:0:
156,108,170008,1,8,0:0:0:0:
156,108,170351,1,0,0:0:0:0:
240,112,170694,1,8,0:0:0:0:
232,112,170865,1,0,0:0:0:0:
184,80,171208,1,0,0:0:0:0:
184,80,171379,1,8,0:0:0:0:
184,80,171722,1,0,0:0:0:0:
216,148,171894,1,0,0:0:0:0:
208,148,172065,5,8,0:0:0:0:
216,148,172408,1,0,0:0:0:0:
164,60,172579,1,0,0:0:0:0:
344,128,172751,1,8,0:0:0:0:
208,152,172922,1,8,0:0:0:0:
144,72,173094,5,0,0:0:0:0:
144,72,173179,1,8,0:0:0:0:
144,72,173265,1,0,0:0:0:0:
120,132,173351,1,0,0:0:0:0:
144,76,173436,1,8,0:0:0:0:
144,76,173522,1,8,0:0:0:0:
144,76,173694,1,0,0:0:0:0:
144,80,173779,1,8,0:0:0:0:
224,72,173951,1,0,0:0:0:0:
192,100,174036,1,8,0:0:0:0:
188,136,174122,1,8,0:0:0:0:
224,72,174208,1,0,0:0:0:0:
224,72,174294,1,8,0:0:0:0:
220,72,174379,1,8,0:0:0:0:
220,72,174465,1,0,0:0:0:0:
196,144,174636,1,0,0:0:0:0:
196,144,174808,1,8,0:0:0:0:
196,144,174979,1,0,0:0:0:0:
196,144,175065,1,0,0:0:0:0:
196,144,175151,1,8,0:0:0:0:
196,136,175236,1,0,0:0:0:0:
184,64,175408,1,0,0:0:0:0:
180,64,175494,1,8,0:0:0:0:
224,56,175579,1,8,0:0:0:0:
260,120,175665,1,8,0:0:0:0:
144,72,175836,1,0,0:0:0:0:
144,72,175922,1,8,0:0:0:0:
144,72,176008,1,8,0:0:0:0:
144,72,176094,1,0,0:0:0:0:
144,76,176179,1,8,0:0:0:0:
144,76,176265,1,0,0:0:0:0:
144,76,176351,1,0,0:0:0:0:
144,80,176522,1,8,0:0:0:0:
224,72,176694,1,0,0:0:0:0:
224,72,176865,1,8,0:0:0:0:
224,72,177036,1,12,0:0:0:0:
196,144,177379,1,4,0:0:0:0:
196,144,177551,1,12,0:0:0:0:
196,144,177722,1,12,0:0:0:0:
184,64,177894,1,4,0:0:0:0:
196,144,178065,1,12,0:0:0:0:
180,64,178236,1,4,0:0:0:0:
240,112,178579,1,4,0:0:0:0:
236,132,178751,1,8,0:0:0:0:
236,132,178922,1,0,0:0:0:0:
236,132,179008,1,0,0:0:0:0:
184,72,179094,1,8,0:0:0:0:
184,72,179265,1,0,0:0:0:0:
184,72,179436,1,8,0:0:0:0:
184,72,179522,1,0,0:0:0:0:
184,72,179608,1,8,0:0:0:0:
184,72,179779,1,0,0:0:0:0:
240,112,179951,1,0,0:0:0:0:
236,132,180122,1,8,0:0:0:0:
184,72,180208,1,0,0:0:0:0:
236,132,180294,1,0,0:0:0:0:
236,132,180379,1,0,0:0:0:0:
184,72,180465,1,8,0:0:0:0:
184,72,180551,1,8,0:0:0:0:
184,72,180636,1,0,0:0:0:0:
184,72,180808,1,8,0:0:0:0:
172,112,180894,1,0,0:0:0:0:
184,72,180979,1,8,0:0:0:0:
184,72,181151,1,4,0:0:0:0:
216,136,181494,1,12,0:0:0:0:
220,136,181665,1,12,0:0:0:0:
216,136,181836,1,4,0:0:0:0:
224,144,182179,1,4,0:0:0:0:
224,144,182351,1,12,0:0:0:0:
220,144,182522,1,4,0:0:0:0:
224,144,182865,1,12,0:0:0:0:
224,144,183208,1,12,0:0:0:0:
220,144,183379,1,12,0:0:0:0:
216,52,183551,1,0,0:0:0:0:
216,52,183636,1,8,0:0:0:0:
216,56,183808,1,0,0:0:0:0:
216,56,183894,1,8,0:0:0:0:
240,124,184065,1,4,0:0:0:0:
204,124,184236,1,8,0:0:0:0:
200,128,184322,1,8,0:0:0:0:
200,132,184408,1,0,0:0:0:0:
200,128,184579,1,8,0:0:0:0:
176,128,184751,1,0,0:0:0:0:
180,116,184836,1,8,0:0:0:0:
188,120,185008,1,8,0:0:0:0:
180,112,185094,1,0,0:0:0:0:
188,120,185179,1,0,0:0:0:0:
156,36,185265,1,8,0:0:0:0:
184,116,185351,1,8,0:0:0:0:
240,124,185436,1,0,0:0:0:0:
204,124,185608,1,8,0:0:0:0:
200,128,185694,1,8,0:0:0:0:
200,132,185779,1,0,0:0:0:0:
172,84,185865,1,8,0:0:0:0:
200,128,186036,1,8,0:0:0:0:
176,128,186122,1,0,0:0:0:0:
180,116,186294,1,8,0:0:0:0:
180,112,186379,1,0,0:0:0:0:
188,120,186465,1,8,0:0:0:0:
188,120,186551,1,8,0:0:0:0:
188,120,186636,1,0,0:0:0:0:
184,116,186722,1,8,0:0:0:0:
240,124,186808,1,0,0:0:0:0:
204,124,186979,1,8,0:0:0:0:
200,132,187065,1,0,0:0:0:0:
200,128,187151,1,8,0:0:0:0:
180,88,187236,1,8,0:0:0:0:
200,128,187322,1,0,0:0:0:0:
176,128,187494,1,8,0:0:0:0:
180,116,187579,1,0,0:0:0:0:
180,112,187751,1,0,0:0:0:0:
188,120,187836,1,8,0:0:0:0:
156,36,187922,1,8,0:0:0:0:
188,120,188008,1,0,0:0:0:0:
184,116,188179,1,8,0:0:0:0:
240,124,188265,1,0,0:0:0:0:
204,124,188351,1,8,0:0:0:0:
200,128,188436,1,8,0:0:0:0:
200,132,188522,1,0,0:0:0:0:
200,128,188608,1,0,0:0:0:0:
172,84,188694,1,8,0:0:0:0:
176,128,188865,1,0,0:0:0:0:
180,116,188951,1,8,0:0:0:0:
180,112,189122,1,0,0:0:0:0:
188,120,189208,1,8,0:0:0:0:
188,120,189294,1,0,0:0:0:0:
188,120,189379,1,8,0:0:0:0:
184,116,189465,1,8,0:0:0:0:
240,124,189551,1,0,0:0:0:0:
204,124,189722,1,8,0:0:0:0:
200,128,189808,1,8,0:0:0:0:
200,132,189894,1,0,0:0:0:0:
200,128,190065,1,8,0:0:0:0:
176,128,190236,1,0,0:0:0:0:
180,116,190322,1,8,0:0:0:0:
188,120,190494,1,8,0:0:0:0:
180,112,190579,1,8,0:0:0:0:
156,36,190665,1,0,0:0:0:0:
184,116,190751,1,8,0:0:0:0:
188,120,190836,1,0,0:0:0:0:
240,124,190922,1,0,0:0:0:0:
204,124,191094,1,8,0:0:0:0:
200,132,191179,1,0,0:0:0:0:
200,128,191265,1,8,0:0:0:0:
172,84,191351,1,8,0:0:0:0:
200,128,191522,1,8,0:0:0:0:
176,128,191608,1,0,0:0:0:0:
180,116,191779,1,8,0:0:0:0:
188,120,191865,1,8,0:0:0:0:
180,112,191951,1,0,0:0:0:0:
188,120,192036,1,8,0:0:0:0:
188,120,192122,1,0,0:0:0:0:
184,116,192208,1,0,0:0:0:0:
240,124,192294,1,8,0:0:0:0:
200,132,192465,1,0,0:0:0:0:
204,124,192551,1,8,0:0:0:0:
200,128,192636,1,0,0:0:0:0:
180,88,192722,1,0,0:0:0:0:
200,128,192808,1,8,0:0:0:0:
176,128,192979,1,8,0:0:0:0:
180,116,193065,1,0,0:0:0:0:
180,112,193236,1,0,0:0:0:0:
188,120,193322,1,8,0:0:0:0:
188,120,193494,1,4,0:0:0:0:
204,124,193836,1,4,0:0:0:0:
176,128,194179,1,4,0:0:0:0:
172,84,194351,1,12,0:0:0:0:
232,88,194522,1,0,0:0:0:0:
180,112,194608,1,0,0:0:0:0:
188,120,194694,1,8,0:0:0:0:
188,120,194751,1,8,0:0:0:0:
176,72,194808,1,8,0:0:0:0:
188,120,194865,1,0,0:0:0:0:
240,124,195036,1,4,0:0:0:0:
204,124,195208,1,8,0:0:0:0:
200,132,195294,1,0,0:0:0:0:
200,128,195379,1,8,0:0:0:0:
200,128,195551,1,0,0:0:0:0:
176,128,195722,1,8,0:0:0:0:
180,116,195808,1,0,0:0:0:0:
188,120,195979,1,8,0:0:0:0:
180,112,196065,1,0,0:0:0:0:
184,116,196151,1,8,0:0:0:0:
156,36,196236,1,8,0:0:0:0:
188,120,196322,1,0,0:0:0:0:
240,124,196408,1,0,0:0:0:0:
204,124,196579,1,8,0:0:0:0:
200,132,196665,1,0,0:0:0:0:
200,128,196751,1,8,0:0:0:0:
172,84,196836,1,8,0:0:0:0:
200,128,197008,1,8,0:0:0:0:
176,128,197094,1,0,0:0:0:0:
180,116,197265,1,8,0:0:0:0:
180,112,197351,1,0,0:0:0:0:
188,120,197436,1,8,0:0:0:0:
188,120,197522,1,8,0:0:0:0:
188,120,197608,1,0,0:0:0:0:
184,116,197694,1,8,0:0:0:0:
240,124,197779,1,0,0:0:0:0:
204,124,197951,1,8,0:0:0:0:
200,128,198036,1,8,0:0:0:0:
200,132,198122,1,0,0:0:0:0:
200,128,198208,1,0,0:0:0:0:
180,88,198294,1,8,0:0:0:0:
180,116,198465,1,0,0:0:0:0:
176,128,198551,1,8,0:0:0:0:
180,112,198722,1,0,0:0:0:0:
188,120,198808,1,8,0:0:0:0:
156,36,198894,1,8,0:0:0:0:
188,120,198979,1,0,0:0:0:0:
184,116,199065,1,8,0:0:0:0:
240,124,199151,1,0,0:0:0:0:
204,124,199322,1,8,0:0:0:0:
200,132,199408,1,0,0:0:0:0:
200,128,199494,1,8,0:0:0:0:
172,84,199579,1,8,0:0:0:0:
200,128,199665,1,0,0:0:0:0:
180,116,199836,1,8,0:0:0:0:
176,128,199922,1,0,0:0:0:0:
180,112,200094,1,0,0:0:0:0:
188,120,200179,1,8,0:0:0:0:
188,120,200265,1,8,0:0:0:0:
188,120,200351,1,0,0:0:0:0:
240,124,200522,1,4,0:0:0:0:
204,124,200694,1,8,0:0:0:0:
200,132,200779,1,0,0:0:0:0:
200,128,200865,1,8,0:0:0:0:
200,128,201036,1,8,0:0:0:0:
180,116,201122,1,8,0:0:0:0:
176,128,201208,1,0,0:0:0:0:
192,108,201379,1,8,0:0:0:0:
188,120,201465,1,8,0:0:0:0:
180,112,201551,1,0,0:0:0:0:
156,36,201636,1,0,0:0:0:0:
184,116,201722,1,8,0:0:0:0:
240,124,201894,1,0,0:0:0:0:
204,124,202065,1,8,0:0:0:0:
200,132,202151,1,0,0:0:0:0:
200,128,202236,1,8,0:0:0:0:
172,84,202408,1,0,0:0:0:0:
176,128,202494,1,0,0:0:0:0:
200,128,202579,1,8,0:0:0:0:
180,112,202751,1,0,0:0:0:0:
188,120,202836,1,0,0:0:0:0:
180,116,202922,1,8,0:0:0:0:
188,120,203008,1,0,0:0:0:0:
188,120,203094,1,8,0:0:0:0:
240,124,203265,1,4,0:0:0:0:
200,132,203436,1,0,0:0:0:0:
204,124,203522,1,8,0:0:0:0:
200,128,203608,1,0,0:0:0:0:
200,128,203779,1,8,0:0:0:0:
180,88,203865,1,8,0:0:0:0:
180,116,203951,1,0,0:0:0:0:
176,128,204036,1,8,0:0:0:0:
180,112,204208,1,0,0:0:0:0:
188,120,204294,1,8,0:0:0:0:
188,120,204465,1,0,0:0:0:0:
188,24,204636,1,8,0:0:0:0:
188,24,204722,1,0,0:0:0:0:
204,124,204808,1,0,0:0:0:0:
192,20,204894,1,0,0:0:0:0:
192,20,204979,1,8,0:0:0:0:
176,128,205151,1,0,0:0:0:0:
172,84,205322,1,8,0:0:0:0:
100,104,205408,1,8,0:0:0:0:
232,88,205493,1,0,0:0:0:0:
180,112,205579,1,0,0:0:0:0:
188,120,205665,1,8,0:0:0:0:
188,120,205836,1,8,0:0:0:0:
224,56,206008,1,0,0:0:0:0:
188,120,206093,1,8,0:0:0:0:
224,56,206179,1,0,0:0:0:0:
224,56,206265,1,0,0:0:0:0:
160,68,206351,1,8,0:0:0:0:
160,68,206436,1,0,0:0:0:0:
160,68,206522,1,8,0:0:0:0:
156,72,206608,1,8,0:0:0:0:
164,80,206693,1,0,0:0:0:0:
164,76,206779,1,0,0:0:0:0:
164,76,206865,1,8,0:0:0:0:
164,76,206951,1,8,0:0:0:0:
164,76,207036,1,0,0:0:0:0:
164,76,207122,1,8,0:0:0:0:
164,76,207208,1,8,0:0:0:0:
164,76,207293,1,8,0:0:0:0:
224,56,207379,1,0,0:0:0:0:
188,120,207465,1,0,0:0:0:0:
224,56,207551,1,8,0:0:0:0:
224,56,207636,1,0,0:0:0:0:
160,68,207722,1,8,0:0:0:0:
160,68,207808,1,8,0:0:0:0:
160,68,207893,1,0,0:0:0:0:
156,72,207979,1,8,0:0:0:0:
164,80,208065,1,0,0:0:0:0:
164,76,208151,1,0,0:0:0:0:
164,76,208236,1,8,0:0:0:0:
164,76,208322,1,8,0:0:0:0:
164,76,208408,1,0,0:0:0:0:
164,76,208493,1,8,0:0:0:0:
164,76,208579,1,0,0:0:0:0:
164,76,208665,1,0,0:0:0:0:
224,56,208751,1,8,0:0:0:0:
188,120,208836,1,0,0:0:0:0:
224,56,208922,1,0,0:0:0:0:
224,56,209008,1,0,0:0:0:0:
160,68,209093,1,8,0:0:0:0:
160,68,209179,1,8,0:0:0:0:
160,68,209265,1,0,0:0:0:0:
156,72,209351,1,8,0:0:0:0:
164,80,209436,1,0,0:0:0:0:
164,76,209522,1,0,0:0:0:0:
164,76,209608,1,8,0:0:0:0:
164,76,209693,1,0,0:0:0:0:
164,76,209779,1,8,0:0:0:0:
164,76,209865,1,8,0:0:0:0:
164,76,209951,1,0,0:0:0:0:
164,76,210036,1,8,0:0:0:0:
224,56,210122,1,0,0:0:0:0:
188,120,210208,1,0,0:0:0:0:
224,56,210293,1,8,0:0:0:0:
224,56,210379,1,8,0:0:0:0:
160,68,210465,1,0,0:0:0:0:
160,68,210551,1,8,0:0:0:0:
160,68,210636,1,8,0:0:0:0:
156,72,210722,1,8,0:0:0:0:
164,80,210808,1,0,0:0:0:0:
164,76,210893,1,0,0:0:0:0:
164,76,210979,1,8,0:0:0:0:
164,76,211065,1,0,0:0:0:0:
164,76,211151,1,8,0:0:0:0:
164,76,211236,1,8,0:0:0:0:
164,76,211322,1,0,0:0:0:0:
152,88,211493,1,4,0:0:0:0:
160,104,211665,1,8,0:0:0:0:
152,96,211751,1,8,0:0:0:0:
152,96,211836,1,0,0:0:0:0:
148,92,212008,1,8,0:0:0:0:
148,92,212093,1,8,0:0:0:0:
148,92,212179,1,0,0:0:0:0:
144,88,212265,1,8,0:0:0:0:
144,88,212351,1,8,0:0:0:0:
144,88,212436,1,8,0:0:0:0:
144,88,212522,1,0,0:0:0:0:
144,88,212608,1,0,0:0:0:0:
144,88,212693,1,8,0:0:0:0:
144,68,212865,1,4,0:0:0:0:
136,68,213036,1,8,0:0:0:0:
128,64,213208,1,0,0:0:0:0:
224,132,213293,1,8,0:0:0:0:
128,64,213379,1,8,0:0:0:0:
128,64,213551,1,0,0:0:0:0:
224,132,213636,1,8,0:0:0:0:
156,72,213722,1,8,0:0:0:0:
152,64,213808,1,8,0:0:0:0:
152,64,213893,1,0,0:0:0:0:
156,64,213979,1,0,0:0:0:0:
156,64,214065,1,8,0:0:0:0:
240,136,214236,1,4,0:0:0:0:
240,136,215608,1,8,0:0:0:0:
240,136,216293,1,0,0:0:0:0:
240,136,216979,1,0,0:0:0:0:
212,88,218351,1,0,0:0:0:0:
212,88,219036,1,8,0:0:0:0:
212,88,219722,1,0,0:0:0:0:
236,88,221093,1,8,0:0:0:0:
236,88,221779,1,8,0:0:0:0:
236,88,222465,1,0,0:0:0:0:
248,92,223665,1,0,0:0:0:0:
240,136,225208,1,0,0:0:0:0:
240,136,226579,1,8,0:0:0:0:
240,136,227265,1,0,0:0:0:0:
240,136,227951,1,0,0:0:0:0:
212,88,229322,1,0,0:0:0:0:
212,88,230008,1,8,0:0:0:0:
212,88,230693,1,0,0:0:0:0:
236,88,232065,1,8,0:0:0:0:
236,88,232751,1,8,0:0:0:0:
236,88,233436,1,0,0:0:0:0:
120,144,233522,1,8,0:0:0:0:
140,136,233608,1,8,0:0:0:0:
140,136,233693,1,8,0:0:0:0:
184,144,233779,1,0,0:0:0:0:
184,144,233865,1,0,0:0:0:0:
184,144,233951,1,8,0:0:0:0:
184,144,234036,1,8,0:0:0:0:
184,144,234122,1,0,0:0:0:0:
184,144,234208,1,0,0:0:0:0:
184,148,234293,1,0,0:0:0:0:
184,144,234379,1,0,0:0:0:0:
188,148,234465,1,8,0:0:0:0:
188,152,234551,1,0,0:0:0:0:
188,152,234636,1,8,0:0:0:0:
216,64,234722,1,0,0:0:0:0:
140,136,234808,1,8,0:0:0:0:
120,144,234893,1,8,0:0:0:0:
236,88,234979,1,0,0:0:0:0:
140,136,235065,1,8,0:0:0:0:
184,144,235151,1,0,0:0:0:0:
184,144,235236,1,0,0:0:0:0:
184,144,235322,1,8,0:0:0:0:
184,144,235408,1,8,0:0:0:0:
184,144,235493,1,0,0:0:0:0:
184,144,235579,1,0,0:0:0:0:
184,148,235665,1,8,0:0:0:0:
184,144,235751,1,0,0:0:0:0:
188,148,235836,1,8,0:0:0:0:
188,152,235922,1,8,0:0:0:0:
188,152,236008,1,0,0:0:0:0:
168,64,236093,1,8,0:0:0:0:
236,88,236179,1,0,0:0:0:0:
120,144,236265,1,0,0:0:0:0:
140,136,236351,1,8,0:0:0:0:
184,144,236436,1,0,0:0:0:0:
184,144,236522,1,8,0:0:0:0:
140,136,236608,1,8,0:0:0:0:
184,144,236693,1,0,0:0:0:0:
184,144,236779,1,0,0:0:0:0:
184,144,236865,1,8,0:0:0:0:
184,144,236951,1,8,0:0:0:0:
184,148,237036,1,0,0:0:0:0:
184,144,237122,1,0,0:0:0:0:
188,148,237208,1,8,0:0:0:0:
188,152,237293,1,0,0:0:0:0:
188,152,237379,1,8,0:0:0:0:
216,64,237465,1,0,0:0:0:0:
140,136,237551,1,8,0:0:0:0:
120,144,237636,1,8,0:0:0:0:
236,88,237722,1,0,0:0:0:0:
140,136,237808,1,8,0:0:0:0:
184,144,237893,1,0,0:0:0:0:
184,144,237979,1,0,0:0:0:0:
184,144,238065,1,8,0:0:0:0:
184,144,238151,1,8,0:0:0:0:
184,144,238236,1,0,0:0:0:0:
184,144,238322,1,0,0:0:0:0:
184,148,238408,1,8,0:0:0:0:
184,144,238493,1,0,0:0:0:0:
188,148,238579,1,8,0:0:0:0:
188,152,238665,1,8,0:0:0:0:
188,152,238751,1,0,0:0:0:0:
168,64,238836,1,0,0:0:0:0:
288,68,238922,1,8,0:0:0:0:
288,68,238979,1,0,0:0:0:0:
288,68,239036,1,0,0:0:0:0:
288,68,239093,1,8,0:0:0:0:
168,108,239179,1,0,0:0:0:0:
288,68,239265,1,8,0:0:0:0:
288,68,239351,1,8,0:0:0:0:
288,68,239436,1,0,0:0:0:0:
168,108,239522,1,0,0:0:0:0:
288,68,239608,1,8,0:0:0:0:
288,68,239693,1,0,0:0:0:0:
288,68,239779,1,8,0:0:0:0:
168,108,239865,1,0,0:0:0:0:
288,68,239951,1,8,0:0:0:0:
288,68,240036,1,8,0:0:0:0:
288,68,240122,1,0,0:0:0:0:
168,108,240208,1,0,0:0:0:0:
288,68,240293,1,8,0:0:0:0:
288,68,240351,1,0,0:0:0:0:
288,68,240408,1,0,0:0:0:0:
288,68,240465,1,8,0:0:0:0:
168,108,240551,1,0,0:0:0:0:
288,68,240636,1,8,0:0:0:0:
288,68,240722,1,8,0:0:0:0:
288,68,240808,1,0,0:0:0:0:
168,108,240893,1,0,0:0:0:0:
288,68,240979,1,8,0:0:0:0:
288,68,241036,1,8,0:0:0:0:
288,68,241094,1,8,0:0:0:0:
288,68,241151,1,0,0:0:0:0:
168,108,241236,1,0,0:0:0:0:
288,68,241322,1,8,0:0:0:0:
288,68,241408,1,8,0:0:0:0:
288,68,241493,1,0,0:0:0:0:
168,152,241665,1,4,0:0:0:0:
192,132,241836,1,8,0:0:0:0:
200,128,241922,1,8,0:0:0:0:
196,132,242008,1,0,0:0:0:0:
196,132,242179,1,8,0:0:0:0:
200,216,242351,1,0,0:0:0:0:
200,208,242436,1,8,0:0:0:0:
184,216,242522,1,8,0:0:0:0:
200,212,242608,1,8,0:0:0:0:
192,120,242693,1,0,0:0:0:0:
196,216,242779,1,0,0:0:0:0:
196,216,242865,1,8,0:0:0:0:
188,80,243036,1,4,0:0:0:0:
188,80,243208,1,8,0:0:0:0:
188,80,243293,1,0,0:0:0:0:
188,80,243379,1,8,0:0:0:0:
192,80,243551,1,8,0:0:0:0:
200,72,243722,1,0,0:0:0:0:
196,80,243808,1,8,0:0:0:0:
196,80,243893,1,0,0:0:0:0:
196,80,243979,1,8,0:0:0:0:
196,72,244151,1,0,0:0:0:0:
196,76,244236,1,8,0:0:0:0:
168,152,244408,5,4,0:0:0:0:
152,92,244579,1,0,0:0:0:0:
196,224,244665,1,8,0:0:0:0:
188,216,244751,1,0,0:0:0:0:
188,216,244922,1,8,0:0:0:0:
200,216,245094,1,8,0:0:0:0:
184,216,245179,1,8,0:0:0:0:
200,212,245351,1,8,0:0:0:0:
200,212,245436,1,0,0:0:0:0:
196,216,245608,1,8,0:0:0:0:
200,208,245693,1,0,0:0:0:0:
164,116,245779,1,8,0:0:0:0:
168,152,245951,1,0,0:0:0:0:
196,224,246036,1,8,0:0:0:0:
188,216,246122,1,0,0:0:0:0:
272,88,246208,1,0,0:0:0:0:
188,216,246293,1,8,0:0:0:0:
200,212,246465,1,8,0:0:0:0:
200,216,246551,1,8,0:0:0:0:
196,216,246722,1,8,0:0:0:0:
196,216,246808,1,0,0:0:0:0:
200,212,246893,1,0,0:0:0:0:
184,216,246979,1,8,0:0:0:0:
164,88,247065,1,8,0:0:0:0:
168,152,247151,1,8,0:0:0:0:
188,216,247322,1,0,0:0:0:0:
196,224,247408,1,8,0:0:0:0:
180,48,247493,1,0,0:0:0:0:
188,216,247665,1,8,0:0:0:0:
184,216,247836,1,8,0:0:0:0:
200,208,247922,1,8,0:0:0:0:
200,72,248008,1,0,0:0:0:0:
200,212,248093,1,8,0:0:0:0:
200,212,248179,1,0,0:0:0:0:
196,216,248351,1,8,0:0:0:0:
196,216,248436,1,0,0:0:0:0:
164,116,248522,1,8,0:0:0:0:
168,152,248693,1,0,0:0:0:0:
196,224,248779,1,8,0:0:0:0:
188,216,248865,1,8,0:0:0:0:
88,88,248951,1,0,0:0:0:0:
188,216,249036,1,8,0:0:0:0:
200,216,249208,1,8,0:0:0:0:
200,208,249293,1,8,0:0:0:0:
196,216,249379,1,8,0:0:0:0:
200,212,249465,1,8,0:0:0:0:
200,212,249551,1,0,0:0:0:0:
240,76,249636,1,0,0:0:0:0:
196,216,249722,1,8,0:0:0:0:
168,152,249893,5,8,0:0:0:0:
152,92,250065,1,0,0:0:0:0:
196,224,250151,1,8,0:0:0:0:
188,216,250236,1,0,0:0:0:0:
188,216,250408,1,0,0:0:0:0:
200,212,250493,1,0,0:0:0:0:
200,208,250579,1,8,0:0:0:0:
184,216,250665,1,8,0:0:0:0:
200,216,250836,1,0,0:0:0:0:
200,212,250922,1,0,0:0:0:0:
196,216,251093,1,8,0:0:0:0:
164,116,251265,1,8,0:0:0:0:
168,152,251436,1,0,0:0:0:0:
196,224,251522,1,8,0:0:0:0:
188,216,251608,1,0,0:0:0:0:
188,216,251779,1,8,0:0:0:0:
272,88,251865,1,0,0:0:0:0:
200,216,251951,1,8,0:0:0:0:
200,212,252036,1,8,0:0:0:0:
196,216,252208,1,8,0:0:0:0:
196,216,252293,1,0,0:0:0:0:
184,216,252465,1,8,0:0:0:0:
164,88,252551,1,8,0:0:0:0:
168,152,252636,1,8,0:0:0:0:
188,216,252808,1,0,0:0:0:0:
196,224,252893,1,8,0:0:0:0:
180,48,252979,1,0,0:0:0:0:
188,216,253151,1,8,0:0:0:0:
200,212,253236,1,8,0:0:0:0:
184,216,253322,1,0,0:0:0:0:
200,208,253408,1,8,0:0:0:0:
200,212,253579,1,8,0:0:0:0:
200,212,253665,1,0,0:0:0:0:
196,216,253751,1,0,0:0:0:0:
196,216,253836,1,8,0:0:0:0:
164,116,254008,1,4,0:0:0:0:
168,152,254179,1,0,0:0:0:0:
196,224,254236,1,8,0:0:0:0:
64,148,254294,1,8,0:0:0:0:
188,216,254351,1,0,0:0:0:0:
88,88,254436,1,0,0:0:0:0:
188,216,254522,1,8,0:0:0:0:
180,32,254579,1,8,0:0:0:0:
208,92,254636,1,8,0:0:0:0:
200,216,254693,1,0,0:0:0:0:
200,208,254779,1,0,0:0:0:0:
200,212,254865,1,8,0:0:0:0:
208,92,254922,1,0,0:0:0:0:
92,132,254979,1,0,0:0:0:0:
200,212,255036,1,8,0:0:0:0:
196,216,255122,1,0,0:0:0:0:
196,216,255208,1,8,0:0:0:0:
84,112,255265,1,8,0:0:0:0:
208,92,255322,1,0,0:0:0:0:
208,92,255379,1,8,0:0:0:0:
204,148,255551,1,0,0:0:0:0:
204,148,255636,1,0,0:0:0:0:
204,148,255722,1,8,0:0:0:0:
204,148,255808,1,8,0:0:0:0:
204,148,255893,1,0,0:0:0:0:
204,148,255979,1,8,0:0:0:0:
204,148,256065,1,0,0:0:0:0:
196,160,256236,1,8,0:0:0:0:
196,160,256322,1,0,0:0:0:0:
196,164,256408,1,8,0:0:0:0:
192,164,256493,1,8,0:0:0:0:
192,164,256579,1,0,0:0:0:0:
192,164,256665,1,0,0:0:0:0:
192,168,256751,1,8,0:0:0:0:
204,148,256922,1,0,0:0:0:0:
204,148,257008,1,0,0:0:0:0:
204,148,257093,1,8,0:0:0:0:
204,148,257179,1,0,0:0:0:0:
204,148,257265,1,8,0:0:0:0:
204,148,257351,1,8,0:0:0:0:
204,148,257436,1,0,0:0:0:0:
196,160,257608,1,8,0:0:0:0:
196,164,257693,1,8,0:0:0:0:
196,160,257779,1,0,0:0:0:0:
192,164,257865,1,8,0:0:0:0:
192,164,257951,1,0,0:0:0:0:
160,84,258036,1,0,0:0:0:0:
192,168,258122,1,8,0:0:0:0:
204,148,258293,1,0,0:0:0:0:
204,148,258379,1,0,0:0:0:0:
204,148,258465,1,8,0:0:0:0:
204,148,258551,1,8,0:0:0:0:
204,148,258636,1,8,0:0:0:0:
204,148,258722,1,0,0:0:0:0:
204,148,258808,1,8,0:0:0:0:
196,160,258979,1,8,0:0:0:0:
196,160,259065,1,0,0:0:0:0:
196,164,259151,1,8,0:0:0:0:
192,164,259236,1,8,0:0:0:0:
192,164,259322,1,0,0:0:0:0:
192,168,259408,1,8,0:0:0:0:
192,164,259493,1,0,0:0:0:0:
204,148,259665,1,8,0:0:0:0:
204,148,259751,1,8,0:0:0:0:
204,148,259836,1,0,0:0:0:0:
204,148,259922,1,8,0:0:0:0:
204,148,260008,1,0,0:0:0:0:
204,148,260093,1,0,0:0:0:0:
204,148,260179,1,8,0:0:0:0:
196,160,260351,1,0,0:0:0:0:
196,160,260436,1,0,0:0:0:0:
196,164,260522,1,8,0:0:0:0:
192,164,260608,1,8,0:0:0:0:
192,164,260693,1,0,0:0:0:0:
244,92,260779,1,8,0:0:0:0:
192,168,260865,1,4,0:0:0:0:
176,76,261036,1,4,0:0:0:0:
196,76,261379,1,8,0:0:0:0:
196,76,261436,1,8,0:0:0:0:
196,76,261494,1,8,0:0:0:0:
196,80,261551,1,0,0:0:0:0:
208,108,261636,1,8,0:0:0:0:
196,76,261722,1,0,0:0:0:0:
160,112,261808,1,0,0:0:0:0:
196,76,261893,1,8,0:0:0:0:
196,76,261951,1,8,0:0:0:0:
196,76,262008,1,8,0:0:0:0:
196,76,262065,1,0,0:0:0:0:
144,112,262236,1,12,0:0:0:0:
144,116,262494,1,12,0:0:0:0:
136,120,262751,1,12,0:0:0:0:
140,116,262922,1,0,0:0:0:0:
140,116,263008,1,8,0:0:0:0:
152,112,263179,1,8,0:0:0:0:
196,76,263265,1,0,0:0:0:0:
196,76,263322,1,0,0:0:0:0:
196,76,263379,1,0,0:0:0:0:
196,76,263436,1,8,0:0:0:0:
196,76,263494,1,8,0:0:0:0:
196,76,263551,1,8,0:0:0:0:
196,36,263608,1,0,0:0:0:0:
192,40,263694,1,0,0:0:0:0:
192,40,263779,1,8,0:0:0:0:
192,40,263865,1,0,0:0:0:0:
192,44,263951,1,8,0:0:0:0:
192,44,264036,1,8,0:0:0:0:
192,44,264122,1,0,0:0:0:0:
192,48,264208,1,8,0:0:0:0:
196,76,264294,1,0,0:0:0:0:
196,76,264351,1,0,0:0:0:0:
196,76,264408,1,0,0:0:0:0:
192,48,264465,1,8,0:0:0:0:
192,48,264551,1,0,0:0:0:0:
196,76,264636,1,8,0:0:0:0:
196,76,264694,1,8,0:0:0:0:
196,76,264751,1,8,0:0:0:0:
196,76,264808,1,8,0:0:0:0:
196,76,264865,1,8,0:0:0:0:
196,76,264922,1,8,0:0:0:0:
188,128,264979,1,0,0:0:0:0:
188,64,265151,1,0,0:0:0:0:
188,68,265236,1,8,0:0:0:0:
152,56,265408,1,0,0:0:0:0:
152,56,265494,1,8,0:0:0:0:
144,64,265665,1,8,0:0:0:0:
144,64,265751,1,8,0:0:0:0:
144,68,265836,1,0,0:0:0:0:
144,68,265922,1,8,0:0:0:0:
144,68,266094,1,0,0:0:0:0:
144,64,266179,1,8,0:0:0:0:
240,120,266351,1,4,0:0:0:0:
204,120,266522,1,8,0:0:0:0:
200,124,266608,1,8,0:0:0:0:
200,128,266694,1,0,0:0:0:0:
200,124,266865,1,8,0:0:0:0:
176,124,267036,1,0,0:0:0:0:
180,112,267122,1,8,0:0:0:0:
188,116,267294,1,8,0:0:0:0:
180,108,267379,1,0,0:0:0:0:
188,116,267465,1,0,0:0:0:0:
156,32,267551,1,8,0:0:0:0:
240,120,267636,1,0,0:0:0:0:
184,112,267722,1,8,0:0:0:0:
204,120,267894,1,0,0:0:0:0:
200,124,267979,1,8,0:0:0:0:
200,128,268065,1,0,0:0:0:0:
172,80,268151,1,8,0:0:0:0:
200,124,268322,1,8,0:0:0:0:
176,124,268408,1,0,0:0:0:0:
180,112,268579,1,8,0:0:0:0:
180,108,268665,1,0,0:0:0:0:
188,116,268751,1,8,0:0:0:0:
188,116,268836,1,8,0:0:0:0:
188,116,268922,1,0,0:0:0:0:
240,120,269008,1,0,0:0:0:0:
184,112,269094,1,8,0:0:0:0:
204,120,269265,1,0,0:0:0:0:
200,128,269351,1,0,0:0:0:0:
200,124,269436,1,8,0:0:0:0:
180,84,269522,1,8,0:0:0:0:
200,124,269608,1,0,0:0:0:0:
176,124,269779,1,8,0:0:0:0:
180,112,269865,1,0,0:0:0:0:
180,108,270036,1,0,0:0:0:0:
188,116,270122,1,8,0:0:0:0:
156,32,270208,1,8,0:0:0:0:
188,116,270294,1,0,0:0:0:0:
184,112,270465,1,8,0:0:0:0:
240,120,270551,1,0,0:0:0:0:
204,120,270636,1,8,0:0:0:0:
200,124,270722,1,8,0:0:0:0:
200,128,270808,1,0,0:0:0:0:
200,124,270894,1,0,0:0:0:0:
172,80,270979,1,8,0:0:0:0:
176,124,271151,1,0,0:0:0:0:
180,112,271236,1,8,0:0:0:0:
180,108,271408,1,0,0:0:0:0:
188,116,271494,1,8,0:0:0:0:
188,116,271579,1,0,0:0:0:0:
188,116,271665,1,8,0:0:0:0:
184,112,271751,1,8,0:0:0:0:
240,120,271836,1,0,0:0:0:0:
204,120,272008,1,8,0:0:0:0:
200,124,272094,1,8,0:0:0:0:
200,128,272179,1,0,0:0:0:0:
156,172,272265,1,8,0:0:0:0:
200,124,272351,1,0,0:0:0:0:
252,96,272522,1,8,0:0:0:0:
180,112,272608,1,8,0:0:0:0:
176,124,272694,1,0,0:0:0:0:
180,108,272865,1,8,0:0:0:0:
156,32,272951,1,0,0:0:0:0:
184,112,273036,1,8,0:0:0:0:
240,120,273208,1,0,0:0:0:0:
204,120,273379,1,8,0:0:0:0:
200,128,273465,1,0,0:0:0:0:
200,124,273551,1,8,0:0:0:0:
172,80,273636,1,8,0:0:0:0:
200,124,273808,1,8,0:0:0:0:
176,124,273894,1,0,0:0:0:0:
180,112,274065,1,8,0:0:0:0:
188,116,274151,1,8,0:0:0:0:
180,108,274236,1,0,0:0:0:0:
188,116,274322,1,8,0:0:0:0:
188,116,274408,1,0,0:0:0:0:
184,112,274494,1,0,0:0:0:0:
240,120,274579,1,8,0:0:0:0:
200,128,274751,1,0,0:0:0:0:
204,120,274836,1,8,0:0:0:0:
200,124,274922,1,0,0:0:0:0:
180,84,275008,1,0,0:0:0:0:
200,124,275094,1,8,0:0:0:0:
180,112,275265,1,0,0:0:0:0:
176,124,275351,1,8,0:0:0:0:
180,108,275522,1,0,0:0:0:0:
188,116,275608,1,8,0:0:0:0:
208,164,275779,1,8,0:0:0:0:
188,116,275951,1,4,0:0:0:0:
216,112,276122,1,8,0:0:0:0:
212,112,276179,1,8,0:0:0:0:
212,112,276236,1,8,0:0:0:0:
204,120,276294,1,0,0:0:0:0:
84,120,276379,1,0,0:0:0:0:
216,112,276465,1,8,0:0:0:0:
212,112,276522,1,0,0:0:0:0:
232,84,276579,1,0,0:0:0:0:
212,112,276636,1,8,0:0:0:0:
160,56,276722,1,0,0:0:0:0:
216,112,276808,1,8,0:0:0:0:
212,112,276865,1,8,0:0:0:0:
188,116,276922,1,8,0:0:0:0:
212,112,276979,1,0,0:0:0:0:
188,116,277065,1,0,0:0:0:0:
188,116,277151,1,8,0:0:0:0:
240,120,277322,1,4,0:0:0:0:
204,120,277494,1,8,0:0:0:0:
200,124,277579,1,8,0:0:0:0:
200,128,277665,1,0,0:0:0:0:
200,124,277836,1,8,0:0:0:0:
180,112,278008,1,0,0:0:0:0:
176,124,278094,1,8,0:0:0:0:
188,116,278265,1,0,0:0:0:0:
180,108,278351,1,8,0:0:0:0:
184,112,278436,1,8,0:0:0:0:
156,32,278522,1,0,0:0:0:0:
188,116,278608,1,0,0:0:0:0:
240,120,278694,1,8,0:0:0:0:
204,120,278865,1,0,0:0:0:0:
200,128,278951,1,0,0:0:0:0:
200,124,279036,1,8,0:0:0:0:
172,80,279122,1,8,0:0:0:0:
200,124,279294,1,8,0:0:0:0:
176,124,279379,1,0,0:0:0:0:
180,112,279551,1,8,0:0:0:0:
188,116,279636,1,8,0:0:0:0:
180,108,279722,1,0,0:0:0:0:
188,116,279808,1,8,0:0:0:0:
188,116,279894,1,0,0:0:0:0:
240,120,280065,1,4,0:0:0:0:
204,120,280236,1,8,0:0:0:0:
200,124,280322,1,8,0:0:0:0:
200,128,280408,1,0,0:0:0:0:
200,124,280494,1,0,0:0:0:0:
180,84,280579,1,8,0:0:0:0:
180,112,280751,1,0,0:0:0:0:
176,124,280836,1,8,0:0:0:0:
180,108,281008,1,0,0:0:0:0:
188,116,281094,1,8,0:0:0:0:
156,32,281179,1,8,0:0:0:0:
188,116,281265,1,0,0:0:0:0:
184,112,281351,1,0,0:0:0:0:
240,120,281436,1,8,0:0:0:0:
200,128,281608,1,0,0:0:0:0:
204,120,281694,1,8,0:0:0:0:
200,124,281779,1,8,0:0:0:0:
172,80,281865,1,8,0:0:0:0:
200,124,281951,1,0,0:0:0:0:
180,112,282122,1,8,0:0:0:0:
176,124,282208,1,0,0:0:0:0:
192,40,282294,1,0,0:0:0:0:
180,108,282379,1,0,0:0:0:0:
188,116,282465,1,8,0:0:0:0:
188,116,282551,1,8,0:0:0:0:
188,116,282636,1,0,0:0:0:0:
240,120,282808,1,4,0:0:0:0:
204,120,282979,1,8,0:0:0:0:
200,128,283065,1,0,0:0:0:0:
200,124,283151,1,8,0:0:0:0:
292,64,283236,1,8,0:0:0:0:
200,124,283322,1,0,0:0:0:0:
180,112,283408,1,8,0:0:0:0:
176,124,283494,1,0,0:0:0:0:
192,104,283665,1,8,0:0:0:0:
188,116,283751,1,8,0:0:0:0:
180,108,283836,1,0,0:0:0:0:
156,32,283922,1,0,0:0:0:0:
184,112,284008,1,8,0:0:0:0:
240,120,284179,1,4,0:0:0:0:
204,120,284351,1,8,0:0:0:0:
200,124,284436,1,8,0:0:0:0:
200,128,284522,1,0,0:0:0:0:
212,84,284608,1,8,0:0:0:0:
172,80,284694,1,0,0:0:0:0:
176,124,284779,1,0,0:0:0:0:
200,124,284865,1,8,0:0:0:0:
180,108,285036,1,0,0:0:0:0:
188,116,285122,1,0,0:0:0:0:
180,112,285208,1,8,0:0:0:0:
188,116,285294,1,0,0:0:0:0:
188,116,285379,1,8,0:0:0:0:
240,120,285551,1,4,0:0:0:0:
200,128,285722,1,0,0:0:0:0:
204,120,285808,1,8,0:0:0:0:
200,124,285894,1,0,0:0:0:0:
240,92,285979,1,0,0:0:0:0:
200,124,286065,1,8,0:0:0:0:
180,84,286151,1,8,0:0:0:0:
180,112,286236,1,0,0:0:0:0:
176,124,286322,1,8,0:0:0:0:
240,92,286408,1,0,0:0:0:0:
180,108,286494,1,0,0:0:0:0:
188,116,286579,1,8,0:0:0:0:
196,140,286665,1,8,0:0:0:0:
188,116,286751,1,0,0:0:0:0:
188,20,286922,1,4,0:0:0:0:
204,120,287179,1,0,0:0:0:0:
192,16,287265,1,8,0:0:0:0:
176,124,287436,1,0,0:0:0:0:
172,80,287608,1,8,0:0:0:0:
100,100,287694,1,8,0:0:0:0:
232,84,287779,1,0,0:0:0:0:
188,116,287865,1,8,0:0:0:0:
180,108,288036,1,0,0:0:0:0:
188,116,288122,1,8,0:0:0:0:
272,148,288294,1,4,0:0:0:0:
272,148,288465,1,0,0:0:0:0:
272,148,288551,1,0,0:0:0:0:
272,148,288636,1,8,0:0:0:0:
272,148,288808,1,0,0:0:0:0:
272,148,288979,1,0,0:0:0:0:
272,148,289065,1,0,0:0:0:0:
272,148,289151,1,0,0:0:0:0:
272,148,289322,1,8,0:0:0:0:
212,64,289494,1,0,0:0:0:0:
272,148,289665,1,0,0:0:0:0:
272,148,289836,1,0,0:0:0:0:
272,148,289922,1,0,0:0:0:0:
272,148,290008,1,8,0:0:0:0:
272,148,290179,1,0,0:0:0:0:
272,148,290351,1,0,0:0:0:0:
272,148,290436,1,0,0:0:0:0:
272,148,290522,1,0,0:0:0:0:
224,108,290608,1,0,0:0:0:0:
272,148,290694,1,8,0:0:0:0:
172,64,290865,1,0,0:0:0:0:
272,148,291036,1,0,0:0:0:0:
272,148,291208,1,0,0:0:0:0:
272,148,291294,1,0,0:0:0:0:
272,148,291379,1,8,0:0:0:0:
272,148,291551,1,0,0:0:0:0:
272,148,291722,1,0,0:0:0:0:
272,148,291808,1,8,0:0:0:0:
272,148,291894,1,0,0:0:0:0:
272,148,292065,1,8,0:0:0:0:
212,64,292236,1,0,0:0:0:0:
272,148,292408,1,0,0:0:0:0:
272,148,292579,1,0,0:0:0:0:
272,148,292665,1,0,0:0:0:0:
272,148,292751,1,8,0:0:0:0:
272,148,292922,1,0,0:0:0:0:
272,148,293094,1,0,0:0:0:0:
272,148,293179,1,8,0:0:0:0:
272,148,293265,1,0,0:0:0:0:
224,108,293351,1,0,0:0:0:0:
272,148,293436,1,8,0:0:0:0:
172,64,293608,1,0,0:0:0:0:
272,148,293779,1,0,0:0:0:0:
272,148,293951,1,0,0:0:0:0:
272,148,294036,1,0,0:0:0:0:
272,148,294122,1,8,0:0:0:0:
196,48,294208,1,8,0:0:0:0:
272,148,294294,1,0,0:0:0:0:
272,148,294465,1,0,0:0:0:0:
272,148,294551,1,0,0:0:0:0:
272,148,294636,1,0,0:0:0:0:
272,148,294808,1,8,0:0:0:0:
212,64,294979,1,0,0:0:0:0:
272,148,295151,1,0,0:0:0:0:
272,148,295322,1,0,0:0:0:0:
272,148,295408,1,0,0:0:0:0:
272,148,295494,1,8,0:0:0:0:
212,40,295579,1,8,0:0:0:0:
272,148,295665,1,0,0:0:0:0:
272,148,295836,1,0,0:0:0:0:
272,148,295922,1,0,0:0:0:0:
272,148,296008,1,0,0:0:0:0:
224,108,296094,1,0,0:0:0:0:
272,148,296179,1,8,0:0:0:0:
172,64,296351,1,0,0:0:0:0:
272,148,296522,1,0,0:0:0:0:
272,148,296694,1,0,0:0:0:0:
272,148,296779,1,0,0:0:0:0:
216,104,296865,1,8,0:0:0:0:
272,148,296951,1,8,0:0:0:0:
272,148,297036,1,0,0:0:0:0:
272,148,297208,1,0,0:0:0:0:
272,148,297294,1,8,0:0:0:0:
272,148,297379,1,0,0:0:0:0:
272,148,297551,1,8,0:0:0:0:
212,64,297722,1,0,0:0:0:0:
272,148,297894,1,4,0:0:0:0:
216,112,298065,1,8,0:0:0:0:
212,112,298122,1,8,0:0:0:0:
212,112,298179,1,8,0:0:0:0:
204,120,298237,1,0,0:0:0:0:
160,152,298322,1,0,0:0:0:0:
216,112,298408,1,8,0:0:0:0:
212,112,298465,1,0,0:0:0:0:
232,84,298522,1,0,0:0:0:0:
212,112,298579,1,8,0:0:0:0:
160,56,298665,1,0,0:0:0:0:
216,112,298751,1,8,0:0:0:0:
212,112,298808,1,8,0:0:0:0:
188,116,298865,1,8,0:0:0:0:
212,112,298922,1,0,0:0:0:0:
188,116,299008,1,0,0:0:0:0:
188,116,299094,1,8,0:0:0:0:
272,148,299265,1,4,0:0:0:0:
272,148,299436,1,0,0:0:0:0:
272,148,299522,1,0,0:0:0:0:
272,148,299608,1,8,0:0:0:0:
272,148,299779,1,0,0:0:0:0:
232,108,299865,1,8,0:0:0:0:
272,148,299951,1,0,0:0:0:0:
272,148,300036,1,0,0:0:0:0:
272,148,300122,1,0,0:0:0:0:
272,148,300294,1,8,0:0:0:0:
212,64,300465,1,0,0:0:0:0:
272,148,300636,1,0,0:0:0:0:
272,148,300808,1,0,0:0:0:0:
272,148,300894,1,0,0:0:0:0:
272,148,300979,1,8,0:0:0:0:
272,148,301151,1,0,0:0:0:0:
164,116,301236,1,8,0:0:0:0:
272,148,301322,1,0,0:0:0:0:
272,148,301408,1,8,0:0:0:0:
272,148,301494,1,0,0:0:0:0:
272,148,301665,1,8,0:0:0:0:
172,64,301836,1,0,0:0:0:0:
272,148,302008,1,4,0:0:0:0:
272,148,302179,1,0,0:0:0:0:
272,148,302265,1,0,0:0:0:0:
272,148,302351,1,8,0:0:0:0:
272,148,302522,1,0,0:0:0:0:
176,92,302608,1,8,0:0:0:0:
272,148,302694,1,0,0:0:0:0:
272,148,302779,1,0,0:0:0:0:
272,148,302865,1,8,0:0:0:0:
272,148,303036,1,8,0:0:0:0:
212,64,303208,1,0,0:0:0:0:
272,148,303379,1,0,0:0:0:0:
272,148,303551,1,0,0:0:0:0:
272,148,303636,1,0,0:0:0:0:
272,148,303722,1,8,0:0:0:0:
272,148,303894,1,0,0:0:0:0:
168,96,303979,1,0,0:0:0:0:
272,148,304065,1,0,0:0:0:0:
272,148,304151,1,8,0:0:0:0:
272,148,304236,1,0,0:0:0:0:
272,148,304408,1,8,0:0:0:0:
172,64,304579,1,0,0:0:0:0:
272,148,304751,1,4,0:0:0:0:
272,148,304922,1,0,0:0:0:0:
272,148,305008,1,0,0:0:0:0:
272,148,305094,1,8,0:0:0:0:
196,48,305179,1,8,0:0:0:0:
272,148,305265,1,0,0:0:0:0:
208,116,305351,1,8,0:0:0:0:
272,148,305436,1,0,0:0:0:0:
272,148,305608,1,0,0:0:0:0:
272,148,305694,1,0,0:0:0:0:
272,148,305779,1,8,0:0:0:0:
212,64,305951,1,0,0:0:0:0:
272,148,306122,1,4,0:0:0:0:
272,148,306294,1,0,0:0:0:0:
272,148,306379,1,0,0:0:0:0:
272,148,306465,1,8,0:0:0:0:
212,40,306551,1,8,0:0:0:0:
272,148,306636,1,0,0:0:0:0:
196,132,306722,1,0,0:0:0:0:
272,148,306808,1,0,0:0:0:0:
272,148,306979,1,0,0:0:0:0:
224,108,307065,1,0,0:0:0:0:
272,148,307151,1,8,0:0:0:0:
272,148,307236,1,8,0:0:0:0:
172,64,307322,1,8,0:0:0:0:
272,148,307494,1,4,0:0:0:0:
272,148,307665,1,0,0:0:0:0:
272,148,307751,1,0,0:0:0:0:
216,104,307836,1,8,0:0:0:0:
272,148,307922,1,8,0:0:0:0:
272,148,308008,1,8,0:0:0:0:
176,88,308094,1,0,0:0:0:0:
272,148,308179,1,8,0:0:0:0:
272,148,308265,1,8,0:0:0:0:
272,148,308351,1,0,0:0:0:0:
232,80,308436,1,0,0:0:0:0:
272,148,308522,1,8,0:0:0:0:
228,88,308608,1,8,0:0:0:0:
212,64,308694,1,8,0:0:0:0:
272,148,308865,1,4,0:0:0:0:
272,148,309036,1,0,0:0:0:0:
272,148,309122,1,0,0:0:0:0:
272,148,309208,1,8,0:0:0:0:
272,148,309379,1,0,0:0:0:0:
272,148,309551,1,0,0:0:0:0:
224,108,309722,1,8,0:0:0:0:
308,64,309894,1,0,0:0:0:0:
272,148,309979,1,8,0:0:0:0:
172,64,310065,1,0,0:0:0:0:
248,120,310236,1,12,0:0:0:0:
