osu file format v14

[General]
AudioFilename: audio.mp3
AudioLeadIn: 0
PreviewTime: 58163
Countdown: 0
SampleSet: Normal
StackLeniency: 0.7
Mode: 1
LetterboxInBreaks: 0
WidescreenStoryboard: 1

[Editor]
DistanceSpacing: 1.2
BeatDivisor: 4
GridSize: 4
TimelineZoom: 1.3

[Metadata]
Title:Prism Sympathy
TitleUnicode:Prism Sympathy
Artist:StylipS
ArtistUnicode:スタイリップス
Creator:Akemi_Homura
Version:Oni
Source:Fate/kaleid liner プリズマ☆イリヤ
Tags:Fate/kaleid liner Prisma☆Illya
BeatmapID:1240429
BeatmapSetID:585597

[Difficulty]
HPDrainRate:5
CircleSize:4
OverallDifficulty:6
ApproachRate:5
SliderMultiplier:1.4
SliderTickRate:1

[Events]
//Background and Video events
0,0,"bg.jpg",0,150
//Break Periods
//Storyboard Layer 0 (Background)
//Storyboard Layer 1 (Fail)
//Storyboard Layer 2 (Pass)
//Storyboard Layer 3 (Foreground)
//Storyboard Sound Samples

[TimingPoints]
369,352.941176470588,4,1,0,70,1,0
58251,-100,4,1,0,80,0,1
69457,-100,4,1,0,80,0,0
69545,-100,4,1,0,80,0,1
78016,-100,4,1,0,70,0,0

[HitObjects]
264,192,1780,5,4,0:0:0:0:
264,192,2133,1,0,0:0:0:0:
264,192,2310,1,8,0:0:0:0:
264,192,2663,1,0,0:0:0:0:
264,192,2839,1,8,0:0:0:0:
264,192,3016,1,8,0:0:0:0:
264,192,3368,1,8,0:0:0:0:
264,192,3545,1,8,0:0:0:0:
264,192,3721,1,0,0:0:0:0:
264,192,4074,1,0,0:0:0:0:
264,192,4251,1,8,0:0:0:0:
264,192,4427,1,8,0:0:0:0:
264,192,4516,1,0,0:0:0:0:
264,192,4604,1,8,0:0:0:0:
264,192,4780,1,0,0:0:0:0:
264,192,4957,1,0,0:0:0:0:
264,192,5045,1,0,0:0:0:0:
264,192,5133,1,8,0:0:0:0:
264,192,5310,1,8,0:0:0:0:
264,192,5486,1,0,0:0:0:0:
264,192,5839,1,12,0:0:0:0:
264,192,6192,1,12,0:0:0:0:
264,192,6545,1,4,0:0:0:0:
264,192,6898,1,4,0:0:0:0:
264,192,7074,1,12,0:0:0:0:
264,192,7427,1,4,0:0:0:0:
264,192,7780,1,0,0:0:0:0:
264,192,7957,1,8,0:0:0:0:
264,192,8133,1,8,0:0:0:0:
264,192,8221,1,8,0:0:0:0:
264,192,8310,1,0,0:0:0:0:
264,192,8486,1,8,0:0:0:0:
264,192,8663,1,8,0:0:0:0:
264,192,9016,1,8,0:0:0:0:
264,192,9193,1,0,0:0:0:0:
264,192,9369,1,8,0:0:0:0:
264,192,9722,1,0,0:0:0:0:
264,192,9899,1,8,0:0:0:0:
264,192,9986,1,8,0:0:0:0:
264,192,10074,1,0,0:0:0:0:
264,192,10251,1,8,0:0:0:0:
264,192,10427,1,0,0:0:0:0:
264,192,10604,1,8,0:0:0:0:
264,192,10957,1,0,0:0:0:0:
264,192,11133,1,8,0:0:0:0:
264,192,11486,1,12,0:0:0:0:
264,192,11839,1,0,0:0:0:0:
264,192,11927,1,0,0:0:0:0:
264,192,12016,1,0,0:0:0:0:
264,192,12192,1,12,0:0:0:0:
264,192,13074,1,0,0:0:0:0:
264,192,13427,1,8,0:0:0:0:
264,192,13780,1,0,0:0:0:0:
264,192,13957,1,0,0:0:0:0:
264,192,14045,1,0,0:0:0:0:
264,192,14133,1,8,0:0:0:0:
264,192,14310,1,0,0:0:0:0:
264,192,14486,1,8,0:0:0:0:
264,192,14839,1,8,0:0:0:0:
264,192,15016,1,0,0:0:0:0:
264,192,15192,1,0,0:0:0:0:
264,192,15280,1,0,0:0:0:0:
264,192,15368,1,8,0:0:0:0:
264,192,15545,1,0,0:0:0:0:
264,192,15721,1,8,0:0:0:0:
264,192,15898,1,0,0:0:0:0:
264,192,16251,1,8,0:0:0:0:
264,192,16427,1,0,0:0:0:0:
264,192,16516,1,0,0:0:0:0:
264,192,16604,1,8,0:0:0:0:
264,192,16692,1,8,0:0:0:0:
264,192,16780,1,0,0:0:0:0:
264,192,16957,1,8,0:0:0:0:
264,192,17310,1,8,0:0:0:0:
264,192,17486,1,0,0:0:0:0:
264,192,17663,1,8,0:0:0:0:
264,192,17839,1,8,0:0:0:0:
264,192,17927,1,8,0:0:0:0:
264,192,18016,1,0,0:0:0:0:
264,192,18192,1,0,0:0:0:0:
264,192,18368,1,8,0:0:0:0:
264,192,18545,1,8,0:0:0:0:
264,192,18898,1,0,0:0:0:0:
264,192,19074,1,8,0:0:0:0:
264,192,19251,1,8,0:0:0:0:
264,192,19339,1,8,0:0:0:0:
264,192,19427,1,0,0:0:0:0:
264,192,19604,1,8,0:0:0:0:
264,192,19780,1,8,0:0:0:0:
264,192,19957,1,0,0:0:0:0:
264,192,20310,1,0,0:0:0:0:
264,192,20486,1,8,0:0:0:0:
264,192,20663,1,0,0:0:0:0:
264,192,20751,1,0,0:0:0:0:
264,192,20839,1,0,0:0:0:0:
264,192,21016,1,8,0:0:0:0:
264,192,21192,1,8,0:0:0:0:
264,192,21545,1,8,0:0:0:0:
264,192,21898,1,0,0:0:0:0:
264,192,22074,1,8,0:0:0:0:
264,192,22427,1,0,0:0:0:0:
264,192,22604,1,0,0:0:0:0:
264,192,22780,1,12,0:0:0:0:
264,192,23133,1,12,0:0:0:0:
264,192,23486,1,12,0:0:0:0:
264,192,23839,1,0,0:0:0:0:
264,192,24016,1,8,0:0:0:0:
264,192,24368,1,4,0:0:0:0:
264,192,24721,1,8,0:0:0:0:
264,192,24898,1,0,0:0:0:0:
264,192,24986,1,0,0:0:0:0:
264,192,25074,1,8,0:0:0:0:
264,192,25251,1,8,0:0:0:0:
264,192,25427,1,8,0:0:0:0:
264,192,25604,1,0,0:0:0:0:
264,192,25780,1,8,0:0:0:0:
264,192,26133,1,0,0:0:0:0:
264,192,26310,1,8,0:0:0:0:
264,192,26398,1,0,0:0:0:0:
264,192,26486,1,8,0:0:0:0:
264,192,26574,1,8,0:0:0:0:
264,192,26663,1,0,0:0:0:0:
264,192,26839,1,8,0:0:0:0:
264,192,27016,1,0,0:0:0:0:
264,192,27192,1,8,0:0:0:0:
264,192,27545,1,8,0:0:0:0:
264,192,27898,1,8,0:0:0:0:
264,192,28074,1,0,0:0:0:0:
264,192,28251,1,8,0:0:0:0:
264,192,28339,1,8,0:0:0:0:
264,192,28427,1,0,0:0:0:0:
264,192,28604,1,8,0:0:0:0:
264,192,28957,1,8,0:0:0:0:
264,192,29133,1,8,0:0:0:0:
264,192,29486,1,8,0:0:0:0:
264,192,29663,1,0,0:0:0:0:
264,192,29839,1,8,0:0:0:0:
264,192,29927,1,8,0:0:0:0:
264,192,30016,1,0,0:0:0:0:
264,192,30192,1,0,0:0:0:0:
264,192,30368,1,8,0:0:0:0:
264,192,30721,1,0,0:0:0:0:
264,192,31074,1,8,0:0:0:0:
264,192,31251,1,0,0:0:0:0:
264,192,31604,1,8,0:0:0:0:
264,192,31780,1,0,0:0:0:0:
264,192,31957,1,8,0:0:0:0:
264,192,32310,1,0,0:0:0:0:
264,192,32486,1,8,0:0:0:0:
264,192,32663,1,0,0:0:0:0:
264,192,32839,1,8,0:0:0:0:
264,192,32927,1,8,0:0:0:0:
264,192,33016,1,0,0:0:0:0:
264,192,33192,1,8,0:0:0:0:
264,192,33280,1,8,0:0:0:0:
264,192,33368,1,0,0:0:0:0:
264,192,33545,1,8,0:0:0:0:
264,192,33633,1,0,0:0:0:0:
264,192,33721,1,8,0:0:0:0:
264,192,33810,1,0,0:0:0:0:
264,192,33898,1,8,0:0:0:0:
264,192,34074,1,12,0:0:0:0:
264,192,34427,1,12,0:0:0:0:
264,192,34780,1,12,0:0:0:0:
264,192,34957,1,8,0:0:0:0:
264,192,35133,1,0,0:0:0:0:
264,192,35310,1,0,0:0:0:0:
264,192,35486,1,8,0:0:0:0:
264,192,35663,1,12,0:0:0:0:
264,192,36192,1,0,0:0:0:0:
264,192,36368,1,8,0:0:0:0:
264,192,36721,1,0,0:0:0:0:
264,192,36898,1,8,0:0:0:0:
264,192,36986,1,8,0:0:0:0:
264,192,37074,1,0,0:0:0:0:
264,192,37251,1,0,0:0:0:0:
264,192,37427,1,8,0:0:0:0:
264,192,37604,1,0,0:0:0:0:
264,192,37780,1,8,0:0:0:0:
264,192,38133,1,8,0:0:0:0:
264,192,38486,1,8,0:0:0:0:
264,192,38839,1,0,0:0:0:0:
264,192,39016,1,8,0:0:0:0:
264,192,39104,1,8,0:0:0:0:
264,192,39192,1,0,0:0:0:0:
264,192,39368,1,8,0:0:0:0:
264,192,39545,1,0,0:0:0:0:
264,192,39721,1,8,0:0:0:0:
264,192,40074,1,8,0:0:0:0:
264,192,40427,1,0,0:0:0:0:
264,192,40604,1,8,0:0:0:0:
264,192,40780,1,8,0:0:0:0:
264,192,40868,1,8,0:0:0:0:
264,192,40957,1,0,0:0:0:0:
264,192,41133,1,0,0:0:0:0:
264,192,41310,1,8,0:0:0:0:
264,192,41663,1,8,0:0:0:0:
264,192,41839,1,0,0:0:0:0:
264,192,41927,1,0,0:0:0:0:
264,192,42016,1,8,0:0:0:0:
264,192,42368,1,8,0:0:0:0:
264,192,42545,1,0,0:0:0:0:
264,192,42898,1,0,0:0:0:0:
264,192,43074,1,8,0:0:0:0:
264,192,43163,1,0,0:0:0:0:
264,192,43251,1,8,0:0:0:0:
264,192,43427,1,8,0:0:0:0:
264,192,43604,1,0,0:0:0:0:
264,192,43780,1,8,0:0:0:0:
264,192,44133,1,8,0:0:0:0:
264,192,44486,1,8,0:0:0:0:
264,192,44663,1,0,0:0:0:0:
264,192,44839,1,8,0:0:0:0:
264,192,45016,1,0,0:0:0:0:
264,192,45192,1,8,0:0:0:0:
264,192,45368,1,8,0:0:0:0:
264,192,45721,1,0,0:0:0:0:
264,192,45898,1,8,0:0:0:0:
264,192,46074,1,0,0:0:0:0:
264,192,46251,1,8,0:0:0:0:
264,192,46339,1,8,0:0:0:0:
264,192,46427,1,0,0:0:0:0:
264,192,46516,1,0,0:0:0:0:
264,192,46604,1,8,0:0:0:0:
264,192,46692,1,8,0:0:0:0:
264,192,46780,1,8,0:0:0:0:
264,192,46957,1,12,0:0:0:0:
264,192,47310,1,8,0:0:0:0:
264,192,47663,1,0,0:0:0:0:
264,192,47839,1,8,0:0:0:0:
264,192,48016,1,0,0:0:0:0:
264,192,48104,1,0,0:0:0:0:
264,192,48192,1,8,0:0:0:0:
264,192,48368,1,8,0:0:0:0:
264,192,48545,1,0,0:0:0:0:
264,192,48721,1,8,0:0:0:0:
264,192,49074,1,8,0:0:0:0:
264,192,49251,1,0,0:0:0:0:
264,192,49339,1,0,0:0:0:0:
264,192,49427,1,8,0:0:0:0:
264,192,49604,1,0,0:0:0:0:
264,192,49780,1,8,0:0:0:0:
264,192,50133,1,8,0:0:0:0:
264,192,50310,1,8,0:0:0:0:
264,192,50398,1,8,0:0:0:0:
264,192,50486,1,0,0:0:0:0:
264,192,50663,1,0,0:0:0:0:
264,192,50839,1,8,0:0:0:0:
264,192,51016,1,12,0:0:0:0:
264,192,51368,1,0,0:0:0:0:
264,192,51545,1,8,0:0:0:0:
264,192,51721,1,8,0:0:0:0:
264,192,51898,1,8,0:0:0:0:
264,192,51986,1,8,0:0:0:0:
264,192,52074,1,0,0:0:0:0:
264,192,52251,1,8,0:0:0:0:
264,192,52427,1,0,0:0:0:0:
264,192,52604,1,12,0:0:0:0:
264,192,52957,1,0,0:0:0:0:
264,192,53133,1,12,0:0:0:0:
264,192,53486,1,8,0:0:0:0:
264,192,53663,1,8,0:0:0:0:
264,192,53839,1,0,0:0:0:0:
264,192,54016,1,12,0:0:0:0:
264,192,54192,1,8,0:0:0:0:
264,192,54280,1,8,0:0:0:0:
264,192,54368,1,0,0:0:0:0:
264,192,54545,1,12,0:0:0:0:
264,192,54898,1,0,0:0:0:0:
264,192,55074,1,0,0:0:0:0:
264,192,55251,1,12,0:0:0:0:
264,192,55604,1,12,0:0:0:0:
264,192,55780,1,4,0:0:0:0:
264,192,55957,1,12,0:0:0:0:
264,192,56310,1,12,0:0:0:0:
264,192,56486,1,4,0:0:0:0:
264,192,56663,1,12,0:0:0:0:
264,192,57016,1,12,0:0:0:0:
264,192,57368,1,12,0:0:0:0:
264,192,57545,1,12,0:0:0:0:
264,192,57721,1,0,0:0:0:0:
264,192,57898,1,0,0:0:0:0:
264,192,57986,1,0,0:0:0:0:
264,192,58074,1,0,0:0:0:0:
264,192,58251,1,12,0:0:0:0:
264,192,58604,1,8,0:0:0:0:
264,192,58957,1,0,0:0:0:0:
264,192,59133,1,0,0:0:0:0:
264,192,59221,1,0,0:0:0:0:
264,192,59310,1,8,0:0:0:0:
264,192,59486,1,0,0:0:0:0:
264,192,59663,1,8,0:0:0:0:
264,192,60016,1,8,0:0:0:0:
264,192,60192,1,0,0:0:0:0:
264,192,60280,1,0,0:0:0:0:
264,192,60368,1,8,0:0:0:0:
264,192,60457,1,0,0:0:0:0:
264,192,60545,1,8,0:0:0:0:
264,192,60721,1,8,0:0:0:0:
264,192,61074,1,8,0:0:0:0:
264,192,61251,1,0,0:0:0:0:
264,192,61427,1,8,0:0:0:0:
264,192,61604,1,0,0:0:0:0:
264,192,61780,1,8,0:0:0:0:
264,192,61868,1,8,0:0:0:0:
264,192,61957,1,0,0:0:0:0:
264,192,62133,1,8,0:0:0:0:
264,192,62310,1,0,0:0:0:0:
264,192,62398,1,0,0:0:0:0:
264,192,62486,1,8,0:0:0:0:
264,192,62663,1,0,0:0:0:0:
264,192,62839,1,8,0:0:0:0:
264,192,63016,1,0,0:0:0:0:
264,192,63192,1,8,0:0:0:0:
264,192,63280,1,8,0:0:0:0:
264,192,63368,1,0,0:0:0:0:
264,192,63457,1,0,0:0:0:0:
264,192,63545,1,8,0:0:0:0:
264,192,63721,1,0,0:0:0:0:
264,192,63898,1,12,0:0:0:0:
264,192,64251,1,8,0:0:0:0:
264,192,64604,1,8,0:0:0:0:
264,192,64780,1,0,0:0:0:0:
264,192,64868,1,0,0:0:0:0:
264,192,64957,1,8,0:0:0:0:
264,192,65133,1,0,0:0:0:0:
264,192,65310,1,8,0:0:0:0:
264,192,65663,1,8,0:0:0:0:
264,192,65839,1,0,0:0:0:0:
264,192,65927,1,0,0:0:0:0:
264,192,66016,1,8,0:0:0:0:
264,192,66192,1,0,0:0:0:0:
264,192,66368,1,8,0:0:0:0:
264,192,66457,1,8,0:0:0:0:
264,192,66545,1,0,0:0:0:0:
264,192,66721,1,8,0:0:0:0:
264,192,66810,1,0,0:0:0:0:
264,192,66898,1,8,0:0:0:0:
264,192,67074,1,8,0:0:0:0:
264,192,67163,1,8,0:0:0:0:
264,192,67251,1,0,0:0:0:0:
264,192,67339,1,0,0:0:0:0:
264,192,67427,1,8,0:0:0:0:
264,192,67604,1,0,0:0:0:0:
264,192,67780,1,8,0:0:0:0:
264,192,67957,1,4,0:0:0:0:
264,192,68310,1,4,0:0:0:0:
264,192,68663,1,12,0:0:0:0:
264,192,68839,1,12,0:0:0:0:
264,192,69016,1,0,0:0:0:0:
264,192,69104,1,0,0:0:0:0:
264,192,69192,1,0,0:0:0:0:
264,192,69280,1,0,0:0:0:0:
264,192,69368,1,0,0:0:0:0:
264,192,69545,1,12,0:0:0:0:
264,192,69898,1,8,0:0:0:0:
264,192,70251,1,8,0:0:0:0:
264,192,70427,1,0,0:0:0:0:
264,192,70516,1,0,0:0:0:0:
264,192,70604,1,8,0:0:0:0:
264,192,70780,1,0,0:0:0:0:
264,192,70957,1,8,0:0:0:0:
264,192,71310,1,8,0:0:0:0:
264,192,71486,1,0,0:0:0:0:
264,192,71663,1,8,0:0:0:0:
264,192,71751,1,8,0:0:0:0:
264,192,71839,1,0,0:0:0:0:
264,192,72016,1,8,0:0:0:0:
264,192,72192,1,0,0:0:0:0:
264,192,72368,1,8,0:0:0:0:
264,192,72457,1,0,0:0:0:0:
264,192,72545,1,8,0:0:0:0:
264,192,72721,1,8,0:0:0:0:
264,192,72898,1,0,0:0:0:0:
264,192,73251,1,0,0:0:0:0:
264,192,73427,1,8,0:0:0:0:
264,192,73604,1,8,0:0:0:0:
264,192,73780,1,0,0:0:0:0:
264,192,73868,1,0,0:0:0:0:
264,192,73957,1,8,0:0:0:0:
264,192,74133,1,8,0:0:0:0:
264,192,74221,1,0,0:0:0:0:
264,192,74310,1,0,0:0:0:0:
264,192,74486,1,8,0:0:0:0:
264,192,74663,1,0,0:0:0:0:
264,192,74839,1,8,0:0:0:0:
264,192,75192,1,8,0:0:0:0:
264,192,75280,1,8,0:0:0:0:
264,192,75368,1,0,0:0:0:0:
264,192,75545,1,8,0:0:0:0:
264,192,75633,1,8,0:0:0:0:
264,192,75721,1,0,0:0:0:0:
264,192,75898,1,8,0:0:0:0:
264,192,75986,1,8,0:0:0:0:
264,192,76074,1,0,0:0:0:0:
264,192,76251,1,8,0:0:0:0:
264,192,76339,1,8,0:0:0:0:
264,192,76427,1,0,0:0:0:0:
264,192,76604,1,8,0:0:0:0:
264,192,76692,1,8,0:0:0:0:
264,192,76780,1,0,0:0:0:0:
264,192,76868,1,0,0:0:0:0:
264,192,76957,1,8,0:0:0:0:
264,192,77045,1,0,0:0:0:0:
264,192,77133,1,8,0:0:0:0:
264,192,77221,1,0,0:0:0:0:
264,192,77310,1,8,0:0:0:0:
264,192,77486,1,0,0:0:0:0:
264,192,77663,1,8,0:0:0:0:
264,192,77839,1,8,0:0:0:0:
264,192,78016,1,4,0:0:0:0:
264,192,78368,1,8,0:0:0:0:
264,192,78721,1,0,0:0:0:0:
264,192,78898,1,0,0:0:0:0:
264,192,79074,1,8,0:0:0:0:
264,192,79427,1,0,0:0:0:0:
264,192,79604,1,0,0:0:0:0:
264,192,79780,1,8,0:0:0:0:
264,192,79957,1,0,0:0:0:0:
264,192,80133,1,8,0:0:0:0:
264,192,80486,1,8,0:0:0:0:
264,192,80663,1,0,0:0:0:0:
264,192,80839,1,8,0:0:0:0:
264,192,80927,1,8,0:0:0:0:
264,192,81016,1,0,0:0:0:0:
264,192,81192,1,8,0:0:0:0:
264,192,81368,1,0,0:0:0:0:
264,192,81545,1,8,0:0:0:0:
264,192,81898,1,8,0:0:0:0:
264,192,82074,1,0,0:0:0:0:
264,192,82251,1,8,0:0:0:0:
264,192,82604,1,8,0:0:0:0:
264,192,82780,1,0,0:0:0:0:
264,192,82868,1,0,0:0:0:0:
264,192,82957,1,8,0:0:0:0:
264,192,83133,1,0,0:0:0:0:
264,192,83310,1,8,0:0:0:0:
264,192,83663,1,8,0:0:0:0:
264,192,83839,1,0,0:0:0:0:
264,192,83927,1,0,0:0:0:0:
264,192,84016,1,8,0:0:0:0:
264,192,84192,1,0,0:0:0:0:
264,192,84368,1,8,0:0:0:0:
264,192,84545,1,0,0:0:0:0:
264,192,84898,1,0,0:0:0:0:
264,192,85074,1,8,0:0:0:0:
264,192,85163,1,8,0:0:0:0:
264,192,85251,1,0,0:0:0:0:
264,192,85427,1,8,0:0:0:0:
264,192,85604,1,0,0:0:0:0:
264,192,85957,1,8,0:0:0:0:
264,192,86133,1,8,0:0:0:0:
256,192,86486,1,12,0:0:0:0:
256,192,87016,1,12,0:0:0:0:
256,192,87545,1,12,0:0:0:0:
256,192,87721,1,4,0:0:0:0:
