osu file format v14

[General]
AudioFilename: audio.mp3
AudioLeadIn: 0
PreviewTime: 58163
Countdown: 0
SampleSet: Normal
StackLeniency: 0.7
Mode: 1
LetterboxInBreaks: 0
WidescreenStoryboard: 1

[Editor]
DistanceSpacing: 1.2
BeatDivisor: 6
GridSize: 4
TimelineZoom: 1.3

[Metadata]
Title:Prism Sympathy
TitleUnicode:Prism Sympathy
Artist:StylipS
ArtistUnicode:スタイリップス
Creator:Akemi_Homura
Version:Kantan
Source:Fate/kaleid liner プリズマ☆イリヤ
Tags:Fate/kaleid liner Prisma☆Illya
BeatmapID:1241733
BeatmapSetID:585597

[Difficulty]
HPDrainRate:7
CircleSize:4
OverallDifficulty:3
ApproachRate:3
SliderMultiplier:1.40000000596046
SliderTickRate:1

[Events]
//Background and Video events
0,0,"bg.jpg",0,150
//Break Periods
//Storyboard Layer 0 (Background)
//Storyboard Layer 1 (Fail)
//Storyboard Layer 2 (Pass)
//Storyboard Layer 3 (Foreground)
//Storyboard Sound Samples

[TimingPoints]
369,352.941176470588,4,1,0,70,1,0
58251,-100,4,1,0,80,0,1
69457,-100,4,1,0,80,0,0
69545,-100,4,1,0,80,0,1
78016,-100,4,1,0,70,0,0

[HitObjects]
264,192,1780,5,4,0:0:0:0:
264,192,3192,1,8,0:0:0:0:
264,192,4604,1,0,0:0:0:0:
264,192,4957,1,0,0:0:0:0:
264,192,5310,1,8,0:0:0:0:
264,192,5839,1,12,0:0:0:0:
264,192,6545,1,12,0:0:0:0:
264,192,7074,1,12,0:0:0:0:
264,192,7427,1,4,0:0:0:0:
264,192,8839,1,8,0:0:0:0:
264,192,10251,1,0,0:0:0:0:
256,192,10957,12,0,12192,0:0:0:0:
264,192,13427,5,8,0:0:0:0:
264,192,14133,1,8,0:0:0:0:
264,192,14839,1,8,0:0:0:0:
264,192,15545,1,8,0:0:0:0:
264,192,15898,1,0,0:0:0:0:
264,192,16251,1,8,0:0:0:0:
264,192,16957,1,8,0:0:0:0:
264,192,17663,1,8,0:0:0:0:
264,192,18368,1,8,0:0:0:0:
264,192,19074,1,8,0:0:0:0:
264,192,19427,1,0,0:0:0:0:
264,192,20486,1,8,0:0:0:0:
264,192,20839,1,0,0:0:0:0:
264,192,21545,1,0,0:0:0:0:
264,192,22251,1,8,0:0:0:0:
264,192,22780,1,12,0:0:0:0:
264,192,23486,1,12,0:0:0:0:
264,192,24016,1,8,0:0:0:0:
264,192,24721,1,8,0:0:0:0:
264,192,25427,1,8,0:0:0:0:
264,192,26133,1,8,0:0:0:0:
264,192,26839,1,8,0:0:0:0:
264,192,27192,1,0,0:0:0:0:
264,192,27545,1,8,0:0:0:0:
264,192,28251,1,8,0:0:0:0:
264,192,28957,1,8,0:0:0:0:
264,192,29663,1,8,0:0:0:0:
264,192,30016,1,0,0:0:0:0:
264,192,30368,1,8,0:0:0:0:
264,192,31074,1,8,0:0:0:0:
264,192,31780,1,8,0:0:0:0:
264,192,32486,1,8,0:0:0:0:
264,192,32839,1,0,0:0:0:0:
264,192,33192,1,8,0:0:0:0:
264,192,34074,1,12,0:0:0:0:
264,192,34427,1,12,0:0:0:0:
264,192,34780,1,12,0:0:0:0:
264,192,35663,1,12,0:0:0:0:
264,192,36721,1,8,0:0:0:0:
264,192,37427,1,8,0:0:0:0:
264,192,37780,1,0,0:0:0:0:
264,192,38133,1,8,0:0:0:0:
264,192,38839,1,8,0:0:0:0:
264,192,39545,1,8,0:0:0:0:
264,192,40251,1,8,0:0:0:0:
264,192,40604,1,0,0:0:0:0:
264,192,41310,1,8,0:0:0:0:
264,192,42368,1,8,0:0:0:0:
264,192,43074,1,8,0:0:0:0:
264,192,43427,1,0,0:0:0:0:
264,192,43780,1,8,0:0:0:0:
264,192,44486,1,8,0:0:0:0:
264,192,45192,1,8,0:0:0:0:
264,192,46251,1,8,0:0:0:0:
264,192,46604,1,8,0:0:0:0:
264,192,46957,1,12,0:0:0:0:
264,192,47663,1,0,0:0:0:0:
264,192,48368,1,8,0:0:0:0:
264,192,49074,1,0,0:0:0:0:
264,192,49780,1,8,0:0:0:0:
264,192,50486,1,8,0:0:0:0:
264,192,51016,1,12,0:0:0:0:
264,192,52604,1,12,0:0:0:0:
264,192,53133,1,0,0:0:0:0:
264,192,54016,1,12,0:0:0:0:
264,192,54545,1,8,0:0:0:0:
256,192,55427,12,0,57545,0:0:0:0:
264,192,58251,5,12,0:0:0:0:
264,192,58957,1,8,0:0:0:0:
264,192,60016,1,0,0:0:0:0:
264,192,60368,1,8,0:0:0:0:
264,192,60721,1,0,0:0:0:0:
264,192,61074,1,8,0:0:0:0:
264,192,61780,1,8,0:0:0:0:
264,192,62486,1,8,0:0:0:0:
264,192,62839,1,0,0:0:0:0:
264,192,63192,1,8,0:0:0:0:
264,192,63898,1,12,0:0:0:0:
264,192,64604,1,8,0:0:0:0:
264,192,65663,1,8,0:0:0:0:
264,192,66016,1,0,0:0:0:0:
264,192,66368,1,8,0:0:0:0:
264,192,66721,1,8,0:0:0:0:
264,192,67427,1,8,0:0:0:0:
264,192,67957,1,12,0:0:0:0:
264,192,68663,1,12,0:0:0:0:
264,192,69545,1,12,0:0:0:0:
264,192,70251,1,8,0:0:0:0:
264,192,71310,1,0,0:0:0:0:
264,192,71663,1,8,0:0:0:0:
264,192,72016,1,0,0:0:0:0:
264,192,72368,1,8,0:0:0:0:
264,192,73074,1,8,0:0:0:0:
264,192,73780,1,8,0:0:0:0:
264,192,74133,1,0,0:0:0:0:
264,192,74486,1,8,0:0:0:0:
264,192,75192,1,0,0:0:0:0:
264,192,75898,1,0,0:0:0:0:
264,192,76604,1,8,0:0:0:0:
264,192,77310,1,8,0:0:0:0:
264,192,78016,1,4,0:0:0:0:
264,192,78721,1,8,0:0:0:0:
264,192,79427,1,8,0:0:0:0:
264,192,80133,1,8,0:0:0:0:
264,192,80839,1,8,0:0:0:0:
264,192,81545,1,8,0:0:0:0:
264,192,81898,1,0,0:0:0:0:
264,192,82251,1,8,0:0:0:0:
264,192,82957,1,8,0:0:0:0:
264,192,83663,1,8,0:0:0:0:
264,192,84016,1,0,0:0:0:0:
264,192,84368,1,8,0:0:0:0:
264,192,85074,1,8,0:0:0:0:
264,192,85427,1,0,0:0:0:0:
264,192,85780,1,8,0:0:0:0:
264,192,86486,1,4,0:0:0:0:
264,192,87016,1,12,0:0:0:0:
264,192,87545,1,4,0:0:0:0:
