osu file format v14

[General]
AudioFilename: audio.mp3
AudioLeadIn: 0
PreviewTime: 64159
Countdown: 0
SampleSet: Soft
StackLeniency: 0.3
Mode: 0
LetterboxInBreaks: 0
WidescreenStoryboard: 0

[Editor]
Bookmarks: 19271
DistanceSpacing: 1.35
BeatDivisor: 8
GridSize: 4
TimelineZoom: 2.4

[Metadata]
Title:MIRACLE RUSH (TV Size)
TitleUnicode:MIRACLE RUSH (TV Size)
Artist:StylipS
ArtistUnicode:StylipS
Creator:Kaguya_Sama
Version:Ron!
Source:咲-Saki-阿知賀編 episode of side-A
Tags:Saki: Achiga-hen op opening theme 小倉唯 ogura yui 石原夏織 ishihara kaori 能登有沙 noto arisa 松永真穂 matsunaga maho 山口朗彦 akihiko yamaguchi こだまさおり kodama saori japanese pop jpop j-pop anime episode of side a affirmation neoskylove
BeatmapID:3787844
BeatmapSetID:1844057

[Difficulty]
HPDrainRate:5
CircleSize:4
OverallDifficulty:9
ApproachRate:9.2
SliderMultiplier:1.9
SliderTickRate:1

[Events]
//Background and Video events
0,0,"bg.jpg",0,0
//Break Periods
//Storyboard Layer 0 (Background)
//Storyboard Layer 1 (Fail)
//Storyboard Layer 2 (Pass)
//Storyboard Layer 3 (Foreground)
//Storyboard Layer 4 (Overlay)
//Storyboard Sound Samples

[TimingPoints]
633,357.142857142858,4,2,2,45,1,0
4561,-166.666666666667,4,2,2,45,0,0
4918,-166.666666666667,4,2,2,45,0,0
9829,-166.666666666667,4,2,2,5,0,0
9918,-166.666666666667,4,2,2,60,0,0
10633,-111.111111111111,4,2,2,78,0,0
13758,-111.111111111111,4,2,2,5,0,0
13847,-111.111111111111,4,2,2,78,0,0
16347,-100,4,2,2,80,0,0
19204,-100,4,2,2,88,0,0
21704,-250,4,2,2,70,0,0
22061,-100,4,2,2,82,0,0
24918,-100,4,2,2,88,0,0
25633,-100,4,2,2,92,0,0
26168,-100,4,2,2,85,0,0
26436,-100,4,2,2,5,0,0
26525,-100,4,2,2,85,0,0
27061,-71.4285714285714,4,2,2,90,0,0
27329,-71.4285714285714,4,2,2,5,0,0
27418,-90.9090909090909,4,2,2,80,0,0
27686,-90.9090909090909,4,2,2,5,0,0
27776,-125,4,2,2,70,0,0
30275,-90.9090909090909,4,2,2,70,0,0
30543,-90.9090909090909,4,2,2,5,0,0
30633,-125,4,2,2,70,0,0
33133,-90.9090909090909,4,2,2,70,0,0
33401,-90.9090909090909,4,2,2,5,0,0
33490,-125,4,2,2,70,0,0
34829,-125,4,2,2,5,0,0
34918,-125,4,2,2,70,0,0
41704,-90.9090909090909,4,2,2,70,0,0
41972,-90.9090909090909,4,2,2,5,0,0
42061,-125,4,2,2,70,0,0
44561,-90.9090909090909,4,2,2,70,0,0
44829,-90.9090909090909,4,2,2,5,0,0
44918,-125,4,2,2,70,0,0
49025,-90.9090909090909,4,2,2,80,0,0
49560,-125,4,2,2,80,0,0
50633,-125,4,2,2,75,0,0
55186,-125,4,2,2,5,0,0
55276,-125,4,2,2,75,0,0
59204,-142.857142857143,4,2,2,69,0,0
62061,-142.857142857143,4,2,2,82,0,0
63490,-142.857142857143,4,2,2,92,0,0
64204,-250.000000000001,4,2,2,85,0,0
64472,-250.000000000001,4,2,2,5,0,0
64561,-66.6666666666667,4,2,2,95,0,0
64829,-66.6666666666667,4,2,2,5,0,0
64918,-83.3333333333333,4,2,2,90,0,0
66615,-83.3333333333333,4,2,2,5,0,0
66704,-83.3333333333333,4,2,2,90,0,0
68043,-83.3333333333333,4,2,2,5,0,0
68133,-83.3333333333333,4,2,2,90,0,0
73758,-83.3333333333333,4,2,2,5,0,0
73848,-83.3333333333333,4,2,2,90,0,0
74740,-66.6666666666667,4,2,2,95,0,0
75008,-66.6666666666667,4,2,2,5,0,0
75098,-66.6666666666667,4,2,2,90,0,0
75186,-66.6666666666667,4,2,2,5,0,0
75276,-66.6666666666667,4,2,2,90,0,0
75633,-83.3333333333333,4,2,2,95,0,0
75990,-66.6666666666667,4,2,2,95,0,0
76347,-83.3333333333333,4,2,2,90,0,0
78043,-83.3333333333333,4,2,2,5,0,0
78133,-83.3333333333333,4,2,2,90,0,0
79472,-83.3333333333333,4,2,2,5,0,0
79562,-83.3333333333333,4,2,2,90,0,0
80901,-83.3333333333333,4,2,2,5,0,0
80991,-83.3333333333333,4,2,2,90,0,0
84918,-83.3333333333333,4,2,2,94,0,0
86168,-66.6666666666667,4,2,2,98,0,0
86436,-83.3333333333333,4,2,2,5,0,0
86526,-83.3333333333333,4,2,2,90,0,0
87418,-166.666666666667,4,2,2,80,0,0
87686,-166.666666666667,4,2,2,5,0,0
87775,-100,4,2,2,85,0,0
91883,-166.666666666667,4,2,2,85,0,0
91972,-142.857142857143,4,2,2,5,0,0

[Colours]
Combo1 : 237,192,156
Combo2 : 255,157,206
Combo3 : 252,224,173
Combo4 : 247,53,140

[HitObjects]
186,121,4561,5,2,0:0:0:0:
186,121,4650,1,2,0:0:0:0:
186,121,4740,1,2,0:0:0:0:
186,121,4829,1,2,0:0:0:0:
186,121,4918,6,0,L|178:202,1,56.9999982604981,2|0,0:0|0:0,0:0:0:0:
165,312,5275,1,2,0:0:0:0:
225,252,5454,2,0,P|185:228|117:242,1,113.999996520996,2|2,0:0|0:0,0:0:0:0:
66,322,5990,6,0,L|84:132,1,170.999994781494,2|0,0:0|0:0,0:0:0:0:
167,131,6704,1,2,0:0:0:0:
107,74,6883,1,0,0:0:0:0:
82,151,7061,5,2,0:0:0:0:
186,52,7240,1,2,0:0:0:0:
28,89,7418,1,2,0:0:0:0:
158,268,7597,6,0,B|228:261|197:233|273:222,1,113.999996520996,2|0,0:0|0:0,0:0:0:0:
411,283,8133,2,0,L|417:346,1,56.9999982604981,2|0,0:0|0:0,0:0:0:0:
334,255,8490,5,2,0:0:0:0:
325,179,8668,1,2,0:0:0:0:
411,283,8847,5,2,0:0:0:0:
392,143,9025,1,2,0:0:0:0:
490,306,9204,6,0,L|462:92,1,199.499993911743,2|0,0:0|0:0,0:0:0:0:
488,23,9918,5,2,0:0:0:0:
456,19,10008,1,2,0:0:0:0:
427,27,10097,1,2,0:0:0:0:
403,45,10186,1,2,0:0:0:0:
385,70,10275,5,2,0:0:0:0:
356,105,10365,1,2,0:0:0:0:
314,120,10454,1,2,0:0:0:0:
269,111,10543,1,2,0:0:0:0:
237,79,10633,6,0,L|34:101,2,170.999994781494,6|2|2,1:2|0:0|0:0,0:0:0:0:
305,35,11525,1,2,0:0:0:0:
243,157,11704,1,2,0:0:0:0:
125,2,11883,1,2,0:0:0:0:
313,115,12061,6,0,P|326:156|219:236,2,170.999994781494,2|2|2,0:0|0:0|0:0,0:0:0:0:
229,1,12954,1,2,0:0:0:0:
163,188,13133,1,2,0:0:0:0:
128,19,13311,1,2,0:0:0:0:
313,115,13490,6,0,B|347:128|347:128|460:108,1,128.249996086121,2|0,0:0|0:0,0:0:0:0:
446,100,13847,2,0,L|435:201,1,85.4999973907472,2|0,0:0|0:0,0:0:0:0:
285,267,14204,1,2,0:0:0:0:
374,317,14383,2,0,L|364:220,2,85.4999973907472,2|0|2,0:0|0:0|0:0,0:0:0:0:
228,328,14918,6,0,P|183:345|134:336,1,85.4999973907472,2|0,0:0|0:0,0:0:0:0:
122,183,15275,2,0,P|166:165|214:173,1,85.4999973907472,2|0,0:0|0:0,0:0:0:0:
309,349,15633,5,2,0:0:0:0:
349,373,15722,1,2,0:0:0:0:
395,371,15811,1,2,0:0:0:0:
434,344,15900,1,2,0:0:0:0:
451,301,15990,5,2,1:2:0:0:
448,273,16079,1,2,1:2:0:0:
444,244,16168,1,2,1:2:0:0:
441,216,16258,1,2,1:2:0:0:
438,188,16347,5,6,1:2:0:0:
318,27,16525,1,2,0:0:0:0:
362,225,16704,1,2,1:2:0:0:
466,113,16883,1,2,0:0:0:0:
274,94,17061,2,0,L|167:84,1,95,2|0,1:2|0:0,0:0:0:0:
16,236,17418,1,8,0:0:0:0:
20,20,17597,6,0,B|50:1|86:2|113:36|113:36|83:77|110:133,1,190,2|2,0:0|0:0,0:0:0:0:
171,278,18133,1,2,1:2:0:0:
263,96,18311,1,2,0:0:0:0:
124,351,18490,2,0,P|86:275|100:230,1,95,2|0,1:2|0:0,0:0:0:0:
179,85,18847,1,10,0:0:0:0:
249,316,19025,1,2,0:0:0:0:
103,117,19204,5,14,0:0:0:0:
381,132,19383,1,2,1:2:0:0:
74,261,19561,5,10,0:0:0:0:
403,207,19740,1,0,1:0:0:0:
412,205,19829,1,0,1:0:0:0:
421,203,19918,5,10,0:0:0:0:
115,129,20097,1,0,1:2:0:0:
204,340,20275,1,0,1:2:0:0:
283,60,20454,5,14,0:0:0:0:
273,64,20811,5,10,0:0:0:0:
195,357,20990,1,10,0:0:0:0:
450,225,21704,6,0,P|462:189|452:158,1,57,2|0,0:0|0:0,0:0:0:0:
449,163,22061,6,0,B|342:176|392:237|270:241,1,190,6|8,1:2|0:0,0:0:0:0:
73,136,22597,1,2,0:2:0:0:
63,140,22686,1,2,0:2:0:0:
53,144,22775,1,2,1:2:0:0:
181,318,22954,1,0,1:2:0:0:
296,151,23133,2,0,L|306:44,1,95,10|0,1:2|0:0,0:0:0:0:
204,189,23490,6,0,L|221:0,1,190,2|8,1:2|0:0,0:0:0:0:
383,132,24025,1,2,0:0:0:0:
384,117,24115,1,2,0:0:0:0:
385,103,24204,1,2,1:2:0:0:
346,250,24383,1,2,1:2:0:0:
304,56,24561,1,14,0:0:0:0:
455,191,24740,1,2,1:2:0:0:
238,304,24918,5,14,0:0:0:0:
302,74,25097,1,2,1:2:0:0:
228,308,25275,5,10,0:0:0:0:
172,56,25454,1,2,1:2:0:0:
170,46,25543,1,2,1:2:0:0:
168,37,25633,5,14,0:0:0:0:
110,348,25811,1,10,0:0:0:0:
97,354,26168,6,0,P|44:309|76:226,1,142.5,6|0,1:2|0:0,0:0:0:0:
65,237,26525,2,0,L|134:247,1,47.5,8|0,0:0|0:0,0:0:0:0:
228,308,26704,5,0,1:0:0:0:
270,326,26793,1,0,1:0:0:0:
317,319,26883,1,0,1:0:0:0:
351,287,26972,1,0,1:0:0:0:
363,242,27061,6,0,L|342:43,1,199.499993911743,6|0,1:2|0:0,0:0:0:0:
280,236,27418,6,0,L|264:81,1,156.750004783631,6|0,1:2|0:0,0:0:0:0:
197,231,27775,5,6,1:2:0:0:
120,91,27954,2,0,B|147:68|147:68|288:82,1,152,2|2,0:0|0:0,0:0:0:0:
411,99,28490,1,2,1:2:0:0:
342,43,28668,1,2,1:2:0:0:
250,158,28847,2,0,L|174:150,1,76,10|0,0:0|0:0,0:0:0:0:
49,255,29204,5,2,1:2:0:0:
165,150,29383,1,2,0:0:0:0:
124,297,29561,1,10,0:0:0:0:
82,175,29740,1,2,0:0:0:0:
202,262,29918,2,0,P|211:299|203:336,1,76,2|0,1:2|1:2,0:0:0:0:
34,242,30275,6,0,L|49:78,1,156.750004783631,10|0,0:0|0:0,0:0:0:0:
48,85,30633,1,2,1:2:0:0:
195,34,30811,5,2,0:0:0:0:
220,115,30990,2,0,P|177:118|131:90,1,76,10|0,0:0|1:2,0:0:0:0:
141,99,31258,1,8,0:0:0:0:
141,99,31347,1,2,1:2:0:0:
280,58,31525,1,2,1:2:0:0:
314,231,31704,1,10,0:0:0:0:
211,197,31883,1,2,0:0:0:0:
396,52,32061,5,2,1:2:0:0:
314,231,32240,1,2,0:0:0:0:
274,51,32418,1,10,0:0:0:0:
395,193,32597,1,2,1:2:0:0:
395,193,32686,1,0,1:0:0:0:
395,193,32775,2,0,P|405:239|383:281,1,76,2|0,1:2|1:2,0:0:0:0:
316,363,33133,6,0,B|220:352|290:316|171:306,1,156.750004783631,10|0,0:0|0:0,0:0:0:0:
165,314,33490,1,2,1:2:0:0:
47,373,33668,6,0,L|39:271,1,76,2|8,0:0|0:0,0:0:0:0:
102,138,34025,1,2,0:0:0:0:
144,212,34204,2,0,P|107:224|57:208,1,76,2|0,1:2|1:0,0:0:0:0:
43,76,34561,2,0,P|101:54|168:84,1,114,10|0,0:0|0:0,0:0:0:0:
164,81,34918,5,0,1:2:0:0:
344,135,35097,2,0,L|353:49,1,76,2|8,0:0|0:0,0:0:0:0:
304,205,35454,1,2,0:0:0:0:
430,123,35633,1,2,1:2:0:0:
286,11,35811,1,0,1:0:0:0:
314,211,35990,2,0,P|359:218|392:196,1,76,10|0,0:0|0:0,0:0:0:0:
278,0,36347,6,0,B|253:17|253:17|267:157,1,152,2|10,1:2|0:0,0:0:0:0:
393,279,36883,1,2,1:2:0:0:
393,279,36972,1,0,1:0:0:0:
393,279,37061,2,0,L|382:190,1,76,0|2,1:0|1:2,0:0:0:0:
288,293,37418,1,8,0:0:0:0:
390,93,37597,6,0,P|338:81|263:144,1,152,2|2,0:0|0:0,0:0:0:0:
188,277,38133,2,0,P|136:292|97:270,1,76,10|0,0:0|1:0,0:0:0:0:
77,113,38490,6,0,L|70:169,1,38,2|2,1:2|0:0,0:0:0:0:
145,212,38668,2,0,L|149:174,1,38,2|2,1:2|0:0,0:0:0:0:
118,40,38847,5,10,0:0:0:0:
82,28,38936,1,2,1:2:0:0:
45,35,39025,1,10,0:0:0:0:
15,58,39115,1,10,0:0:0:0:
0,93,39204,5,6,1:2:0:0:
58,237,39383,1,2,0:0:0:0:
180,103,39561,2,0,P|221:89|267:105,1,76,10|2,0:0|0:0,0:0:0:0:
307,254,39918,1,2,1:2:0:0:
224,170,40097,1,2,1:2:0:0:
366,81,40275,1,10,0:0:0:0:
311,239,40454,1,2,0:0:0:0:
260,87,40633,5,2,1:2:0:0:
400,182,40811,1,2,0:0:0:0:
339,318,40990,2,0,P|292:322|248:291,1,76,10|2,0:0|1:2,0:0:0:0:
261,305,41258,1,0,1:0:0:0:
255,300,41347,1,2,1:2:0:0:
147,173,41525,1,0,1:2:0:0:
66,334,41704,6,0,P|151:326|178:263,1,156.750004783631,10|0,0:0|0:0,0:0:0:0:
179,254,42061,1,2,1:2:0:0:
39,122,42240,5,2,0:0:0:0:
100,265,42418,1,10,0:0:0:0:
241,144,42597,1,2,1:2:0:0:
241,144,42686,1,0,1:0:0:0:
241,144,42775,2,0,L|330:152,1,76,2|2,1:2|1:2,0:0:0:0:
476,85,43133,2,0,P|494:53|480:-2,1,76,10|2,0:0|0:0,0:0:0:0:
282,66,43490,5,2,1:2:0:0:
391,250,43668,1,2,0:0:0:0:
416,35,43847,1,10,0:0:0:0:
311,241,44025,1,2,1:2:0:0:
311,241,44115,1,0,1:0:0:0:
311,241,44204,2,0,L|228:234,1,76,2|0,1:2|1:2,0:0:0:0:
34,117,44561,6,0,B|147:103|147:103|182:128,1,156.750004783631,10|0,0:0|0:0,0:0:0:0:
190,132,44918,1,2,1:2:0:0:
160,336,45097,5,2,0:0:0:0:
40,197,45275,2,0,L|33:280,1,76,10|2,0:0|1:2,0:0:0:0:
33,281,45543,1,0,1:0:0:0:
32,289,45633,1,2,1:2:0:0:
235,234,45811,1,0,1:2:0:0:
100,145,45990,2,0,P|64:119|2:130,1,76,10|0,0:0|0:0,0:0:0:0:
174,358,46347,5,0,1:2:0:0:
315,270,46525,2,0,P|324:233|315:197,1,76,2|10,0:0|0:0,0:0:0:0:
180,138,46883,1,0,1:2:0:0:
180,138,46972,1,0,1:2:0:0:
180,138,47061,1,2,1:2:0:0:
247,318,47240,1,0,1:2:0:0:
346,126,47418,2,0,B|308:117|308:117|250:142,1,76,10|0,0:0|0:0,0:0:0:0:
119,200,47775,5,2,1:2:0:0:
321,286,47954,1,2,0:0:0:0:
130,203,48133,1,10,0:0:0:0:
358,121,48311,1,2,1:2:0:0:
358,121,48400,1,0,1:2:0:0:
358,121,48490,5,2,1:2:0:0:
247,318,48668,1,2,1:2:0:0:
167,79,48847,1,10,0:0:0:0:
396,200,49025,6,0,P|448:133|379:37,1,209.000006378174,6|8,1:2|0:0,0:0:0:0:
317,14,49472,1,0,0:0:0:0:
317,14,49561,2,0,L|258:20,3,38,10|2|2|2,0:0|0:0|1:2|1:2,0:0:0:0:
243,85,49918,5,10,1:2:0:0:
205,82,50008,1,2,0:0:0:0:
167,79,50097,1,2,1:2:0:0:
129,77,50186,1,2,1:2:0:0:
89,73,50275,5,2,1:2:0:0:
56,91,50365,1,2,0:0:0:0:
37,123,50454,1,2,1:2:0:0:
37,161,50543,1,2,1:2:0:0:
58,192,50633,6,0,L|168:206,1,76,6|0,1:2|0:0,0:0:0:0:
313,91,50990,2,0,P|279:76|232:92,1,76,8|0,0:0|1:2,0:0:0:0:
282,294,51347,1,10,0:0:0:0:
393,111,51525,2,0,P|396:71|376:37,1,76,2|8,0:0|0:0,0:0:0:0:
191,145,51883,1,2,1:2:0:0:
349,250,52061,6,0,L|339:174,1,76,8|0,0:0|0:0,0:0:0:0:
133,201,52418,2,0,P|163:221|215:222,1,76,8|0,0:0|1:0,0:0:0:0:
393,111,52775,1,10,0:0:0:0:
266,283,52954,1,2,1:2:0:0:
200,69,53133,2,0,L|191:145,1,76,10|0,0:0|1:2,0:0:0:0:
34,317,53490,6,0,L|43:238,1,76,10|0,0:0|0:0,0:0:0:0:
273,193,53847,2,0,P|278:255|268:272,1,76,10|0,0:0|1:0,0:0:0:0:
109,367,54204,2,0,L|118:291,1,76,10|0,0:0|0:0,0:0:0:0:
239,119,54561,2,0,P|270:111|315:123,1,76,10|0,0:0|1:0,0:0:0:0:
402,292,54918,6,0,B|331:304|369:337|279:349,1,114,10|0,0:0|0:0,0:0:0:0:
236,293,55275,2,0,P|230:242|243:215,1,76,10|0,0:0|1:2,0:0:0:0:
479,261,55633,2,0,P|485:312|472:339,1,76,10|0,0:0|1:0,0:0:0:0:
227,372,55990,2,0,L|151:363,1,76,14|0,0:0|1:2,0:0:0:0:
79,251,56258,1,8,0:0:0:0:
88,240,56347,6,0,L|258:217,1,152,14|8,0:0|0:0,0:0:0:0:
402,292,56883,1,0,1:2:0:0:
287,145,57061,1,10,0:0:0:0:
220,297,57240,2,0,P|246:301|289:281,1,76,2|8,0:0|0:0,0:0:0:0:
361,106,57597,1,2,1:2:0:0:
171,166,57775,6,0,P|158:192|166:248,1,76,8|0,0:0|0:0,0:0:0:0:
357,329,58133,2,0,P|370:303|362:247,1,76,8|0,0:0|1:0,0:0:0:0:
293,56,58490,1,8,0:0:0:0:
220,297,58668,1,2,1:2:0:0:
424,196,58847,1,10,0:0:0:0:
187,165,59025,1,10,0:0:0:0:
178,165,59115,1,8,0:0:0:0:
171,166,59204,6,0,B|79:175|143:207|21:217,1,132.999995941162,6|2,1:2|0:0,0:0:0:0:
143,306,59740,2,0,P|165:269|160:227,1,66.4999979705811,2|8,1:2|0:0,0:0:0:0:
46,134,60097,2,0,P|49:101|69:75,1,66.4999979705811,2|0,0:0|1:0,0:0:0:0:
289,115,60454,6,0,B|212:122|251:157|169:165,1,132.999995941162,2|8,1:2|0:0,0:0:0:0:
295,202,60990,1,0,1:2:0:0:
369,89,61168,6,0,P|377:121|369:153,1,66.4999979705811,2|12,1:2|0:0,0:0:0:0:
222,246,61525,1,2,1:2:0:0:
273,33,61704,1,2,1:2:0:0:
374,231,61883,1,2,1:2:0:0:
174,82,62061,5,12,0:0:0:0:
275,352,62240,1,0,1:2:0:0:
369,89,62418,1,0,1:2:0:0:
177,334,62597,1,8,0:0:0:0:
93,75,62775,6,0,P|96:103|99:126,1,33.2499989852906,2|2,0:0|0:0,0:0:0:0:
290,361,62954,2,0,P|293:337|300:306,1,33.2499989852906,2|2,0:0|0:0,0:0:0:0:
456,65,63133,5,8,0:0:0:0:
411,67,63222,1,8,0:0:0:0:
366,70,63311,1,8,0:0:0:0:
320,73,63400,1,8,0:0:0:0:
275,77,63490,5,10,0:0:0:0:
15,217,63668,1,10,0:0:0:0:
304,367,63847,1,10,0:0:0:0:
0,207,64025,1,10,0:0:0:0:
317,374,64204,6,0,P|326:347|316:303,1,57,10|0,0:0|0:0,0:0:0:0:
326,155,64561,6,0,L|303:371,1,213.750008153916,2|0,0:0|0:0,0:0:0:0:
416,185,64918,6,0,P|400:100|260:90,1,227.999993041992,6|8,1:2|0:0,0:0:0:0:
115,248,65454,1,0,1:0:0:0:
119,256,65543,1,0,1:0:0:0:
122,263,65633,1,2,1:2:0:0:
318,375,65811,1,2,1:2:0:0:
240,159,65990,1,10,0:0:0:0:
96,353,66168,1,2,0:0:0:0:
349,234,66347,6,0,B|460:214|379:156|537:139,1,170.999994781494,2|0,1:2|0:0,0:0:0:0:
512,72,66704,2,0,P|487:21|421:24,1,113.999996520996,10|0,0:0|1:0,0:0:0:0:
434,15,66972,1,0,1:0:0:0:
434,15,67061,1,2,1:2:0:0:
438,229,67240,1,2,1:2:0:0:
329,49,67418,1,10,0:0:0:0:
399,302,67597,1,2,0:0:0:0:
414,94,67775,6,0,L|232:79,1,170.999994781494,2|0,1:2|0:0,0:0:0:0:
71,37,68133,2,0,P|119:7|187:32,1,113.999996520996,10|2,0:0|0:0,0:0:0:0:
172,19,68400,1,0,1:0:0:0:
172,19,68490,1,2,1:2:0:0:
143,236,68668,1,2,1:2:0:0:
0,84,68847,1,10,0:0:0:0:
69,267,69025,1,2,0:0:0:0:
243,79,69204,6,0,B|298:55|364:91|330:107|389:153|452:124,1,227.999993041992,2|8,1:2|0:0,0:0:0:0:
280,165,69740,1,2,1:2:0:0:
279,173,69829,1,2,1:2:0:0:
279,180,69918,2,0,L|286:245,1,56.9999982604981,2|2,1:2|0:0,0:0:0:0:
488,306,70097,2,0,P|499:261|487:226,1,56.9999982604981,2|2,1:2|0:0,0:0:0:0:
368,93,70275,5,10,0:0:0:0:
364,103,70365,1,2,0:0:0:0:
361,114,70454,1,2,1:2:0:0:
358,125,70543,1,2,0:0:0:0:
355,137,70633,6,0,L|368:252,1,113.999996520996,6|2,1:2|0:0,0:0:0:0:
278,112,70990,1,10,0:0:0:0:
314,314,71168,1,2,0:0:0:0:
171,76,71347,2,0,P|131:54|51:81,1,113.999996520996,2|0,1:2|1:2,0:0:0:0:
9,287,71704,1,10,0:0:0:0:
230,193,71883,1,2,0:0:0:0:
57,83,72061,5,2,1:2:0:0:
111,301,72240,1,2,0:0:0:0:
183,88,72418,1,10,0:0:0:0:
14,208,72597,1,2,1:2:0:0:
21,209,72686,1,0,1:0:0:0:
28,211,72775,2,0,L|157:225,1,113.999996520996,2|0,1:2|1:2,0:0:0:0:
399,255,73133,1,10,0:0:0:0:
191,103,73311,1,2,0:0:0:0:
222,352,73490,6,0,B|248:323|248:323|227:172,1,170.999994781494,2|0,1:2|0:0,0:0:0:0:
121,49,73847,2,0,P|102:102|139:173,1,113.999996520996,10|0,0:0|0:0,0:0:0:0:
119,155,74115,1,0,1:0:0:0:
119,155,74204,1,2,1:2:0:0:
317,229,74383,1,0,1:2:0:0:
94,355,74561,1,10,0:0:0:0:
229,192,74740,6,0,B|312:178|312:178|344:143|344:143|459:124,1,213.750008153916,6|0,1:2|0:0,0:0:0:0:
476,235,75097,2,0,L|395:223,1,71.2500027179719,12|0,0:0|0:0,0:0:0:0:
195,94,75275,2,0,B|164:118|164:118|291:97,1,142.500005435944,12|0,0:0|1:2,0:0:0:0:
434,63,75543,1,0,1:0:0:0:
432,73,75633,6,0,L|423:144,1,56.9999982604981,2|2,1:2|0:0,0:0:0:0:
312,172,75811,2,0,L|321:243,1,56.9999982604981,2|2,0:0|0:0,0:0:0:0:
386,353,75990,6,0,P|343:376|233:310,1,142.500005435944,10|2,0:0|1:2,0:0:0:0:
201,160,76258,1,8,0:0:0:0:
210,153,76347,6,0,B|274:144|326:197|287:198|347:256|430:233,1,227.999993041992,6|8,1:2|0:0,0:0:0:0:
239,65,76883,1,0,1:3:0:0:
240,73,76972,1,0,1:3:0:0:
241,80,77061,1,2,1:2:0:0:
325,297,77240,1,2,1:2:0:0:
418,64,77418,1,10,0:0:0:0:
324,315,77597,1,2,0:0:0:0:
241,80,77775,6,0,B|103:66|103:66|59:97,1,170.999994781494,2|0,1:2|0:0,0:0:0:0:
297,148,78133,2,0,P|328:90|309:33,1,113.999996520996,8|0,0:0|0:0,0:0:0:0:
317,45,78400,1,0,1:2:0:0:
317,45,78490,1,2,1:2:0:0:
149,205,78668,1,2,1:2:0:0:
46,9,78847,1,8,0:0:0:0:
241,80,79025,1,2,0:0:0:0:
77,251,79204,6,0,B|61:212|61:212|76:84,1,170.999994781494,2|0,1:2|0:0,0:0:0:0:
132,311,79561,2,0,P|91:333|15:302,1,113.999996520996,10|0,0:0|0:0,0:0:0:0:
239,98,79918,1,2,1:2:0:0:
376,357,80097,2,0,P|401:316|383:244,1,113.999996520996,2|8,1:2|0:0,0:0:0:0:
241,80,80454,1,2,0:0:0:0:
175,365,80633,6,0,B|221:375|268:328|235:324|271:295|334:297,1,170.999994781494,2|0,1:2|0:0,0:0:0:0:
179,179,80990,2,0,P|159:242|190:296,1,113.999996520996,8|0,0:0|0:0,0:0:0:0:
376,357,81258,1,0,1:2:0:0:
387,348,81347,6,0,P|403:316|400:277,1,56.9999982604981,2|2,1:2|0:0,0:0:0:0:
252,102,81525,2,0,L|260:189,1,56.9999982604981,2|2,1:2|0:0,0:0:0:0:
105,321,81704,1,10,0:0:0:0:
94,317,81793,1,2,0:0:0:0:
83,313,81883,1,2,1:2:0:0:
72,308,81972,1,2,0:0:0:0:
61,302,82061,6,0,B|43:293|43:293|33:176,1,113.999996520996,6|2,1:2|0:0,0:0:0:0:
126,47,82418,1,10,0:0:0:0:
177,283,82597,1,2,0:0:0:0:
272,45,82775,2,0,L|254:177,1,113.999996520996,2|0,1:2|1:0,0:0:0:0:
175,365,83133,1,8,0:0:0:0:
129,174,83311,6,0,B|297:197|297:197|266:183|254:152,1,227.999993041992,2|2,0:0|0:0,0:0:0:0:
63,118,83847,2,0,B|40:172|40:172|65:235,1,113.999996520996,10|2,0:0|0:0,0:0:0:0:
60,223,84115,1,0,1:0:0:0:
60,223,84204,1,2,1:2:0:0:
256,157,84383,1,0,1:2:0:0:
56,103,84561,5,14,0:0:0:0:
197,364,84740,1,2,1:2:0:0:
243,32,84918,5,14,0:0:0:0:
114,343,85097,1,2,1:2:0:0:
102,33,85275,5,10,0:0:0:0:
296,308,85454,1,0,1:0:0:0:
286,305,85543,1,0,1:0:0:0:
275,302,85633,6,0,P|245:293|213:288,1,56.9999982604981,10|0,0:0|0:0,0:0:0:0:
0,184,85811,2,0,P|34:177|69:161,1,56.9999982604981,2|0,1:2|0:0,0:0:0:0:
271,70,85990,2,0,P|259:112|254:144,1,56.9999982604981,2|0,1:2|0:0,0:0:0:0:
25,291,86168,6,0,B|86:305|135:244|95:233|145:177|217:190,1,213.750008153916,14|0,0:0|0:0,0:0:0:0:
342,125,86525,5,14,0:0:0:0:
257,372,86704,1,14,0:0:0:0:
250,380,87418,6,0,P|233:337|257:288,1,85.4999973907472,2|0,0:0|0:0,0:0:0:0:
321,237,87775,6,0,B|296:269|296:269|132:279,1,190,6|8,1:2|0:0,0:0:0:0:
0,119,88311,1,2,0:0:0:0:
3,110,88400,1,2,0:0:0:0:
7,101,88490,1,2,1:2:0:0:
228,195,88668,1,2,1:2:0:0:
87,333,88847,2,0,P|66:267|82:231,1,95,10|0,0:0|0:0,0:0:0:0:
19,374,89204,6,0,P|-15:294|34:173,1,190,2|8,1:2|0:0,0:0:0:0:
187,60,89740,1,2,1:2:0:0:
196,62,89829,1,2,1:2:0:0:
205,64,89918,1,2,1:2:0:0:
287,246,90097,1,2,1:2:0:0:
86,164,90275,1,14,0:0:0:0:
282,12,90454,1,2,1:2:0:0:
224,329,90633,5,14,0:0:0:0:
187,60,90811,1,2,1:2:0:0:
326,356,90990,5,10,0:0:0:0:
369,56,91168,1,2,1:2:0:0:
371,47,91258,1,2,1:2:0:0:
373,38,91347,5,10,0:0:0:0:
208,354,91525,1,10,0:0:0:0:
93,86,91883,6,0,B|80:72|43:67|2:102|2:102|13:102|13:102|10:130|55:205|157:213|114:98|225:135|267:180|267:180|262:182|262:182|248:237|186:225,1,512.999984344483,6|0,1:2|0:0,0:0:0:0:
