osu file format v14

[General]
AudioFilename: audio.mp3
AudioLeadIn: 0
PreviewTime: 64159
Countdown: 0
SampleSet: Soft
StackLeniency: 0.3
Mode: 0
LetterboxInBreaks: 0
WidescreenStoryboard: 1

[Editor]
Bookmarks: 19271
DistanceSpacing: 1.35
BeatDivisor: 4
GridSize: 4
TimelineZoom: 1.6

[Metadata]
Title:MIRACLE RUSH (TV Size)
TitleUnicode:MIRACLE RUSH (TV Size)
Artist:StylipS
ArtistUnicode:StylipS
Creator:Kaguya_Sama
Version:Insane
Source:咲-Saki-阿知賀編 episode of side-A
Tags:Saki: Achiga-hen op opening theme 小倉唯 ogura yui 石原夏織 ishihara kaori 能登有沙 noto arisa 松永真穂 matsunaga maho 山口朗彦 akihiko yamaguchi こだまさおり kodama saori japanese pop jpop j-pop anime episode of side a affirmation neoskylove
BeatmapID:4441881
BeatmapSetID:1844057

[Difficulty]
HPDrainRate:5
CircleSize:4
OverallDifficulty:8.2
ApproachRate:9
SliderMultiplier:1.7
SliderTickRate:1

[Events]
//Background and Video events
0,0,"bg.jpg",0,0
//Break Periods
//Storyboard Layer 0 (Background)
//Storyboard Layer 1 (Fail)
//Storyboard Layer 2 (Pass)
//Storyboard Layer 3 (Foreground)
//Storyboard Layer 4 (Overlay)
//Storyboard Sound Samples

[TimingPoints]
633,357.142857142858,4,2,2,45,1,0
4561,-166.666666666667,4,2,2,45,0,0
9918,-166.666666666667,4,2,2,60,0,0
10097,-142.857142857143,4,2,2,60,0,0
10275,-125,4,2,2,60,0,0
10454,-111.111111111111,4,2,2,60,0,0
10633,-111.111111111111,4,2,2,78,0,0
13758,-111.111111111111,4,2,2,5,0,0
13847,-111.111111111111,4,2,2,78,0,0
16347,-100,4,2,2,80,0,0
19204,-100,4,2,2,88,0,0
21704,-250,4,2,2,70,0,0
21972,-250,4,2,2,5,0,0
22061,-100,4,2,2,82,0,0
23400,-100,4,2,2,5,0,0
23490,-100,4,2,2,82,0,0
24918,-100,4,2,2,88,0,0
25633,-100,4,2,2,92,0,0
26168,-100,4,2,2,85,0,0
27061,-71.4285714285714,4,2,2,90,0,0
27329,-71.4285714285714,4,2,2,5,0,0
27418,-90.9090909090909,4,2,2,80,0,0
27686,-90.9090909090909,4,2,2,5,0,0
27776,-125,4,2,2,70,0,0
30275,-90.9090909090909,4,2,2,70,0,0
30543,-90.9090909090909,4,2,2,5,0,0
30633,-125,4,2,2,70,0,0
33133,-90.9090909090909,4,2,2,70,0,0
33401,-90.9090909090909,4,2,2,5,0,0
33490,-125,4,2,2,70,0,0
41704,-90.9090909090909,4,2,2,70,0,0
41972,-90.9090909090909,4,2,2,5,0,0
42061,-125,4,2,2,70,0,0
44561,-90.9090909090909,4,2,2,70,0,0
44829,-90.9090909090909,4,2,2,5,0,0
44918,-125,4,2,2,70,0,0
49025,-90.9090909090909,4,2,2,80,0,0
49561,-125,4,2,2,80,0,0
50633,-125,4,2,2,75,0,0
59204,-142.857142857143,4,2,2,69,0,0
62061,-142.857142857143,4,2,2,82,0,0
63490,-142.857142857143,4,2,2,92,0,0
64204,-250.000000000001,4,2,2,85,0,0
64472,-250.000000000001,4,2,2,5,0,0
64561,-66.6666666666667,4,2,2,95,0,0
64829,-66.6666666666667,4,2,2,5,0,0
64918,-83.3333333333333,4,2,2,90,0,0
73759,-83.3333333333333,4,2,2,5,0,0
73848,-83.3333333333333,4,2,2,90,0,0
74740,-66.6666666666667,4,2,2,95,0,0
75008,-66.6666666666667,4,2,2,5,0,0
75098,-66.6666666666667,4,2,2,90,0,0
75186,-66.6666666666667,4,2,2,5,0,0
75276,-66.6666666666667,4,2,2,90,0,0
75543,-66.6666666666667,4,2,2,5,0,0
75633,-83.3333333333333,4,2,2,95,0,0
75990,-66.6666666666667,4,2,2,95,0,0
76347,-83.3333333333333,4,2,2,90,0,0
79473,-83.3333333333333,4,2,2,5,0,0
79562,-83.3333333333333,4,2,2,90,0,0
84918,-83.3333333333333,4,2,2,94,0,0
86168,-66.6666666666667,4,2,2,98,0,0
86526,-66.6666666666667,4,2,2,90,0,0
87418,-166.666666666667,4,2,2,80,0,0
87686,-166.666666666667,4,2,2,5,0,0
87775,-100,4,2,2,85,0,0
91883,-166.666666666667,4,2,2,85,0,0
91972,-166.666666666667,4,2,2,5,0,0

[Colours]
Combo1 : 237,192,156
Combo2 : 255,157,206
Combo3 : 252,224,173
Combo4 : 247,53,140

[HitObjects]
143,191,4561,6,0,L|103:186,1,25.4999992218018,2|2,0:0|0:0,0:0:0:0:
206,139,4740,2,0,L|246:144,1,25.4999992218018,2|2,0:0|0:0,0:0:0:0:
125,60,4918,6,0,P|129:88|132:128,1,50.9999984436036,2|0,0:0|0:0,0:0:0:0:
223,221,5275,1,2,0:0:0:0:
303,193,5454,2,0,P|315:123|294:81,1,101.999996887207,2|2,0:0|0:0,0:0:0:0:
198,4,5990,6,0,B|232:23|231:56|231:56|211:92|230:141,1,152.999995330811,2|2,0:0|0:0,0:0:0:0:
303,193,6704,2,0,P|341:188|371:186,1,50.9999984436036,2|0,0:0|0:0,0:0:0:0:
199,244,7061,5,2,0:0:0:0:
127,201,7240,2,0,P|132:163|134:133,1,50.9999984436036,2|2,0:0|0:0,0:0:0:0:
275,283,7597,6,0,P|265:352|262:406,1,101.999996887207,2|0,0:0|0:0,0:0:0:0:
123,337,8133,2,0,P|128:299|130:269,1,50.9999984436036,2|0,0:0|0:0,0:0:0:0:
220,159,8490,5,2,0:0:0:0:
199,244,8668,1,2,0:0:0:0:
275,283,8847,1,2,0:0:0:0:
296,198,9025,1,2,0:0:0:0:
211,73,9204,6,0,B|125:90|164:135|71:148,1,152.999995330811,2|0,0:0|0:0,0:0:0:0:
23,268,9918,6,0,P|45:273|64:280,1,25.4999992218018,2|2,0:0|0:0,0:0:0:0:
111,219,10097,2,0,P|133:214|152:207,1,29.7499990921021,2|2,0:0|0:0,0:0:0:0:
204,296,10275,2,0,P|223:306|240:318,1,34,2|2,0:0|0:0,0:0:0:0:
296,198,10454,2,0,P|315:187|332:175,1,38.2499988327027,2|2,0:0|0:0,0:0:0:0:
427,309,10633,6,0,P|434:229|452:128,2,152.999995330811,6|0|2,1:2|0:0|0:0,0:0:0:0:
350,267,11525,1,2,0:0:0:0:
463,225,11704,1,2,0:0:0:0:
364,104,11883,1,2,0:0:0:0:
340,254,12061,6,0,P|300:240|163:214,2,152.999995330811,2|2|2,0:0|0:0|0:0,0:0:0:0:
289,161,12954,1,2,0:0:0:0:
390,88,13133,1,2,0:0:0:0:
263,3,13311,1,2,0:0:0:0:
158,130,13490,6,0,P|133:170|42:193,1,114.749996498108,2|0,0:0|0:0,0:0:0:0:
58,200,13847,2,0,P|107:223|122:262,1,76.4999976654053,2|0,0:0|0:0,0:0:0:0:
149,353,14204,1,2,0:0:0:0:
10,318,14383,2,0,P|54:313|102:305,2,76.4999976654053,2|0|2,0:0|0:0|0:0,0:0:0:0:
252,319,14918,6,0,B|233:230|207:285|186:183,1,152.999995330811,2|2,0:0|0:0,0:0:0:0:
253,109,15454,1,0,0:0:0:0:
388,223,15633,6,0,P|390:243|395:264,3,38.2499988327027,2|2|2|2,0:0|0:0|0:0|0:0,0:0:0:0:
471,193,15990,5,2,1:2:0:0:
471,193,16079,1,2,1:2:0:0:
471,193,16168,2,0,P|478:160|479:141,1,38.2499988327027,2|2,1:2|1:2,0:0:0:0:
488,279,16347,5,6,1:2:0:0:
388,223,16525,1,2,0:0:0:0:
363,345,16704,2,0,P|298:332|264:330,1,85,2|2,1:2|0:0,0:0:0:0:
220,197,17061,2,0,P|333:219|392:223,1,170,2|8,1:2|0:0,0:0:0:0:
412,74,17597,6,0,B|396:165|330:108|307:200,1,170,2|2,0:0|0:0,0:0:0:0:
363,345,18133,1,2,1:2:0:0:
387,222,18311,1,2,0:0:0:0:
279,328,18490,2,0,P|237:320|195:312,1,85,2|0,1:2|0:0,0:0:0:0:
308,196,18847,1,10,0:0:0:0:
363,345,19025,1,2,0:0:0:0:
185,310,19204,5,14,0:0:0:0:
408,233,19383,1,2,1:2:0:0:
186,152,19561,1,10,0:0:0:0:
364,321,19740,1,0,1:0:0:0:
364,321,19829,1,0,1:0:0:0:
364,321,19918,5,10,0:0:0:0:
263,114,20097,1,0,1:2:0:0:
185,310,20275,1,0,1:2:0:0:
422,237,20454,5,14,0:0:0:0:
139,150,20811,5,10,0:0:0:0:
139,150,20990,1,10,0:0:0:0:
139,150,21704,6,0,P|148:183|157:214,1,51,2|0,0:0|0:0,0:0:0:0:
226,171,22061,6,0,P|180:243|66:246,1,170,6|8,1:2|0:0,0:0:0:0:
82,98,22597,1,2,0:2:0:0:
82,98,22686,1,2,0:2:0:0:
82,98,22775,2,0,P|162:112|192:114,1,85,2|0,1:2|1:2,0:0:0:0:
333,182,23133,2,0,P|316:109|307:51,1,127.5,10|0,1:2|0:0,0:0:0:0:
376,12,23490,6,0,B|479:47|413:73|519:122,1,170,2|8,1:2|0:0,0:0:0:0:
419,227,24025,1,2,0:0:0:0:
419,227,24115,1,2,0:0:0:0:
419,227,24204,1,2,1:2:0:0:
376,102,24383,1,2,1:2:0:0:
267,228,24561,2,0,P|202:213|175:212,1,85,14|2,0:0|1:2,0:0:0:0:
342,301,24918,5,14,0:0:0:0:
286,134,25097,1,2,1:2:0:0:
209,306,25275,1,10,0:0:0:0:
374,214,25454,1,2,1:2:0:0:
374,214,25543,1,2,1:2:0:0:
374,214,25633,5,14,0:0:0:0:
166,107,25811,1,10,0:0:0:0:
146,97,26168,6,0,B|105:78|63:146|140:227,1,170,6|8,1:2|0:0,0:0:0:0:
296,262,26704,1,0,1:0:0:0:
296,262,26793,1,0,1:0:0:0:
296,262,26883,2,0,P|292:216|291:193,1,42.5,0|0,1:0|1:0,0:0:0:0:
275,120,27061,6,0,B|166:151|245:195|104:229,1,178.499994552612,6|0,1:2|0:0,0:0:0:0:
162,218,27418,6,0,B|242:189|192:158|280:135,1,140.25000428009,6|0,1:2|0:0,0:0:0:0:
269,150,27775,5,6,1:2:0:0:
374,196,27954,2,0,P|381:156|406:40,1,136,2|2,0:0|0:0,0:0:0:0:
458,211,28490,1,2,1:2:0:0:
511,147,28668,1,2,1:2:0:0:
370,204,28847,2,0,P|330:206|276:213,1,68,10|0,0:0|0:0,0:0:0:0:
104,284,29204,5,2,1:2:0:0:
188,305,29383,1,2,0:0:0:0:
208,222,29561,1,10,0:0:0:0:
125,202,29740,1,2,0:0:0:0:
198,316,29918,2,0,P|261:331|288:338,1,68,2|0,1:2|1:2,0:0:0:0:
322,203,30275,6,0,P|293:246|210:229,1,140.25000428009,10|0,0:0|0:0,0:0:0:0:
208,222,30633,1,2,1:2:0:0:
259,94,30811,5,2,0:0:0:0:
180,144,30990,2,0,P|173:97|169:63,1,68,10|0,0:0|1:2,0:0:0:0:
170,76,31258,1,8,0:0:0:0:
170,76,31347,1,2,1:2:0:0:
234,14,31525,1,2,1:2:0:0:
329,140,31704,2,0,P|368:147|420:160,1,68,10|2,0:0|0:0,0:0:0:0:
335,56,32061,5,2,1:2:0:0:
257,175,32240,1,2,0:0:0:0:
167,67,32418,1,10,0:0:0:0:
76,166,32597,1,2,1:2:0:0:
76,166,32686,1,0,1:0:0:0:
76,166,32775,2,0,P|84:199|91:232,1,68,2|0,1:2|1:2,0:0:0:0:
239,291,33133,6,0,P|282:237|236:176,1,140.25000428009,10|0,0:0|0:0,0:0:0:0:
257,175,33490,1,2,1:2:0:0:
366,95,33668,6,0,P|351:138|353:176,1,68,2|8,0:0|0:0,0:0:0:0:
406,212,34025,1,2,0:0:0:0:
445,69,34204,1,2,1:2:0:0:
499,133,34383,1,0,1:0:0:0:
360,85,34561,2,0,P|358:44|350:13,1,68,10|0,0:0|0:0,0:0:0:0:
331,162,34918,5,0,1:2:0:0:
200,91,35097,2,0,P|166:98|132:99,1,68,2|8,0:0|0:0,0:0:0:0:
87,170,35454,1,2,0:0:0:0:
224,238,35633,1,2,1:2:0:0:
246,160,35811,1,0,1:0:0:0:
137,244,35990,2,0,P|152:295|158:319,1,68,10|0,0:0|0:0,0:0:0:0:
314,368,36347,6,0,B|400:355|348:321|450:306,1,136,2|10,1:2|0:0,0:0:0:0:
290,249,36883,1,2,1:2:0:0:
290,249,36972,1,0,1:0:0:0:
290,249,37061,2,0,P|250:244|208:232,1,68,0|2,1:0|1:2,0:0:0:0:
295,91,37418,1,8,0:0:0:0:
245,156,37597,6,0,P|217:158|164:117,1,68,2|0,0:0|0:0,0:0:0:0:
379,109,37954,1,2,0:0:0:0:
330,237,38133,2,0,P|326:203|322:169,1,68,10|0,0:0|1:0,0:0:0:0:
283,67,38490,6,0,P|290:26|290:19,1,34,2|2,1:2|0:0,0:0:0:0:
197,3,38668,2,0,P|199:19|203:36,1,34,2|2,1:2|0:0,0:0:0:0:
144,98,38847,5,10,0:0:0:0:
144,98,38936,1,2,1:2:0:0:
144,98,39025,2,0,P|114:112|97:115,1,34,10|10,0:0|0:0,0:0:0:0:
11,86,39204,5,6,1:2:0:0:
132,191,39383,1,2,0:0:0:0:
54,235,39561,2,0,P|51:194|45:163,1,68,10|2,0:0|0:0,0:0:0:0:
79,40,39918,1,2,1:2:0:0:
11,86,40097,1,2,1:2:0:0:
127,184,40275,2,0,P|169:192|207:208,1,68,10|2,0:0|0:0,0:0:0:0:
294,70,40633,5,2,1:2:0:0:
277,152,40811,1,2,0:0:0:0:
359,169,40990,1,10,0:0:0:0:
376,87,41168,1,2,1:2:0:0:
270,158,41347,2,0,P|275:210|276:239,1,68,2|0,1:2|1:2,0:0:0:0:
167,328,41704,6,0,B|117:317|101:256|122:207|162:241,1,140.25000428009,10|0,0:0|0:0,0:0:0:0:
159,241,42061,1,2,1:2:0:0:
46,299,42240,5,2,0:0:0:0:
0,186,42418,2,0,P|19:128|20:103,1,68,10|2,0:0|1:2,0:0:0:0:
19,121,42686,1,0,1:0:0:0:
19,121,42775,1,2,1:2:0:0:
103,91,42954,1,2,1:2:0:0:
0,0,43133,2,0,P|41:22|67:24,1,68,10|2,0:0|0:0,0:0:0:0:
233,101,43490,5,2,1:2:0:0:
97,175,43668,1,2,0:0:0:0:
139,17,43847,1,10,0:0:0:0:
228,187,44025,1,2,1:2:0:0:
228,187,44115,1,0,1:0:0:0:
228,187,44204,2,0,P|282:198|309:204,1,68,2|0,1:2|1:2,0:0:0:0:
378,53,44561,6,0,B|299:67|333:94|250:105,1,140.25000428009,10|0,0:0|0:0,0:0:0:0:
242,96,44918,1,2,1:2:0:0:
372,139,45097,6,0,P|384:178|362:226,1,68,2|10,0:0|0:0,0:0:0:0:
337,276,45454,1,2,1:2:0:0:
464,222,45633,1,2,1:2:0:0:
422,290,45811,1,0,1:2:0:0:
299,203,45990,2,0,P|266:211|232:217,1,68,10|0,0:0|0:0,0:0:0:0:
328,294,46347,5,0,1:2:0:0:
232,376,46525,2,0,P|241:330|236:289,1,68,2|10,0:0|0:0,0:0:0:0:
183,153,46883,1,0,1:2:0:0:
183,153,46972,1,0,1:2:0:0:
183,153,47061,1,2,1:2:0:0:
153,280,47240,1,0,1:2:0:0:
41,209,47418,2,0,P|47:156|49:126,1,68,10|0,0:0|0:0,0:0:0:0:
148,20,47775,6,0,P|186:28|227:35,1,68,2|2,1:2|0:0,0:0:0:0:
385,43,48133,1,10,0:0:0:0:
255,115,48311,1,2,1:2:0:0:
255,115,48400,1,0,1:2:0:0:
255,115,48490,1,2,1:2:0:0:
372,171,48668,1,2,1:2:0:0:
303,46,48847,1,10,0:0:0:0:
232,224,49025,6,0,P|153:198|44:171,1,187.000005706787,6|8,1:2|0:0,0:0:0:0:
4,309,49561,1,10,0:0:0:0:
24,304,49650,1,2,0:0:0:0:
43,299,49740,2,0,P|79:291|102:284,1,34,2|2,1:2|1:2,0:0:0:0:
139,349,49918,2,0,P|175:357|198:364,3,34,10|2|2|2,1:2|0:0|1:2|1:2,0:0:0:0:
248,325,50275,5,2,1:2:0:0:
244,299,50365,1,2,0:0:0:0:
240,274,50454,1,2,1:2:0:0:
236,249,50543,1,2,1:2:0:0:
232,225,50633,6,0,P|244:161|257:72,1,136,6|8,1:2|0:0,0:0:0:0:
202,23,51168,1,0,1:2:0:0:
332,130,51347,1,10,0:0:0:0:
400,67,51525,2,0,P|431:79|464:89,1,68,2|8,0:0|0:0,0:0:0:0:
477,234,51883,1,2,1:2:0:0:
406,173,52061,6,0,P|339:180|272:192,1,136,8|8,0:0|0:0,0:0:0:0:
207,248,52597,1,0,1:0:0:0:
279,384,52775,1,10,0:0:0:0:
347,259,52954,1,2,1:2:0:0:
215,334,53133,2,0,P|180:322|128:310,1,68,10|0,0:0|1:2,0:0:0:0:
34,225,53490,6,0,P|92:212|110:135,1,136,10|10,0:0|0:0,0:0:0:0:
69,76,54025,1,0,1:0:0:0:
187,4,54204,2,0,P|237:15|281:20,1,68,10|0,0:0|0:0,0:0:0:0:
198,152,54561,2,0,P|185:105|171:77,1,68,10|0,0:0|1:0,0:0:0:0:
351,16,54918,6,0,B|336:100|302:55|287:139,1,136,10|10,0:0|0:0,0:0:0:0:
350,204,55454,1,0,1:2:0:0:
410,95,55633,2,0,P|414:134|422:169,1,68,10|0,0:0|1:0,0:0:0:0:
285,304,55990,2,0,P|281:265|273:230,1,68,14|0,0:0|1:2,0:0:0:0:
195,155,56258,1,8,0:0:0:0:
185,163,56347,6,0,P|106:151|31:132,1,136,14|8,0:0|0:0,0:0:0:0:
127,236,56883,1,0,1:2:0:0:
279,156,57061,1,10,0:0:0:0:
331,231,57240,2,0,P|386:241|424:251,1,68,2|8,0:0|0:0,0:0:0:0:
509,156,57597,1,2,1:2:0:0:
459,301,57775,6,0,P|435:192|421:146,1,136,8|8,0:0|0:0,0:0:0:0:
475,56,58311,1,0,1:0:0:0:
367,106,58490,1,8,0:0:0:0:
318,30,58668,1,2,1:2:0:0:
448,71,58847,1,10,0:0:0:0:
357,199,59025,1,10,0:0:0:0:
357,199,59115,1,8,0:0:0:0:
357,199,59204,6,0,B|281:217|319:238|251:252,1,118.999996368408,6|2,1:2|0:0,0:0:0:0:
368,285,59740,2,0,P|402:294|440:307,1,59.4999981842042,2|8,1:2|0:0,0:0:0:0:
316,352,60097,2,0,P|282:343|244:330,1,59.4999981842042,2|0,0:0|1:0,0:0:0:0:
108,224,60454,6,0,P|167:220|198:170,1,118.999996368408,2|8,1:2|0:0,0:0:0:0:
165,101,60990,1,0,1:2:0:0:
316,46,61168,6,0,P|287:135|274:181,1,118.999996368408,2|2,1:2|1:2,0:0:0:0:
399,227,61704,2,0,P|385:182|367:146,1,59.4999981842042,2|2,1:2|1:2,0:0:0:0:
184,186,62061,5,12,0:0:0:0:
241,349,62240,1,0,1:2:0:0:
282,155,62418,1,0,1:2:0:0:
235,365,62597,1,8,0:0:0:0:
169,173,62775,6,0,P|165:150|157:121,1,29.7499990921021,2|2,0:0|0:0,0:0:0:0:
326,328,62954,2,0,P|330:351|338:380,1,29.7499990921021,2|2,0:0|0:0,0:0:0:0:
290,124,63133,5,8,0:0:0:0:
282,155,63222,1,8,0:0:0:0:
276,187,63311,1,8,0:0:0:0:
270,219,63400,1,8,0:0:0:0:
264,251,63490,5,10,0:0:0:0:
225,45,63668,1,10,0:0:0:0:
260,268,63847,1,10,0:0:0:0:
386,78,64025,1,10,0:0:0:0:
257,285,64204,6,0,L|196:304,1,51,10|0,0:0|0:0,0:0:0:0:
115,333,64561,6,0,B|72:325|77:225|214:236|215:333,1,191.250007295609,2|0,0:0|0:0,0:0:0:0:
234,384,64918,6,0,P|263:247|274:178,1,203.999993774414,6|8,1:2|0:0,0:0:0:0:
390,140,65454,1,0,1:0:0:0:
259,57,65633,1,2,1:2:0:0:
405,135,65811,1,2,1:2:0:0:
261,196,65990,1,10,0:0:0:0:
374,12,66168,1,2,0:0:0:0:
366,219,66347,6,0,B|236:196|331:145|170:127,1,203.999993774414,2|10,1:2|0:0,0:0:0:0:
33,224,66883,1,0,1:0:0:0:
261,196,67061,1,2,1:2:0:0:
90,118,67240,1,2,1:2:0:0:
208,268,67418,1,10,0:0:0:0:
146,43,67597,1,2,0:0:0:0:
33,224,67775,6,0,P|79:228|154:245,1,101.999996887207,2|0,1:2|0:0,0:0:0:0:
297,118,68133,2,0,P|234:134|187:138,1,101.999996887207,10|2,0:0|0:0,0:0:0:0:
197,137,68400,1,0,1:0:0:0:
197,137,68490,1,2,1:2:0:0:
76,303,68668,1,2,1:2:0:0:
28,118,68847,1,10,0:0:0:0:
76,324,69025,1,2,0:0:0:0:
197,137,69204,6,0,B|315:164|256:207|395:224,1,203.999993774414,2|8,1:2|0:0,0:0:0:0:
484,166,69740,1,2,1:2:0:0:
308,150,69918,6,0,P|305:124|298:100,1,50.9999984436036,2|2,1:2|0:0,0:0:0:0:
437,49,70097,2,0,P|430:73|427:98,1,50.9999984436036,2|2,1:2|0:0,0:0:0:0:
379,222,70275,5,10,0:0:0:0:
350,233,70365,1,2,0:0:0:0:
321,244,70454,1,2,1:2:0:0:
292,256,70543,1,2,0:0:0:0:
263,267,70633,6,0,P|206:256|149:248,1,101.999996887207,6|2,1:2|0:0,0:0:0:0:
56,114,70990,1,10,0:0:0:0:
169,168,71168,1,2,0:0:0:0:
82,310,71347,2,0,P|73:244|39:81,1,203.999993774414,2|10,1:2|0:0,0:0:0:0:
123,31,71883,1,2,0:0:0:0:
251,151,72061,5,2,1:2:0:0:
296,34,72240,1,2,0:0:0:0:
165,104,72418,1,10,0:0:0:0:
331,170,72597,1,2,1:2:0:0:
243,262,72775,2,0,P|196:248|112:228,1,101.999996887207,2|0,1:2|1:2,0:0:0:0:
244,364,73133,1,10,0:0:0:0:
336,261,73311,1,2,0:0:0:0:
231,376,73490,6,0,P|147:361|110:297,1,152.999995330811,2|0,1:2|0:0,0:0:0:0:
35,337,73847,2,0,P|18:289|42:228,1,101.999996887207,10|0,0:0|0:0,0:0:0:0:
31,241,74115,1,0,1:0:0:0:
31,241,74204,1,2,1:2:0:0:
135,115,74383,1,0,1:2:0:0:
112,308,74561,1,10,0:0:0:0:
37,158,74740,6,0,B|133:202|72:231|240:285,1,191.250007295609,6|0,1:2|0:0,0:0:0:0:
282,312,75097,2,0,P|275:271|277:234,1,63.7500024318696,12|0,0:0|0:0,0:0:0:0:
325,130,75275,2,0,B|363:160|345:215|278:246|199:163,1,191.250007295609,12|0,0:0|1:0,0:0:0:0:
199,99,75633,6,0,P|249:89|267:83,1,50.9999984436036,2|2,1:2|0:0,0:0:0:0:
325,238,75811,2,0,P|275:248|257:254,1,50.9999984436036,2|2,0:0|0:0,0:0:0:0:
111,292,75990,6,0,B|121:208|138:265|152:135,1,127.500004863739,10|2,0:0|1:2,0:0:0:0:
64,109,76258,1,8,0:0:0:0:
62,126,76347,6,0,P|92:179|232:175,1,203.999993774414,6|8,1:2|0:0,0:0:0:0:
351,61,76883,1,0,1:0:0:0:
275,248,77061,1,2,1:2:0:0:
273,52,77240,1,2,1:2:0:0:
405,239,77418,1,10,0:0:0:0:
214,106,77597,1,2,0:0:0:0:
358,39,77775,6,0,B|424:56|451:108|418:106|466:171|531:170,1,203.999993774414,2|8,1:2|0:0,0:0:0:0:
311,223,78311,1,0,0:0:0:0:
408,133,78490,1,2,1:2:0:0:
260,23,78668,2,0,P|207:44|158:55,1,101.999996887207,2|8,1:2|0:0,0:0:0:0:
390,143,79025,1,2,0:0:0:0:
242,250,79204,6,0,B|269:158|269:158|238:138|231:78,1,152.999995330811,2|0,1:2|0:0,0:0:0:0:
277,18,79561,2,0,P|314:37|296:106,1,101.999996887207,10|0,0:0|0:0,0:0:0:0:
177,180,79918,1,2,1:2:0:0:
97,0,80097,2,0,P|39:27|-4:33,1,101.999996887207,2|8,1:2|0:0,0:0:0:0:
234,97,80454,1,2,0:0:0:0:
16,160,80633,6,0,P|111:194|173:274,1,203.999993774414,2|8,1:2|0:0,0:0:0:0:
76,317,81168,1,0,0:0:0:0:
176,179,81347,6,0,P|167:156|163:131,1,50.9999984436036,2|2,1:2|0:0,0:0:0:0:
259,279,81525,2,0,P|254:304|245:327,1,50.9999984436036,2|2,1:2|0:0,0:0:0:0:
396,161,81704,5,10,0:0:0:0:
371,143,81793,1,2,0:0:0:0:
340,137,81883,1,2,1:2:0:0:
310,144,81972,1,2,0:0:0:0:
285,163,82061,6,0,P|274:220|260:275,1,101.999996887207,6|2,1:2|0:0,0:0:0:0:
394,361,82418,1,10,0:0:0:0:
370,238,82597,1,2,0:0:0:0:
270,343,82775,1,2,1:2:0:0:
448,287,82954,2,0,P|460:228|426:163,1,101.999996887207,0|8,1:0|0:0,0:0:0:0:
378,73,83311,6,0,B|258:94|337:132|167:152,1,203.999993774414,2|2,0:0|0:0,0:0:0:0:
43,59,83847,1,10,0:0:0:0:
157,78,84025,1,2,0:0:0:0:
46,180,84204,2,0,P|36:120|26:61,1,101.999996887207,2|0,1:2|1:2,0:0:0:0:
187,163,84561,5,14,0:0:0:0:
57,265,84740,1,2,1:2:0:0:
148,75,84918,5,14,0:0:0:0:
178,281,85097,1,2,1:2:0:0:
295,68,85275,5,10,0:0:0:0:
264,306,85454,1,0,1:0:0:0:
265,295,85543,1,0,1:0:0:0:
267,283,85633,5,10,0:0:0:0:
424,115,85811,1,2,1:2:0:0:
348,315,85990,1,2,1:2:0:0:
222,139,86168,5,14,0:0:0:0:
467,256,86525,5,14,0:0:0:0:
467,256,86704,1,14,0:0:0:0:
467,256,87418,6,0,P|425:250|391:223,1,76.4999976654053,2|0,0:0|0:0,0:0:0:0:
429,156,87775,6,0,P|351:191|253:205,1,170,6|8,1:2|0:0,0:0:0:0:
148,86,88311,1,2,0:0:0:0:
148,86,88400,1,2,0:0:0:0:
148,86,88490,1,2,1:2:0:0:
270,22,88668,1,2,1:2:0:0:
191,163,88847,2,0,P|182:256|174:284,1,85,10|0,0:0|0:0,0:0:0:0:
339,315,89204,6,0,P|347:245|255:208,1,170,2|8,1:2|0:0,0:0:0:0:
123,312,89740,1,2,1:2:0:0:
123,312,89829,1,2,1:2:0:0:
123,312,89918,1,2,1:2:0:0:
255,353,90097,1,2,1:2:0:0:
106,221,90275,2,0,P|46:210|3:200,1,85,14|2,0:0|1:2,0:0:0:0:
212,84,90633,5,14,0:0:0:0:
185,251,90811,1,2,1:2:0:0:
121,77,90990,1,10,0:0:0:0:
278,163,91168,1,2,1:2:0:0:
278,163,91258,1,2,1:2:0:0:
278,163,91347,5,10,0:0:0:0:
78,242,91525,1,10,0:0:0:0:
348,308,91883,6,0,B|353:337|325:372|325:372|378:322|376:241|336:194|336:194|225:232|245:352,1,458.999985992432,6|0,1:2|0:0,0:0:0:0:
