osu file format v14

[General]
AudioFilename: audio.mp3
AudioLeadIn: 0
PreviewTime: 64159
Countdown: 0
SampleSet: Soft
StackLeniency: 0.3
Mode: 0
LetterboxInBreaks: 0
WidescreenStoryboard: 1

[Editor]
Bookmarks: 19271
DistanceSpacing: 1.35
BeatDivisor: 8
GridSize: 4
TimelineZoom: 1

[Metadata]
Title:MIRACLE RUSH (TV Size)
TitleUnicode:MIRACLE RUSH (TV Size)
Artist:StylipS
ArtistUnicode:StylipS
Creator:Kaguya_Sama
Version:Hard
Source:咲-Saki-阿知賀編 episode of side-A
Tags:Saki: Achiga-hen op opening theme 小倉唯 ogura yui 石原夏織 ishihara kaori 能登有沙 noto arisa 松永真穂 matsunaga maho 山口朗彦 akihiko yamaguchi こだまさおり kodama saori japanese pop jpop j-pop anime episode of side a affirmation neoskylove
BeatmapID:4461451
BeatmapSetID:1844057

[Difficulty]
HPDrainRate:4
CircleSize:3.8
OverallDifficulty:6
ApproachRate:8
SliderMultiplier:1.5
SliderTickRate:1

[Events]
//Background and Video events
0,0,"bg.jpg",0,0
//Break Periods
//Storyboard Layer 0 (Background)
//Storyboard Layer 1 (Fail)
//Storyboard Layer 2 (Pass)
//Storyboard Layer 3 (Foreground)
//Storyboard Layer 4 (Overlay)
//Storyboard Sound Samples

[TimingPoints]
633,357.142857142858,4,2,2,45,1,0
4561,-125,4,2,2,45,0,0
9918,-125,4,2,2,60,0,0
10633,-111.111111111111,4,2,2,78,0,0
16347,-100,4,2,2,80,0,0
19204,-100,4,2,2,88,0,0
21704,-100,4,2,2,70,0,0
22061,-100,4,2,2,82,0,0
24918,-100,4,2,2,88,0,0
25633,-100,4,2,2,92,0,0
26168,-100,4,2,2,85,0,0
27061,-100,4,2,2,90,0,0
27418,-100,4,2,2,80,0,0
27776,-111.111111111111,4,2,2,70,0,0
47686,-111.111111111111,4,2,2,5,0,0
47775,-111.111111111111,4,2,2,70,0,0
49025,-111.111111111111,4,2,2,80,0,0
50633,-111.111111111111,4,2,2,75,0,0
59204,-125,4,2,2,69,0,0
62061,-99.9999999999999,4,2,2,82,0,0
63490,-99.9999999999999,4,2,2,92,0,0
64204,-99.9999999999999,4,2,2,85,0,0
64561,-99.9999999999999,4,2,2,95,0,0
73848,-100,4,2,2,90,0,0
74740,-100,4,2,2,95,0,0
75098,-100,4,2,2,90,0,0
75633,-100,4,2,2,95,0,0
76347,-100,4,2,2,90,0,0
84918,-100,4,2,2,94,0,0
86168,-100,4,2,2,98,0,0
86526,-100,4,2,2,90,0,0
87418,-125,4,2,2,80,0,0
87686,-125,4,2,2,5,0,0
87775,-99.9999999999999,4,2,2,85,0,0
90543,-99.9999999999999,4,2,2,5,0,0
90632,-99.9999999999999,4,2,2,85,0,0
91883,-166.666666666667,4,2,2,85,0,0
91972,-166.666666666667,4,2,2,5,0,0

[Colours]
Combo1 : 237,192,156
Combo2 : 255,157,206
Combo3 : 252,224,173
Combo4 : 247,53,140

[HitObjects]
146,289,4561,6,0,P|143:267|138:243,3,30,2|2|2|2,0:0|0:0|0:0|0:0,0:0:0:0:
155,325,4918,6,0,P|229:337|293:353,1,120,2|2,0:0|0:0,0:0:0:0:
345,317,5454,1,2,0:0:0:0:
325,157,5811,1,2,0:0:0:0:
261,208,5990,2,0,B|219:212|174:186|208:174|157:145|87:155,1,180,2|2,0:0|0:0,0:0:0:0:
31,200,6704,2,0,P|22:228|30:263,1,60,2|0,0:0|0:0,0:0:0:0:
99,298,7061,1,2,0:0:0:0:
99,298,7240,2,0,P|150:288|178:287,1,60,2|0,0:0|0:0,0:0:0:0:
240,331,7597,6,0,P|245:275|256:189,1,120,2|0,0:0|0:0,0:0:0:0:
316,154,8133,1,2,0:0:0:0:
445,257,8490,2,0,P|492:245|513:241,1,60,2|2,0:0|0:0,0:0:0:0:
481,166,8847,2,0,P|434:178|413:182,1,60,2|2,0:0|0:0,0:0:0:0:
325,144,9204,6,0,P|273:88|285:29,1,120,2|0,0:0|0:0,0:0:0:0:
111,67,9918,2,0,L|118:20,3,30,2|2|2|2,0:0|0:0|0:0|0:0,0:0:0:0:
79,103,10275,2,0,L|34:120,3,30,2|2|2|2,0:0|0:0|0:0|0:0,0:0:0:0:
129,109,10633,6,0,P|201:150|268:197,2,134.999995880127,6|0|2,1:2|0:0|0:0,0:0:0:0:
95,183,11525,1,2,0:0:0:0:
131,257,11704,2,0,P|172:249|230:251,1,67.4999979400635,2|2,0:0|0:0,0:0:0:0:
284,286,12061,6,0,P|230:212|258:163,1,134.999995880127,2|2,0:0|0:0,0:0:0:0:
344,53,12775,1,2,0:0:0:0:
344,53,12954,2,0,P|390:60|425:62,1,67.4999979400635,2|2,0:0|0:0,0:0:0:0:
445,140,13311,1,2,0:0:0:0:
412,216,13490,5,2,0:0:0:0:
251,170,13847,1,2,0:0:0:0:
90,124,14204,1,2,0:0:0:0:
90,124,14383,2,0,P|96:178|100:211,1,67.4999979400635,2|0,0:0|0:0,0:0:0:0:
48,254,14740,1,2,0:0:0:0:
122,324,14918,6,0,P|186:258|169:197,1,134.999995880127,2|2,0:0|0:0,0:0:0:0:
228,28,15633,2,0,L|265:21,3,33.7499989700318,2|2|2|2,0:0|0:0|0:0|0:0,0:0:0:0:
207,65,15990,1,2,1:2:0:0:
202,74,16079,1,2,1:2:0:0:
197,84,16168,1,2,1:2:0:0:
83,47,16347,5,6,1:2:0:0:
30,116,16525,1,2,0:0:0:0:
82,184,16704,2,0,P|126:173|169:167,1,75,2|2,1:2|0:0,0:0:0:0:
241,157,17061,2,0,P|223:209|204:312,1,150,2|8,1:2|0:0,0:0:0:0:
277,355,17597,6,0,P|340:313|308:236,1,150,2|2,0:0|0:0,0:0:0:0:
330,162,18133,1,2,1:2:0:0:
407,121,18311,1,2,0:0:0:0:
475,170,18490,2,0,P|469:210|464:251,1,75,2|0,1:2|0:0,0:0:0:0:
485,354,18847,1,10,0:0:0:0:
395,332,19025,1,2,0:0:0:0:
301,304,19204,6,0,P|245:319|196:328,1,75,14|2,0:0|1:2,0:0:0:0:
143,269,19561,1,10,0:0:0:0:
188,182,19740,1,0,1:0:0:0:
188,182,19829,1,0,1:0:0:0:
188,182,19918,1,10,0:0:0:0:
102,124,20097,2,0,P|93:72|83:38,1,75,0|0,1:2|1:2,0:0:0:0:
192,78,20454,5,14,0:0:0:0:
17,260,20811,1,10,0:0:0:0:
17,260,20990,1,10,0:0:0:0:
17,260,21704,6,0,P|90:247|133:242,1,112.5,2|0,0:0|0:0,0:0:0:0:
139,233,22061,6,0,B|231:258|176:295|286:326,1,150,6|8,1:2|0:0,0:0:0:0:
338,281,22597,1,2,0:2:0:0:
417,328,22775,2,0,P|428:277|435:247,1,75,2|0,1:2|1:2,0:0:0:0:
502,206,23133,2,0,P|479:163|443:141,1,75,10|0,1:2|0:0,0:0:0:0:
445,64,23490,6,0,P|374:96|279:110,1,150,2|8,1:2|0:0,0:0:0:0:
245,48,24025,1,2,0:0:0:0:
245,48,24115,1,2,0:0:0:0:
245,48,24204,2,0,P|189:32|149:23,1,75,2|2,1:2|1:2,0:0:0:0:
103,80,24561,2,0,P|111:136|171:177,1,112.5,14|0,0:0|0:0,0:0:0:0:
168,183,24918,6,0,P|225:169|257:164,1,75,14|2,0:0|1:2,0:0:0:0:
330,193,25275,1,10,0:0:0:0:
295,298,25454,1,2,1:2:0:0:
295,298,25543,1,2,1:2:0:0:
295,298,25633,1,14,0:0:0:0:
403,336,25811,1,10,0:0:0:0:
403,336,26168,6,0,P|422:248|447:181,1,150,6|8,1:2|0:0,0:0:0:0:
393,107,26704,2,0,L|381:68,3,37.5,0|0|0|0,1:0|1:0|1:0|1:0,0:0:0:0:
386,127,27061,6,0,P|322:132|227:162,2,150,6|6|6,1:2|1:2|1:2,0:0:0:0:
464,69,27954,6,0,P|404:26|340:-2,1,134.999995880127,2|2,0:0|0:0,0:0:0:0:
285,47,28490,1,2,1:2:0:0:
285,47,28668,1,2,1:2:0:0:
206,12,28847,2,0,P|161:27|118:33,1,67.4999979400635,10|0,0:0|0:0,0:0:0:0:
75,93,29204,6,0,P|40:77|6:71,2,67.4999979400635,2|2|10,1:2|0:0|0:0,0:0:0:0:
124,163,29740,1,2,0:0:0:0:
59,216,29918,2,0,P|49:261|45:300,1,67.4999979400635,2|0,1:2|1:2,0:0:0:0:
18,359,30275,1,10,0:0:0:0:
228,313,30633,1,2,1:2:0:0:
307,350,30811,5,2,0:0:0:0:
386,317,30990,2,0,P|401:283|386:249,1,67.4999979400635,10|0,0:0|1:2,0:0:0:0:
384,245,31258,1,8,0:0:0:0:
384,245,31347,1,2,1:2:0:0:
426,171,31525,1,2,1:2:0:0:
360,116,31704,2,0,P|365:77|368:38,1,67.4999979400635,10|2,0:0|0:0,0:0:0:0:
283,40,32061,6,0,P|278:79|275:118,1,67.4999979400635,2|2,1:2|0:0,0:0:0:0:
210,159,32418,2,0,P|170:167|139:151,1,67.4999979400635,10|2,0:0|1:2,0:0:0:0:
142,138,32686,1,0,1:0:0:0:
142,138,32775,1,2,1:2:0:0:
150,55,32954,1,0,1:2:0:0:
50,26,33133,1,10,0:0:0:0:
12,223,33490,1,2,1:2:0:0:
64,292,33668,6,0,P|111:297|152:307,1,67.4999979400635,2|8,0:0|0:0,0:0:0:0:
201,252,34025,1,2,0:0:0:0:
282,234,34204,2,0,P|272:173|267:147,2,67.4999979400635,2|0|10,1:2|1:0|0:0,0:0:0:0:
422,333,34918,5,0,1:2:0:0:
496,297,35097,2,0,P|510:251|498:208,1,67.4999979400635,2|8,0:0|0:0,0:0:0:0:
458,167,35454,1,2,0:0:0:0:
458,167,35543,1,0,0:0:0:0:
458,167,35633,2,0,P|411:157|382:142,1,67.4999979400635,2|0,1:2|1:0,0:0:0:0:
359,72,35990,1,10,0:0:0:0:
234,178,36347,6,0,B|157:161|195:136|114:120,1,134.999995880127,2|10,1:2|0:0,0:0:0:0:
170,50,36883,2,0,L|160:13,2,33.7499989700318,2|0|0,1:2|1:0|1:0,0:0:0:0:
250,83,37240,2,0,P|231:116|231:160,1,67.4999979400635,2|8,1:2|0:0,0:0:0:0:
151,193,37597,2,0,P|193:219|219:309,1,134.999995880127,2|2,0:0|0:0,0:0:0:0:
163,359,38133,1,10,0:0:0:0:
354,271,38490,6,0,L|400:281,3,33.7499989700318,2|2|2|2,1:2|0:0|1:2|0:0,0:0:0:0:
326,235,38847,2,0,L|271:225,3,33.7499989700318,10|2|10|10,0:0|1:2|0:0|0:0,0:0:0:0:
364,209,39204,6,0,P|390:173|382:136,1,67.4999979400635,6|2,1:2|0:0,0:0:0:0:
338,82,39561,2,0,P|297:96|250:98,1,67.4999979400635,10|2,0:0|0:0,0:0:0:0:
210,42,39918,1,2,1:2:0:0:
210,42,40097,1,2,1:2:0:0:
148,99,40275,2,0,P|116:87|83:82,1,67.4999979400635,10|2,0:0|0:0,0:0:0:0:
8,164,40633,5,2,1:2:0:0:
61,230,40811,1,2,0:0:0:0:
130,179,40990,2,0,P|172:204|187:244,1,67.4999979400635,10|2,0:0|1:2,0:0:0:0:
152,297,41347,2,0,P|79:308|64:314,1,67.4999979400635,2|0,1:2|1:2,0:0:0:0:
218,351,41704,1,10,0:0:0:0:
284,153,42061,1,2,1:2:0:0:
363,114,42240,5,2,0:0:0:0:
444,147,42418,2,0,P|435:199|434:225,1,67.4999979400635,10|2,0:0|1:2,0:0:0:0:
397,287,42775,1,2,1:2:0:0:
397,287,42954,1,2,1:2:0:0:
483,287,43133,2,0,P|508:253|513:222,1,67.4999979400635,10|2,0:0|0:0,0:0:0:0:
471,122,43490,5,2,1:2:0:0:
400,71,43668,1,2,0:0:0:0:
315,91,43847,2,0,P|324:141|328:176,1,67.4999979400635,10|2,0:0|1:2,0:0:0:0:
265,217,44204,2,0,P|215:208|180:204,1,67.4999979400635,2|0,1:2|1:2,0:0:0:0:
216,127,44561,1,10,0:0:0:0:
55,260,44918,1,2,1:2:0:0:
115,201,45097,5,2,0:0:0:0:
48,125,45275,2,0,P|41:70|38:41,1,67.4999979400635,10|2,0:0|1:2,0:0:0:0:
105,10,45633,1,2,1:2:0:0:
105,10,45811,1,0,1:2:0:0:
164,69,45990,2,0,P|206:94|296:86,1,134.999995880127,10|0,0:0|1:2,0:0:0:0:
387,38,46525,5,2,0:0:0:0:
430,121,46704,2,0,P|364:127|340:130,1,67.4999979400635,10|0,0:0|1:2,0:0:0:0:
348,150,46972,1,0,1:2:0:0:
347,151,47061,2,0,P|354:207|357:231,1,67.4999979400635,2|0,1:2|1:2,0:0:0:0:
301,284,47418,2,0,P|259:249|210:262,1,101.249996910095,10|0,0:0|0:0,0:0:0:0:
203,275,47775,6,0,P|210:331|213:355,2,67.4999979400635,2|2|10,1:2|0:0|0:0,0:0:0:0:
133,230,48311,1,2,1:2:0:0:
65,182,48490,2,0,P|58:126|55:102,2,67.4999979400635,2|2|10,1:2|1:2|0:0,0:0:0:0:
2,268,49025,6,0,P|67:290|144:323,1,134.999995880127,6|8,1:2|0:0,0:0:0:0:
208,369,49561,2,0,P|256:359|302:355,1,67.4999979400635,10|2,0:0|1:2,0:0:0:0:
338,292,49918,2,0,P|386:302|432:306,1,67.4999979400635,10|2,1:2|1:2,0:0:0:0:
476,246,50275,2,0,L|489:283,3,33.7499989700318,2|2|2|2,1:2|0:0|1:2|1:2,0:0:0:0:
465,219,50633,6,0,B|453:150|425:183|407:99,1,134.999995880127,6|8,1:2|0:0,0:0:0:0:
266,173,51347,1,10,0:0:0:0:
195,134,51525,2,0,P|194:90|191:59,1,67.4999979400635,2|8,0:0|0:0,0:0:0:0:
121,33,51883,1,2,1:2:0:0:
53,76,52061,6,0,P|57:143|62:212,1,134.999995880127,8|8,0:0|0:0,0:0:0:0:
198,313,52775,1,10,0:0:0:0:
198,313,52954,1,2,1:2:0:0:
268,269,53133,2,0,P|307:278|339:282,1,67.4999979400635,10|0,0:0|1:2,0:0:0:0:
394,341,53490,6,0,P|437:311|433:226,1,134.999995880127,10|10,0:0|0:0,0:0:0:0:
496,173,54025,1,0,1:0:0:0:
435,116,54204,2,0,P|393:129|348:136,1,67.4999979400635,10|0,0:0|0:0,0:0:0:0:
295,97,54561,2,0,P|275:64|276:27,1,67.4999979400635,10|0,0:0|1:0,0:0:0:0:
365,56,54918,6,0,P|319:137|296:194,1,134.999995880127,10|10,0:0|0:0,0:0:0:0:
145,236,55633,2,0,P|98:213|85:173,1,67.4999979400635,10|0,0:0|1:0,0:0:0:0:
90,120,55990,2,0,P|135:119|168:105,1,67.4999979400635,14|0,0:0|1:2,0:0:0:0:
181,121,56258,1,8,0:0:0:0:
181,121,56347,6,0,B|261:136|222:166|312:176,1,134.999995880127,14|8,0:0|0:0,0:0:0:0:
441,268,57061,1,10,0:0:0:0:
366,305,57240,2,0,P|360:252|354:225,1,67.4999979400635,2|8,0:0|0:0,0:0:0:0:
387,164,57597,1,2,1:2:0:0:
333,99,57775,6,0,P|299:140|202:129,2,134.999995880127,8|8|8,0:0|0:0|0:0,0:0:0:0:
282,33,58668,1,2,1:2:0:0:
206,63,58847,2,0,P|165:57|129:51,1,67.4999979400635,10|10,0:0|0:0,0:0:0:0:
129,53,59115,1,8,0:0:0:0:
119,53,59204,6,0,P|122:138|122:181,1,120,6|2,1:2|0:0,0:0:0:0:
62,225,59740,1,2,1:2:0:0:
140,307,59918,2,0,B|225:301|176:279|280:276,1,120,8|0,0:0|1:0,0:0:0:0:
322,331,60454,2,0,P|363:308|371:292,1,60,2|2,1:2|0:0,0:0:0:0:
449,221,60811,2,0,P|430:180|440:140,1,60,8|0,0:0|1:2,0:0:0:0:
453,89,61168,2,0,P|394:134|338:144,1,120,2|2,1:2|1:2,0:0:0:0:
282,104,61704,1,2,1:2:0:0:
216,150,61883,1,2,1:2:0:0:
125,104,62061,6,0,P|133:67|138:30,1,75,12|0,0:0|1:2,0:0:0:0:
37,114,62418,1,0,1:2:0:0:
89,186,62597,2,0,P|80:222|75:259,1,75,8|2,0:0|0:0,0:0:0:0:
131,321,62954,1,2,0:0:0:0:
225,239,63133,1,8,0:0:0:0:
225,239,63222,1,8,0:0:0:0:
225,239,63311,2,0,L|273:250,1,37.5,8|8,0:0|0:0,0:0:0:0:
299,283,63490,5,10,0:0:0:0:
399,273,63668,1,10,0:0:0:0:
448,184,63847,1,10,0:0:0:0:
409,89,64025,1,10,0:0:0:0:
318,44,64204,2,0,P|272:54|163:74,1,150,10|2,0:0|0:0,0:0:0:0:
170,72,64918,6,0,P|245:108|258:179,1,150,6|8,1:2|0:0,0:0:0:0:
204,240,65454,1,0,1:0:0:0:
116,217,65633,2,0,P|117:176|148:148,1,75,2|2,1:2|1:2,0:0:0:0:
199,256,65990,2,0,P|164:297|116:305,1,75,10|2,0:0|0:0,0:0:0:0:
39,245,66347,6,0,P|138:263|208:267,1,150,2|10,1:2|0:0,0:0:0:0:
262,318,66883,1,0,1:0:0:0:
262,318,66972,1,0,1:0:0:0:
262,318,67061,2,0,P|301:292|313:259,1,75,2|2,1:2|1:2,0:0:0:0:
398,257,67418,2,0,P|394:210|372:183,1,75,10|2,0:0|0:0,0:0:0:0:
296,86,67775,6,0,P|369:78|431:117,1,150,2|10,1:2|0:0,0:0:0:0:
477,195,68311,1,2,0:0:0:0:
411,262,68490,1,2,1:2:0:0:
411,262,68668,1,2,1:2:0:0:
324,228,68847,2,0,P|338:182|362:164,1,75,10|2,0:0|0:0,0:0:0:0:
405,278,69204,6,0,P|352:317|254:282,1,150,2|8,1:2|0:0,0:0:0:0:
237,223,69740,1,2,1:2:0:0:
171,332,69918,2,0,P|174:350|186:373,3,37.5,2|2|2|2,1:2|0:0|1:2|0:0,0:0:0:0:
174,297,70275,1,10,0:0:0:0:
177,291,70365,1,2,0:0:0:0:
181,285,70454,1,2,1:2:0:0:
250,212,70633,6,0,P|261:154|239:118,1,75,6|2,1:2|0:0,0:0:0:0:
193,68,70990,1,10,0:0:0:0:
106,91,71168,1,2,0:0:0:0:
105,211,71347,2,0,P|172:247|250:206,1,150,2|10,1:2|0:0,0:0:0:0:
262,126,71883,1,2,0:0:0:0:
338,239,72061,6,0,P|329:269|283:304,1,75,2|2,1:2|0:0,0:0:0:0:
240,214,72418,1,10,0:0:0:0:
262,126,72597,1,2,1:2:0:0:
363,146,72775,2,0,P|388:154|422:198,1,75,2|0,1:2|1:2,0:0:0:0:
425,286,73133,1,10,0:0:0:0:
338,239,73311,1,2,0:0:0:0:
217,306,73490,6,0,B|117:325|177:353|48:368,1,150,2|10,1:2|0:0,0:0:0:0:
0,189,74204,2,0,P|31:221|88:220,1,75,2|0,1:2|1:2,0:0:0:0:
149,160,74561,1,10,0:0:0:0:
120,38,74740,6,0,P|54:106|82:158,1,150,6|12,1:2|0:0,0:0:0:0:
140,243,75275,2,0,P|196:231|225:191,1,75,12|0,0:0|1:2,0:0:0:0:
293,239,75633,2,0,P|304:215|303:183,3,37.5,2|2|2|2,1:2|0:0|0:0|0:0,0:0:0:0:
334,176,75990,2,0,P|318:154|290:139,3,37.5,10|2|2|8,0:0|0:0|1:2|0:0,0:0:0:0:
310,103,76347,6,0,P|237:88|184:158,1,150,6|8,1:2|0:0,0:0:0:0:
208,220,76883,1,0,0:0:0:0:
132,247,77061,2,0,P|113:198|125:164,1,75,2|2,1:2|1:2,0:0:0:0:
48,128,77418,2,0,P|80:81|122:70,1,75,10|2,0:0|0:0,0:0:0:0:
187,137,77775,6,0,P|98:155|15:165,1,150,2|8,1:2|0:0,0:0:0:0:
120,322,78490,1,2,1:2:0:0:
194,294,78668,2,0,P|211:255|197:216,1,75,2|8,1:2|0:0,0:0:0:0:
127,184,79025,1,2,0:0:0:0:
11,240,79204,6,0,P|91:246|134:194,1,150,2|10,1:2|0:0,0:0:0:0:
83,23,79918,1,2,1:2:0:0:
23,95,80097,2,0,P|31:138|56:162,1,75,2|8,1:2|0:0,0:0:0:0:
143,174,80454,1,2,0:0:0:0:
234,87,80633,6,0,B|328:115|270:149|374:172,1,150,2|8,1:2|0:0,0:0:0:0:
450,146,81168,1,0,0:0:0:0:
455,51,81347,2,0,P|432:38|395:44,3,37.5,2|2|2|2,1:2|0:0|1:2|0:0,0:0:0:0:
380,64,81704,1,10,0:0:0:0:
377,74,81793,1,2,0:0:0:0:
381,86,81883,1,2,1:2:0:0:
414,225,82061,6,0,P|387:246|341:247,1,75,6|2,1:2|0:0,0:0:0:0:
285,308,82418,2,0,P|253:295|229:255,1,75,10|2,0:0|0:0,0:0:0:0:
245,164,82775,1,2,1:2:0:0:
151,234,82954,2,0,P|146:200|168:159,1,75,0|8,1:0|0:0,0:0:0:0:
247,84,83311,6,0,P|183:120|113:102,1,150,2|2,0:0|0:0,0:0:0:0:
85,17,83847,1,10,0:0:0:0:
0,46,84025,1,2,0:0:0:0:
27,135,84204,2,0,P|53:171|89:187,1,75,2|0,1:2|1:2,0:0:0:0:
195,249,84561,1,14,0:0:0:0:
259,180,84740,1,2,1:2:0:0:
195,119,84918,6,0,P|216:101|280:103,1,75,14|2,0:0|1:2,0:0:0:0:
345,184,85275,2,0,P|337:220|310:247,1,75,10|0,0:0|1:0,0:0:0:0:
211,264,85633,1,10,0:0:0:0:
283,329,85811,2,0,P|356:320|371:300,1,75,2|2,1:2|1:2,0:0:0:0:
259,181,86168,5,14,0:0:0:0:
38,264,86525,1,14,0:0:0:0:
38,264,86704,1,14,0:0:0:0:
251,215,87418,6,0,P|207:202|146:187,1,90,2|0,0:0|0:0,0:0:0:0:
155,204,87775,6,0,P|146:139|119:48,1,150,6|8,1:2|0:0,0:0:0:0:
213,43,88311,2,0,P|218:20|219:3,2,37.5,2|2|2,0:0|0:0|1:2,0:0:0:0:
277,98,88668,1,2,1:2:0:0:
344,49,88847,2,0,P|381:42|417:70,1,75,10|0,0:0|0:0,0:0:0:0:
462,139,89204,6,0,P|380:155|313:176,1,150,2|8,1:2|0:0,0:0:0:0:
296,260,89740,1,2,1:2:0:0:
296,260,89829,1,2,1:2:0:0:
296,260,89918,2,0,P|323:281|358:319,1,75,2|2,1:2|1:2,0:0:0:0:
227,363,90275,2,0,P|210:297|189:239,1,112.5,14|0,0:0|0:0,0:0:0:0:
180,238,90633,6,0,P|126:251|83:260,1,75,14|2,0:0|1:2,0:0:0:0:
37,220,90990,1,10,0:0:0:0:
72,90,91168,1,2,1:2:0:0:
72,90,91258,1,2,1:2:0:0:
72,90,91347,1,10,0:0:0:0:
198,117,91525,1,10,0:0:0:0:
198,117,91883,6,0,B|252:112|328:164|269:176|305:220|401:209|401:209|423:129|370:81|325:89,1,404.999987640381,6|0,1:2|0:0,0:0:0:0:
