osu file format v14

[General]
AudioFilename: Junsui na Fujunbutsu.mp3
AudioLeadIn: 0
PreviewTime: 126864
Countdown: 0
SampleSet: Soft
StackLeniency: 0.7
Mode: 0
LetterboxInBreaks: 0
WidescreenStoryboard: 0

[Editor]
Bookmarks: 61036
DistanceSpacing: 1.2
BeatDivisor: 4
GridSize: 4
TimelineZoom: 2.299999

[Metadata]
Title:Junsui na Fujunbutsu
TitleUnicode:純粋なフジュンブツ
Artist:StylipS
ArtistUnicode:StylipS
Creator:Garden
Version:FreeSongs' Hato
Source:マンガ家さんとアシスタントさんと
Tags:Mangaka-san to Assistant-san The Comic Artist and His Assistants animation opening full version DreaM117er m1223961117 FreeSongs
BeatmapID:925942
BeatmapSetID:364307

[Difficulty]
HPDrainRate:6.5
CircleSize:4
OverallDifficulty:8
ApproachRate:9.2
SliderMultiplier:1.7
SliderTickRate:1

[Events]
//Background and Video events
0,0,"k.jpg",0,0
//Break Periods
2,89006,97322
//Storyboard Layer 0 (Background)
//Storyboard Layer 1 (Fail)
//Storyboard Layer 2 (Pass)
//Storyboard Layer 3 (Foreground)
//Storyboard Sound Samples

[TimingPoints]
-336,342.857142857143,4,2,1,50,1,0
692,-153.846153846154,4,2,1,50,0,0
2406,-117.647058823529,4,2,1,50,0,0
3778,-111.111111111111,4,2,1,50,0,0
4978,-76.9230769230769,4,2,1,50,0,0
6521,-100,4,2,1,50,0,0
16292,-76.9230769230769,4,2,1,50,0,0
16549,-76.9230769230769,4,2,1,5,0,0
16635,-76.9230769230769,4,2,1,50,0,0
17492,-100,4,2,1,50,0,0
26406,-76.9230769230769,4,2,1,50,0,0
28464,-83.3333333333333,4,2,1,50,0,0
39435,-117.647058823529,4,2,1,50,0,0
43549,-100,4,2,1,50,0,0
50406,-83.3333333333333,4,2,1,50,0,0
55721,-66.6666666666667,4,2,1,60,0,1
64464,-62.5,4,2,1,60,0,1
64806,-58.8235294117647,4,2,1,60,0,1
65149,-55.5555555555556,4,2,1,60,0,1
66006,-50,4,2,1,60,0,0
66692,-66.6666666666667,4,2,1,60,0,1
76464,-100,4,2,1,60,0,1
76806,-66.6666666666667,4,2,1,60,0,1
77149,-153.846153846154,4,2,1,60,0,1
77492,-100,4,2,1,60,0,1
77835,-100,4,2,1,60,0,0
98321,-100,4,2,1,5,0,0
98406,-100,4,2,1,50,0,0
99435,-86.9565217391304,4,2,1,50,0,0
113492,-133.333333333333,4,2,1,50,0,0
114864,-83.3333333333333,4,2,1,50,0,0
127035,-76.9230769230769,4,2,1,60,0,1
137321,-76.9230769230769,4,2,1,60,0,0
138006,-76.9230769230769,4,2,1,60,0,1
147778,-100,4,2,1,60,0,1
149149,-100,4,2,1,60,0,0
159092,-60.6060606060606,4,2,1,60,0,0
159949,-76.9230769230769,4,2,1,60,0,0
171092,-125,4,2,1,60,0,0
173492,-133.333333333333,4,2,1,50,0,0
178464,-100,4,2,1,50,0,0
181035,-90.9090909090909,4,2,1,50,0,0
190121,-200,4,2,1,60,0,0
191492,-133.333333333333,4,2,1,60,0,0
194235,-76.9230769230769,4,2,1,60,0,0
195778,-100,4,2,1,60,0,0
198435,-100,4,2,1,5,0,0
198521,-83.3333333333333,4,2,1,60,0,0
200406,-66.6666666666667,4,2,1,60,0,0
201092,-76.9230769230769,4,2,1,60,0,1
212235,-100,4,2,1,50,0,0
219092,-133.333333333333,4,2,1,50,0,0
220121,-66.6666666666667,4,2,1,50,0,0
220378,-66.6666666666667,4,2,1,5,0,0
220464,-100,4,2,1,50,0,0
231435,-98.0392156862745,4,2,1,50,0,0
233835,-100,4,2,1,5,0,0

[Colours]
Combo1 : 128,255,0
Combo2 : 0,128,255
Combo3 : 255,128,0
Combo4 : 255,0,255

[HitObjects]
76,244,1035,6,0,B|128:220|180:256|180:256|204:208|244:196|292:208|292:208|316:156|292:124|292:124|260:140|272:180,1,386.749982295991,12|0,0:0|0:0,0:0:0:0:
260,288,2406,2,0,B|284:328|308:348|344:356|388:356|432:332|432:332|360:304|352:268|352:268|412:216|372:144|372:144|380:184|360:220,1,505.750009646416,2|0,0:0|0:0,0:0:0:0:
264,168,3778,6,0,B|236:132|204:124|204:124|172:160|128:152,1,152.999995330811,2|2,0:0|0:0,0:0:0:0:
60,36,4292,1,8,0:0:0:0:
196,220,4464,1,8,0:0:0:0:
143,73,4635,1,8,0:0:0:0:
64,276,4806,1,8,0:0:0:0:
276,84,4978,2,0,B|352:76|352:76|420:92|420:92|504:80,1,220.999989883423,4|8,0:0|0:1,0:0:0:0:
256,344,5492,1,8,0:1:0:0:
256,344,6521,6,0,P|208:328|152:336,1,85,4|0,0:0|0:0,0:0:0:0:
104,204,6864,2,0,L|88:384,1,170,8|0,0:0|0:0,0:0:0:0:
188,232,7378,1,2,0:3:0:0:
24,172,7549,1,8,0:0:0:0:
247,159,7721,2,0,L|332:153,1,85,0|2,0:0|0:0,0:0:0:0:
168,56,8064,5,2,0:3:0:0:
188,232,8235,1,8,0:0:0:0:
332,153,8406,2,0,L|432:145,1,85,0|2,0:0|0:3,0:0:0:0:
188,232,8749,1,2,0:3:0:0:
424,152,8921,1,8,0:0:0:0:
424,152,9006,1,2,0:0:0:0:
424,152,9092,2,0,L|520:144,1,85,2|2,0:0|0:3,0:0:0:0:
247,159,9435,5,0,0:0:0:0:
360,76,9606,2,0,P|412:128|360:232,1,170,8|2,0:0|0:3,0:0:0:0:
104,168,10121,1,2,0:3:0:0:
260,136,10292,1,8,0:0:0:0:
192,308,10464,2,0,L|80:304,1,85,2|0,0:3|0:0,0:0:0:0:
384,316,10806,5,0,0:0:0:0:
336,152,10978,1,8,0:0:0:0:
276,311,11149,2,0,L|164:307,1,85,0|2,0:0|0:3,0:0:0:0:
104,168,11492,1,2,0:3:0:0:
283,204,11664,1,8,0:0:0:0:
192,308,11835,2,0,L|136:304,1,42.5,0|0,0:0|0:0,0:0:0:0:
384,316,12006,6,0,P|372:256|256:208,1,170,6|8,0:0|0:0,0:0:0:0:
104,168,12521,1,0,0:0:0:0:
112,152,12606,1,0,0:0:0:0:
120,136,12692,2,0,L|116:40,1,85,2|2,0:3|0:3,0:0:0:0:
64,240,13035,1,8,0:0:0:0:
196,152,13206,1,0,0:0:0:0:
192,308,13378,5,2,0:3:0:0:
24,172,13549,1,2,0:3:0:0:
256,96,13721,1,8,0:0:0:0:
260,264,13892,1,2,0:3:0:0:
264,276,13978,1,2,0:3:0:0:
268,288,14064,1,2,0:3:0:0:
344,84,14235,1,2,0:3:0:0:
340,288,14406,2,0,L|404:256,1,42.5,8|0,0:0|0:0,0:0:0:0:
460,76,14578,2,0,L|396:44,1,42.5,2|0,0:3|0:0,0:0:0:0:
284,176,14749,6,0,L|440:168,1,127.5,2|0,0:0|0:0,0:0:0:0:
504,252,15092,2,0,L|440:256,1,42.5,8|0,0:0|0:0,0:0:0:0:
340,288,15264,1,0,0:0:0:0:
404,144,15435,5,2,0:3:0:0:
244,176,15606,1,2,0:3:0:0:
340,4,15778,1,8,0:0:0:0:
112,88,15949,1,8,0:1:0:0:
164,84,16035,1,8,0:1:0:0:
212,80,16121,2,0,L|264:72,1,42.5,8|0,0:0|0:0,0:0:0:0:
52,32,16292,6,0,B|32:92|32:92|52:152|52:152|28:204,1,165.749992412568,4|0,0:0|0:0,0:0:0:0:
88,276,16635,2,0,P|132:252|304:276,1,220.999989883423,4|8,0:0|0:1,0:0:0:0:
164,84,17149,1,8,0:1:0:0:
164,84,17492,6,0,L|152:176,1,85,6|0,0:0|0:0,0:0:0:0:
260,40,17835,1,8,0:1:0:0:
180,176,18006,1,0,0:0:0:0:
340,84,18178,2,0,L|432:96,1,85,2|0,0:3|0:0,0:0:0:0:
156,196,18521,1,8,0:1:0:0:
264,72,18692,1,0,0:0:0:0:
280,228,18864,6,0,L|288:332,1,85,2|0,0:3|0:0,0:0:0:0:
376,192,19206,1,8,0:1:0:0:
168,280,19378,2,0,P|124:276|80:228,1,85,0|2,0:0|0:3,0:0:0:0:
272,200,19721,1,0,0:0:0:0:
36,300,19892,2,0,P|17:259|37:197,1,85,8|0,0:1|0:0,0:0:0:0:
149,68,20235,6,0,L|157:216,1,127.5,2|0,0:0|0:0,0:0:0:0:
144,224,20578,1,8,0:1:0:0:
64,124,20749,1,0,0:0:0:0:
232,140,20921,1,2,0:3:0:0:
48,96,21092,1,2,0:3:0:0:
140,256,21264,1,8,0:1:0:0:
256,116,21435,2,0,P|308:96|360:100,1,85,0|2,0:0|0:3,0:0:0:0:
428,160,21778,5,0,0:0:0:0:
392,24,21949,1,8,0:1:0:0:
416,244,22121,2,0,L|432:124,1,85,0|2,0:0|0:3,0:0:0:0:
400,348,22464,1,0,0:0:0:0:
267,200,22635,2,0,L|251:80,1,85,8|0,0:1|0:0,0:0:0:0:
200,320,22978,6,0,P|152:344|64:296,1,127.5,2|0,0:0|0:0,0:0:0:0:
24,264,23321,2,0,P|72:240|160:288,1,127.5,8|0,0:1|0:0,0:0:0:0:
84,323,23664,1,2,0:3:0:0:
88,164,23835,1,2,0:3:0:0:
64,336,24006,1,8,0:1:0:0:
68,156,24178,2,0,L|72:64,1,85,0|2,0:0|0:0,0:0:0:0:
24,264,24521,5,0,0:0:0:0:
168,188,24692,2,0,P|216:180|288:184,1,85,8|0,0:1|0:0,0:0:0:0:
68,156,25035,1,2,0:3:0:0:
240,100,25206,1,2,0:3:0:0:
200,264,25378,2,0,P|196:308|200:352,1,85,8|0,0:1|0:0,0:0:0:0:
408,344,25721,6,0,P|380:276|264:272,1,170,2|8,0:3|0:1,0:0:0:0:
312,368,26235,1,0,0:0:0:0:
316,356,26320,1,0,0:0:0:0:
320,340,26406,2,0,P|372:328|440:344,1,110.499994941712,2|2,0:3|0:3,0:0:0:0:
204,348,26749,2,0,B|152:336|148:304|148:304|164:256|136:208,1,165.749992412568,8|8,0:1|0:1,0:0:0:0:
68,156,27092,5,12,0:0:0:0:
280,200,27264,1,0,0:0:0:0:
52,272,27435,1,8,0:1:0:0:
144,56,27606,1,2,0:0:0:0:
152,64,27692,1,0,0:0:0:0:
160,72,27778,2,0,P|204:76|236:64,1,55.2499974708558,2|0,0:0|0:0,0:0:0:0:
336,32,27949,2,0,P|376:13|397:-12,1,55.2499974708558,0|0,0:0|0:0,0:0:0:0:
452,128,28121,2,0,L|444:216,1,55.2499974708558,8|0,0:1|0:0,0:0:0:0:
220,128,28292,2,0,L|214:72,1,55.2499974708558
304,0,28464,6,0,L|316:168,1,152.999995330811,4|0,0:0|0:0,0:0:0:0:
252,264,28806,1,8,0:1:0:0:
424,192,28978,1,0,0:0:0:0:
248,272,29149,1,2,0:3:0:0:
420,200,29321,1,0,0:0:0:0:
244,280,29492,1,8,0:1:0:0:
416,208,29664,2,0,L|476:208,1,50.9999984436036
364,288,29835,6,0,P|324:248|328:168,1,101.999996887207,2|0,0:3|0:0,0:0:0:0:
360,36,30178,2,0,L|340:212,1,152.999995330811,8|0,0:1|0:0,0:0:0:0:
364,288,30521,1,2,0:3:0:0:
364,288,30692,1,0,0:0:0:0:
426,106,30864,2,0,L|414:222,1,101.999996887207,8|0,0:1|0:0,0:0:0:0:
224,372,31206,6,0,P|168:332|172:228,1,152.999995330811,2|0,0:3|0:0,0:0:0:0:
208,184,31549,1,8,0:1:0:0:
72,312,31721,1,0,0:0:0:0:
248,276,31892,1,2,0:3:0:0:
60,296,32064,1,0,0:0:0:0:
224,372,32235,1,8,0:1:0:0:
216,168,32406,2,0,L|216:100,1,50.9999984436036,2|0,0:0|0:0,0:0:0:0:
132,92,32578,6,0,L|136:228,1,101.999996887207,2|0,0:0|0:0,0:0:0:0:
392,144,32921,2,0,P|368:84|260:68,1,152.999995330811,8|0,0:1|0:0,0:0:0:0:
216,117,33264,1,2,0:3:0:0:
216,117,33435,1,2,0:3:0:0:
416,28,33606,2,0,L|413:129,1,101.999996887207,8|0,0:1|0:0,0:0:0:0:
412,220,33864,1,0,0:0:0:0:
412,220,33949,5,2,0:0:0:0:
304,144,34121,1,2,0:0:0:0:
356,288,34292,2,0,P|404:308|496:248,1,152.999995330811,8|0,0:1|0:0,0:0:0:0:
492,184,34635,2,0,P|444:136|380:136,1,101.999996887207,2|2,0:3|0:3,0:0:0:0:
252,320,34978,1,8,0:3:0:0:
304,144,35149,1,2,0:0:0:0:
108,224,35321,6,0,P|52:228|-24:244,1,101.999996887207,0|0,0:0|0:0,0:0:0:0:
320,164,35664,1,8,0:1:0:0:
224,336,35835,1,0,0:0:0:0:
168,128,36006,2,0,P|168:76|184:24,1,101.999996887207,2|2,0:3|0:3,0:0:0:0:
252,320,36349,2,0,P|252:268|236:216,1,101.999996887207,8|0,0:1|0:0,0:0:0:0:
304,144,36606,1,0,0:0:0:0:
304,144,36692,5,2,0:0:0:0:
336,280,36864,1,2,0:0:0:0:
168,128,37035,1,8,0:1:0:0:
348,8,37206,1,2,0:0:0:0:
348,8,37549,1,2,0:0:0:0:
456,124,37721,1,8,0:1:0:0:
209,84,37892,6,0,P|195:157|237:220,1,152.999995330811,2|0,0:0|0:0,0:0:0:0:
236,219,38235,1,0,0:0:0:0:
300,140,38406,1,0,3:0:0:0:
116,168,38578,2,0,L|188:156,1,50.9999984436036,0|8,0:0|0:1,0:0:0:0:
300,140,38749,1,8,0:1:0:0:
172,64,38921,1,2,0:3:0:0:
332,136,39092,1,8,0:1:0:0:
208,252,39264,1,2,0:3:0:0:
332,136,39435,6,0,L|432:124,1,72.2500013780594,4|0,0:0|0:0,0:0:0:0:
344,240,39778,1,8,0:1:0:0:
344,240,39949,1,8,0:1:0:0:
324,24,40292,5,2,0:3:0:0:
316,236,40464,1,8,0:1:0:0:
300,36,40806,5,2,0:3:0:0:
300,36,40978,1,2,0:3:0:0:
288,232,41321,5,8,0:1:0:0:
276,48,41664,5,2,0:3:0:0:
260,228,41835,2,0,L|248:328,1,72.2500013780594,8|0,0:1|0:0,0:0:0:0:
108,136,42178,5,4,0:0:0:0:
328,140,42521,5,8,0:1:0:0:
328,140,42692,1,8,0:1:0:0:
96,252,42864,1,2,0:3:0:0:
96,252,43035,1,0,0:0:0:0:
288,228,43206,5,8,0:1:0:0:
152,352,43378,1,0,0:0:0:0:
108,136,43549,6,0,L|88:28,1,85,4|0,0:0|0:0,0:0:0:0:
96,252,43892,1,8,0:1:0:0:
240,120,44064,1,0,0:0:0:0:
244,104,44149,1,8,0:1:0:0:
248,88,44235,1,8,0:1:0:0:
288,228,44406,1,0,0:0:0:0:
408,88,44578,2,0,L|516:108,1,85,2|2,0:3|0:3,0:0:0:0:
304,252,44921,6,0,P|300:196|328:144,1,85,6|0,0:0|0:0,0:0:0:0:
416,104,45264,1,8,0:1:0:0:
384,312,45435,1,0,0:0:0:0:
192,236,45606,1,2,0:3:0:0:
408,216,45778,2,0,L|500:208,1,85,2|8,0:3|0:1,0:0:0:0:
304,252,46121,2,0,L|312:180,1,42.5
248,72,46292,6,0,L|236:184,1,85,2|0,0:0|0:0,0:0:0:0:
128,312,46635,1,8,0:1:0:0:
152,128,46806,1,0,0:0:0:0:
304,252,46978,1,2,0:3:0:0:
160,228,47149,1,2,0:3:0:0:
356,172,47321,1,8,0:1:0:0:
72,184,47492,1,0,0:0:0:0:
64,176,47578,1,0,0:1:0:0:
56,168,47664,6,0,L|64:76,1,85,8|0,0:1|0:0,0:0:0:0:
256,184,48006,2,0,L|263:268,1,85,8|0,0:1|0:0,0:0:0:0:
276,376,48349,1,2,0:3:0:0:
160,228,48521,1,2,0:3:0:0:
356,172,48692,2,0,P|416:164|472:176,1,85,8|0,0:1|0:0,0:0:0:0:
268,292,49035,6,0,L|268:132,1,127.5,2|0,0:3|0:0,0:0:0:0:
268,132,49378,1,8,0:1:0:0:
352,248,49549,1,0,0:0:0:0:
184,144,49721,1,2,0:3:0:0:
352,72,49892,1,0,0:0:0:0:
184,168,50064,2,0,P|128:164|80:88,1,127.5,8|0,0:1|0:0,0:0:0:0:
72,88,50406,6,0,L|76:216,1,101.999996887207,4|0,0:0|0:0,0:0:0:0:
80,328,50749,1,8,0:1:0:0:
76,208,50921,1,0,0:0:0:0:
240,320,51092,1,2,0:3:0:0:
104,344,51264,1,2,0:3:0:0:
216,236,51435,2,0,P|276:240|324:340,1,152.999995330811,8|0,0:1|0:0,0:0:0:0:
240,320,51778,5,2,0:3:0:0:
320,176,51949,1,0,0:0:0:0:
372,368,52121,1,8,0:1:0:0:
212,340,52292,1,0,0:0:0:0:
396,208,52464,5,2,0:2:0:0:
236,148,52635,1,8,0:1:0:0:
352,284,52806,1,8,0:1:0:0:
312,16,52978,1,8,0:1:0:0:
88,152,53149,5,4,0:0:0:0:
316,96,53321,2,0,L|248:80,1,50.9999984436036,8|0,0:3|0:0,0:0:0:0:
88,152,53492,1,8,0:1:0:0:
184,60,53664,5,4,0:0:0:0:
118,285,53836,2,0,L|165:234,1,50.9999984436036,8|0,0:3|0:0,0:0:0:0:
184,60,54006,1,8,0:1:0:0:
208,192,54178,5,4,0:0:0:0:
46,22,54350,2,0,L|66:88,1,50.9999984436036,8|0,0:3|0:0,0:0:0:0:
208,192,54521,1,8,0:1:0:0:
468,20,54692,5,4,0:0:0:0:
306,190,54864,2,0,L|326:123,1,50.9999984436036,8|0,0:3|0:0,0:0:0:0:
468,20,55035,1,8,0:1:0:0:
424,304,55206,5,2,0:3:0:0:
382,304,55292,1,0,0:0:0:0:
362,268,55378,1,8,0:1:0:0:
382,231,55464,1,8,0:1:0:0:
424,231,55549,1,8,0:1:0:0:
445,268,55635,1,8,0:1:0:0:
424,304,55721,6,0,P|320:276|148:320,1,255.000009727478,4|0,0:1|0:0,0:0:0:0:
163,118,56235,2,0,P|159:181|128:236,1,127.500004863739,8|0,0:0|0:0,0:0:0:0:
332,128,56578,2,0,L|231:204,1,127.500004863739,2|2,0:3|0:3,0:0:0:0:
76,328,56921,1,8,0:0:0:0:
20,72,57092,2,0,P|100:64|284:180,1,255.000009727478,2|0,0:0|0:0,0:0:0:0:
52,172,57606,2,0,P|124:172|196:252,1,127.500004863739,8|0,0:0|0:0,0:0:0:0:
88,268,57949,1,2,0:3:0:0:
256,192,58121,1,2,0:3:0:0:
424,268,58292,1,8,0:0:0:0:
256,312,58464,6,0,L|256:24,1,255.000009727478,6|0,0:0|0:0,0:0:0:0:
176,232,58978,1,8,0:0:0:0:
176,84,59149,1,0,0:0:0:0:
332,152,59321,1,2,0:3:0:0:
328,4,59492,1,0,0:0:0:0:
328,4,59664,1,8,0:0:0:0:
512,184,59835,6,0,P|484:248|312:216,1,255.000009727478,4|0,0:0|0:0,0:0:0:0:
488,188,60349,2,0,P|432:256|336:208,1,191.250007295609,10|0,0:0|0:0,0:0:0:0:
464,192,60692,2,0,P|428:232|356:192,1,127.500004863739,2|0,0:0|0:0,0:0:0:0:
400,124,61035,2,0,L|440:336,1,191.250007295609,10|0,0:0|0:0,0:0:0:0:
424,348,61378,6,0,P|348:308|268:324,1,127.500004863739,4|0,0:0|0:0,0:0:0:0:
192,360,61721,1,8,0:0:0:0:
192,360,61892,1,0,0:0:0:0:
127,180,62064,2,0,L|119:256,1,63.7500024318696,2|0,0:0|0:0,0:0:0:0:
95,320,62235,2,0,L|101:256,1,63.7500024318696,2|0,0:0|0:0,0:0:0:0:
67,112,62406,2,0,P|131:92|207:136,1,127.500004863739,10|0,0:0|0:0,0:0:0:0:
0,192,62749,6,0,L|127:180,1,127.500004863739,4|0,0:0|0:0,0:0:0:0:
256,164,63092,1,8,0:0:0:0:
256,164,63264,1,0,0:0:0:0:
416,128,63435,2,0,L|422:191,1,63.7500024318696,2|0,0:0|0:0,0:0:0:0:
390,50,63606,2,0,L|397:114,1,63.7500024318696,2|0,0:0|0:0,0:0:0:0:
468,268,63778,2,0,P|400:276|336:180,1,191.250007295609,10|0,0:0|0:0,0:0:0:0:
358,176,64121,6,0,L|231:177,1,127.500004863739,2|0,0:3|0:0,0:0:0:0:
156,256,64464,6,0,P|124:188|188:80,1,204,8|0,0:0|0:0,0:0:0:0:
300,104,64806,6,0,P|194:93|136:180,1,216.750004134178,2|0,0:3|0:0,0:0:0:0:
180,256,65149,6,0,P|154:177|202:110,1,152.999995330811,8|8,0:0|0:1,0:0:0:0:
256,196,65406,1,8,0:1:0:0:
256,196,65492,5,8,0:0:0:0:
156,352,65664,1,0,0:0:0:0:
64,120,65835,1,8,0:0:0:0:
256,196,66006,6,0,B|328:184|380:236|380:236|436:220|504:244|504:244|460:220|448:176,1,340,4|0,0:0|0:0,0:0:0:0:
480,36,66521,1,8,0:0:0:0:
272,328,66692,6,0,P|200:316|148:112,1,255.000009727478,4|0,0:1|0:0,0:0:0:0:
365,110,67206,1,8,0:0:0:0:
299,319,67378,1,0,0:0:0:0:
130,137,67549,2,0,P|176:81|268:56,1,127.500004863739,2|2,0:3|0:3,0:0:0:0:
365,110,67892,1,8,0:0:0:0:
272,328,68064,6,0,B|184:304|184:304|108:312|108:312|0:280,1,255.000009727478,2|0,0:0|0:0,0:0:0:0:
168,224,68578,2,0,B|112:228|112:228|32:204,1,127.500004863739,8|0,0:0|0:0,0:0:0:0:
264,108,68921,1,2,0:3:0:0:
272,328,69092,1,2,0:3:0:0:
168,224,69264,1,8,0:0:0:0:
364,212,69435,6,0,L|504:196,1,127.500004863739,4|0,0:0|0:0,0:0:0:0:
264,300,69778,1,0,0:0:0:0:
272,132,69949,1,8,0:0:0:0:
352,296,70121,1,0,0:0:0:0:
184,140,70293,1,2,0:3:0:0:
364,212,70464,1,0,0:0:0:0:
364,212,70635,1,8,0:0:0:0:
144,304,70806,6,0,B|76:196|76:196|96:44,1,255.000009727478,4|0,0:0|0:0,0:0:0:0:
148,228,71321,2,0,B|97:146|97:146|112:32,1,191.250007295609,10|0,0:0|0:0,0:0:0:0:
152,152,71664,2,0,B|118:98|118:98|128:22,1,127.500004863739,2|0,0:0|0:0,0:0:0:0:
340,72,72006,2,0,B|280:60|280:60|200:76|200:76|260:88,1,191.250007295609,10|0,0:0|0:0,0:0:0:0:
344,108,72349,6,0,B|404:120|404:120|484:104|484:104|424:92,1,191.250007295609,4|0,0:0|0:0,0:0:0:0:
405,7,72692,2,0,P|356:47|344:108,1,127.500004863739,8|0,0:0|0:0,0:0:0:0:
436,290,73035,1,2,0:3:0:0:
436,94,73206,1,2,0:3:0:0:
436,94,73378,1,8,0:0:0:0:
328,260,73549,6,0,B|240:276|240:276|168:252|168:252|76:272,1,255.000009727478,0|0,0:0|0:0,0:0:0:0:
260,192,74064,1,10,0:0:0:0:
148,332,74235,1,0,0:0:0:0:
232,112,74406,1,2,0:0:0:0:
224,356,74578,1,2,0:3:0:0:
32,176,74749,1,8,0:0:0:0:
316,124,74921,1,0,0:0:0:0:
60,246,75092,6,0,B|60:182|60:182|32:118|32:118|32:190,1,191.250007295609,2|0,0:0|0:0,0:0:0:0:
104,100,75435,2,0,B|132:164|132:164|132:252,1,127.500004863739,8|0,0:0|0:0,0:0:0:0:
176,44,75778,1,2,0:3:0:0:
208,228,75949,1,2,0:3:0:0:
256,4,76121,1,8,0:0:0:0:
256,168,76292,1,0,0:0:0:0:
348,48,76464,6,0,L|315:119,1,42.5,4|0,0:0|0:0,0:0:0:0:
304,228,76635,2,0,L|304:156,1,42.5,0|0,0:0|0:0,0:0:0:0:
406,99,76806,6,0,L|380:157,1,63.7500024318696,8|0,0:0|0:0,0:0:0:0:
380,221,76978,2,0,L|380:149,1,63.7500024318696,0|0,0:0|0:0,0:0:0:0:
480,120,77149,6,0,L|458:165,1,27.6249987354279,8|0,0:1|0:0,0:0:0:0:
452,246,77321,2,0,L|452:194,1,27.6249987354279,8|0,0:1|0:0,0:0:0:0:
424,60,77492,6,0,L|391:131,1,42.5,8|0,3:0|0:0,0:0:0:0:
380,263,77664,2,0,L|380:191,1,42.5,8|0,3:1|0:0,0:0:0:0:
280,92,77835,6,0,P|232:80|124:104,1,127.5,4|0,0:1|0:0,0:0:0:0:
128,116,78178,2,0,P|88:124|24:112,1,85,8|0,0:0|0:0,0:0:0:0:
80,16,78521,1,0,0:0:0:0:
88,204,78692,2,0,L|92:308,1,85,0|8,0:0|0:0,0:0:0:0:
304,308,79035,6,0,P|280:260|160:236,1,170,2|2,0:0|0:3,0:0:0:0:
204,328,79549,1,8,0:0:0:0:
344,192,79721,1,0,0:0:0:0:
372,372,79892,1,2,0:3:0:0:
204,308,80064,1,2,0:3:0:0:
356,184,80235,1,8,0:1:0:0:
368,176,80321,1,2,0:0:0:0:
384,168,80406,1,2,0:0:0:0:
276,272,80578,6,0,P|260:212|292:128,1,127.5,2|0,0:3|0:0,0:0:0:0:
300,124,80921,2,0,P|308:76|284:12,1,85,8|0,0:0|0:0,0:0:0:0:
344,192,81264,1,2,0:3:0:0:
204,84,81435,1,0,0:0:0:0:
376,0,81606,1,8,0:0:0:0:
216,180,81778,6,0,P|128:172|24:192,1,170,2|0,0:3|0:0,0:0:0:0:
300,124,82292,1,8,0:0:0:0:
264,312,82464,1,0,0:0:0:0:
116,248,82635,1,2,0:3:0:0:
204,84,82806,1,2,0:3:0:0:
264,312,82978,1,8,0:0:0:0:
88,152,83149,1,0,0:0:0:0:
300,124,83321,6,0,L|428:132,1,127.5,6|0,0:0|0:0,0:0:0:0:
496,80,83664,2,0,P|512:128|492:192,1,85,8|0,0:0|0:0,0:0:0:0:
344,284,84006,1,2,0:3:0:0:
432,156,84178,1,2,0:3:0:0:
484,344,84349,1,8,0:0:0:0:
328,260,84521,1,0,0:0:0:0:
500,232,84692,5,2,0:3:0:0:
500,232,84864,2,0,L|508:160,1,42.5,2|2,0:3|0:3,0:0:0:0:
312,240,85035,5,8,0:0:0:0:
312,240,85206,2,0,L|304:168,1,42.5,2|2,0:3|0:3,0:0:0:0:
408,76,85378,5,2,0:3:0:0:
408,76,85549,1,2,0:3:0:0:
252,136,85721,5,8,0:0:0:0:
230,134,85806,1,0,0:0:0:0:
209,133,85892,1,0,0:0:0:0:
188,131,85978,1,0,0:0:0:0:
167,130,86064,2,0,B|160:32|160:32|195:74,1,127.5,2|0,0:0|0:0,0:0:0:0:
200,208,86406,2,0,P|128:208|96:172,1,85,8|0,0:0|0:0,0:0:0:0:
308,72,86749,5,2,0:3:0:0:
192,292,86921,1,2,0:3:0:0:
80,128,87092,1,8,0:0:0:0:
360,140,87264,1,0,0:0:0:0:
380,148,87349,1,8,0:1:0:0:
400,156,87435,1,8,0:0:0:0:
192,292,87606,1,4,0:0:0:0:
192,292,87949,6,0,B|240:312|288:288|288:288|336:308|380:288|380:288|360:316|296:320,1,255,4|8,0:0|0:1,0:0:0:0:
92,320,88806,1,4,0:0:0:0:
92,256,97892,6,0,L|108:200,1,42.5,8|0,0:1|0:0,0:0:0:0:
108,48,98064,2,0,L|124:196,1,127.5,8|0,0:1|0:0,0:0:0:0:
176,244,98406,5,4,0:0:0:0:
28,120,98578,1,0,0:0:0:0:
196,100,98749,1,8,0:1:0:0:
92,256,98921,2,0,L|44:264,1,42.5,2|8,0:0|0:1,0:0:0:0:
121,174,99092,1,8,0:1:0:0:
148,340,99264,1,0,0:0:0:0:
28,120,99435,1,8,0:1:0:0:
61,85,99520,1,0,0:0:0:0:
107,68,99606,1,0,0:0:0:0:
155,73,99692,1,0,0:0:0:0:
196,100,99778,6,0,P|247:125|300:123,1,97.7500018644333,2|0,0:0|0:0,0:0:0:0:
388,52,100121,1,8,0:1:0:0:
336,196,100292,1,0,0:0:0:0:
380,44,100464,1,2,0:3:0:0:
340,212,100635,1,2,0:3:0:0:
372,36,100806,1,8,0:1:0:0:
344,228,100978,2,0,L|280:216,1,48.8750009322167,0|0,0:0|0:0,0:0:0:0:
189,131,101149,6,0,L|321:123,1,97.7500018644333,2|0,0:3|0:0,0:0:0:0:
416,116,101492,1,8,0:1:0:0:
196,228,101664,2,0,P|136:216|96:156,1,97.7500018644333,0|2,0:0|0:3,0:0:0:0:
292,27,102006,2,0,L|284:155,1,97.7500018644333,2|8,0:3|0:1,0:0:0:0:
272,296,102349,1,0,0:0:0:0:
110,191,102521,6,0,P|89:133|120:68,1,97.7500018644333,2|0,0:3|0:0,0:0:0:0:
180,28,102864,1,8,0:1:0:0:
196,228,103035,1,0,0:0:0:0:
200,40,103206,1,2,0:3:0:0:
172,236,103378,1,2,0:3:0:0:
220,52,103549,1,8,0:1:0:0:
148,244,103721,2,0,L|80:240,1,48.8750009322167,2|0,0:0|0:0,0:0:0:0:
272,196,103892,6,0,L|412:204,1,97.7500018644333,0|0,0:0|0:0,0:0:0:0:
480,204,104235,1,8,0:1:0:0:
360,336,104406,1,0,0:0:0:0:
428,140,104578,1,2,0:3:0:0:
452,320,104749,1,2,0:3:0:0:
272,196,104921,2,0,L|174:190,1,97.7500018644333,8|0,0:1|0:0,0:0:0:0:
312,108,105264,5,2,0:3:0:0:
228,284,105435,1,0,0:0:0:0:
100,120,105606,2,0,L|2:114,1,97.7500018644333,8|0,0:1|0:0,0:0:0:0:
272,196,105949,2,0,L|369:190,1,97.7500018644333,2|2,0:3|0:3,0:0:0:0:
136,264,106292,1,8,0:1:0:0:
184,56,106464,1,2,0:0:0:0:
312,180,106635,2,0,L|409:174,1,97.7500018644333,0|0,0:0|0:0,0:0:0:0:
148,248,106978,1,8,0:1:0:0:
196,68,107149,1,0,0:0:0:0:
352,204,107321,6,0,L|449:198,1,97.7500018644333,2|2,0:3|0:3,0:0:0:0:
214,185,107664,2,0,L|311:179,1,97.7500018644333,8|0,0:1|0:0,0:0:0:0:
311,179,107921,1,0,0:0:0:0:
311,179,108006,1,2,0:0:0:0:
208,308,108178,1,2,0:0:0:0:
148,132,108349,1,8,0:1:0:0:
364,92,108521,2,0,L|344:308,1,195.500003728867,2|2,0:0|0:0,0:0:0:0:
336,384,109035,1,8,0:1:0:0:
80,196,109206,6,0,P|56:144|144:32,1,195.500003728867,2|0,0:0|0:0,0:0:0:0:
268,90,109721,2,0,P|332:98|400:73,1,97.7500018644333,0|0,3:0|0:0,0:0:0:0:
396,68,109978,1,8,0:1:0:0:
396,68,110064,5,8,0:1:0:0:
364,176,110235,5,2,0:3:0:0:
376,260,110406,5,8,0:1:0:0:
416,316,110578,5,2,0:3:0:0:
456,336,110749,5,4,0:0:0:0:
364,176,111092,5,8,0:1:0:0:
512,180,111264,1,8,0:1:0:0:
224,224,111606,5,2,0:3:0:0:
376,260,111778,1,8,0:1:0:0:
436,112,112121,5,2,0:3:0:0:
416,316,112293,1,2,0:3:0:0:
456,336,112635,5,8,0:1:0:0:
224,224,112978,5,2,0:3:0:0:
436,112,113149,1,8,0:1:0:0:
256,152,113321,1,0,0:0:0:0:
236,144,113406,1,0,0:0:0:0:
220,136,113492,2,0,L|140:144,1,63.7500024318696,4|2,0:0|0:3,0:0:0:0:
128,136,114006,5,8,0:1:0:0:
104,300,114349,5,0,0:0:0:0:
104,128,114521,1,8,0:1:0:0:
224,224,114692,2,0,L|208:280,1,31.8750012159348,0|0,0:0|0:0,0:0:0:0:
56,212,114864,6,0,P|12:140|56:40,1,152.999995330811,4|0,0:0|0:0,0:0:0:0:
92,32,115206,2,0,L|160:28,1,50.9999984436036,8|0,0:1|0:0,0:0:0:0:
200,96,115378,1,0,0:0:0:0:
212,104,115464,1,0,0:0:0:0:
224,112,115549,2,0,L|292:108,1,50.9999984436036,8|0,0:1|0:0,0:0:0:0:
376,36,115721,1,8,0:1:0:0:
496,132,115892,1,8,0:1:0:0:
352,192,116064,1,0,0:0:0:0:
436,304,116235,6,0,L|440:196,1,101.999996887207,6|0,0:0|0:0,0:0:0:0:
220,325,116578,2,0,L|224:217,1,101.999996887207,8|0,0:1|0:0,0:0:0:0:
332,176,116921,1,2,0:3:0:0:
332,332,117092,1,2,0:3:0:0:
128,280,117264,2,0,L|132:172,1,101.999996887207,8|0,0:1|0:0,0:0:0:0:
256,104,117606,5,2,0:0:0:0:
116,160,117778,1,0,0:0:0:0:
284,96,117949,2,0,L|408:104,1,101.999996887207,8|0,0:1|0:0,0:0:0:0:
112,16,118292,1,2,0:3:0:0:
131,178,118464,1,2,0:3:0:0:
316,88,118635,2,0,L|440:96,1,101.999996887207,8|0,0:1|0:0,0:0:0:0:
456,96,118892,1,0,0:0:0:0:
456,96,118978,5,8,0:1:0:0:
292,180,119149,1,0,0:0:0:0:
480,176,119321,2,0,B|492:236|492:236|484:312,1,101.999996887207,8|0,0:1|0:0,0:0:0:0:
268,272,119664,1,2,0:3:0:0:
400,156,119835,1,2,0:3:0:0:
424,336,120006,2,0,B|383:331|383:331|323:343,1,101.999996887207,8|0,0:1|0:0,0:0:0:0:
144,256,120349,6,0,B|184:251|184:251|244:263,1,101.999996887207,2|0,0:3|0:0,0:0:0:0:
299,78,120692,2,0,L|291:194,1,101.999996887207,8|0,0:1|0:0,0:0:0:0:
128,364,121035,2,0,L|120:262,1,101.999996887207,2|0,0:3|0:0,0:0:0:0:
112,140,121378,1,8,0:1:0:0:
36,296,121549,1,0,0:0:0:0:
216,216,121721,6,0,P|284:208|344:232,1,101.999996887207,4|0,0:0|0:0,0:0:0:0:
512,272,122064,2,0,P|444:280|384:256,1,101.999996887207,8|0,0:1|0:0,0:0:0:0:
448,72,122406,2,0,L|464:200,1,101.999996887207,2|2,0:3|0:3,0:0:0:0:
302,317,122749,2,0,L|314:215,1,101.999996887207,8|0,0:1|0:0,0:0:0:0:
332,76,123092,5,2,0:3:0:0:
460,173,123264,1,0,0:0:0:0:
216,132,123435,2,0,L|84:140,1,101.999996887207,8|0,0:1|0:0,0:0:0:0:
332,76,123778,1,2,0:3:0:0:
268,224,123949,2,0,L|188:216,1,50.9999984436036,8|0,0:1|0:0,0:0:0:0:
148,48,124121,2,0,L|198:44,1,50.9999984436036,8|0,0:1|0:0,0:0:0:0:
332,76,124292,2,0,L|324:144,1,50.9999984436036,8|0,0:1|0:0,0:0:0:0:
302,317,124464,5,4,0:0:0:0:
432,260,124635,2,0,L|484:236,1,50.9999984436036,8|2,0:3|0:0,0:0:0:0:
508,228,124806,1,8,0:1:0:0:
268,224,124978,5,4,0:0:0:0:
352,109,125149,2,0,L|384:64,1,50.9999984436036,8|2,0:3|0:0,0:0:0:0:
400,44,125320,1,8,0:1:0:0:
168,224,125492,5,4,0:0:0:0:
183,82,125664,2,0,L|188:24,1,50.9999984436036,8|2,0:3|0:0,0:0:0:0:
192,4,125834,1,8,0:1:0:0:
208,312,126006,5,4,0:0:0:0:
352,109,126178,2,0,L|388:60,1,50.9999984436036,8|2,0:3|0:0,0:0:0:0:
400,44,126349,1,8,0:1:0:0:
190,215,126520,5,2,0:3:0:0:
178,219,126606,1,2,0:0:0:0:
168,224,126692,2,0,L|156:152,1,50.9999984436036,8|8,0:1|0:1,0:0:0:0:
304,212,126863,2,0,L|296:304,1,50.9999984436036,8|8,0:1|0:1,0:0:0:0:
64,172,127035,6,0,P|80:120|240:120,1,220.999989883423,4|0,0:1|0:0,0:0:0:0:
386,187,127549,2,0,B|318:195|318:195|246:171,1,110.499994941712,8|0,0:0|0:0,0:0:0:0:
424,68,127892,1,2,0:3:0:0:
460,268,128064,1,2,0:3:0:0:
460,268,128235,1,8,0:0:0:0:
260,156,128406,6,0,B|278:242|278:242|258:298|258:298|270:370,1,220.999989883423,2|0,0:0|0:0,0:0:0:0:
176,224,128921,1,8,0:0:0:0:
360,304,129092,1,0,0:0:0:0:
168,320,129264,2,0,B|128:296|128:296|44:300,1,110.499994941712,2|2,0:3|0:3,0:0:0:0:
284,232,129606,1,8,0:0:0:0:
48,312,129778,6,0,P|20:236|84:104,1,220.999989883423,2|0,0:0|0:0,0:0:0:0:
208,56,130292,1,8,0:0:0:0:
176,224,130464,1,0,0:0:0:0:
64,88,130635,1,2,0:3:0:0:
284,232,130806,1,0,0:0:0:0:
284,232,130978,1,8,0:0:0:0:
208,56,131149,6,0,B|268:40|312:64|312:64|336:36|380:28|380:28|332:-16,1,220.999989883423,2|0,0:0|0:0,0:0:0:0:
108,60,131664,2,0,P|128:124|188:160,1,110.499994941712,10|0,0:0|0:0,0:0:0:0:
388,232,132006,2,0,P|322:217|261:251,1,110.499994941712,2|0,0:0|0:0,0:0:0:0:
100,384,132349,2,0,P|145:334|146:264,1,110.499994941712,10|0,0:0|0:0,0:0:0:0:
24,140,132692,6,0,L|260:132,1,220.999989883423,4|8,0:0|0:0,0:0:0:0:
424,128,133206,1,0,0:0:0:0:
408,282,133378,2,0,P|388:234|392:186,1,55.2499974708558,2|0,0:0|0:0,0:0:0:0:
512,128,133549,2,0,P|505:154|491:178,1,55.2499974708558,2|0,0:0|0:0,0:0:0:0:
332,160,133721,2,0,L|192:168,1,110.499994941712,10|0,0:0|0:0,0:0:0:0:
52,176,134064,5,4,0:0:0:0:
184,84,134235,1,0,0:0:0:0:
192,256,134406,1,8,0:0:0:0:
28,176,134578,1,0,0:0:0:0:
221,166,134749,2,0,L|312:160,1,55.2499974708558,2|0,0:0|0:0,0:0:0:0:
220,348,134921,2,0,L|129:342,1,55.2499974708558,2|0,0:0|0:0,0:0:0:0:
100,248,135092,2,0,L|288:264,1,165.749992412568,10|0,0:0|0:0,0:0:0:0:
328,336,135435,6,0,P|360:276|296:164,1,165.749992412568,2|0,0:3|0:0,0:0:0:0:
316,48,135778,2,0,P|284:108|348:220,1,165.749992412568,8|0,0:0|0:0,0:0:0:0:
208,180,136121,2,0,L|68:172,1,110.499994941712,2|2,0:3|0:3,0:0:0:0:
392,124,136464,2,0,L|532:116,1,110.499994941712,8|8,0:0|0:1,0:0:0:0:
502,117,136721,1,8,0:1:0:0:
502,117,136806,5,8,0:0:0:0:
312,196,136978,1,0,0:0:0:0:
424,20,137149,1,8,0:0:0:0:
344,296,137321,2,0,B|304:308|268:296|268:296|224:328|168:308|168:308|208:344,1,220.999989883423,4|0,0:0|0:0,0:0:0:0:
468,216,137835,1,8,0:0:0:0:
208,208,138006,6,0,P|172:152|260:24,1,220.999989883423,4|0,0:1|0:0,0:0:0:0:
312,196,138521,1,8,0:0:0:0:
96,120,138692,1,0,0:0:0:0:
238,29,138864,1,2,0:3:0:0:
152,288,139035,1,2,0:3:0:0:
152,288,139206,1,8,0:0:0:0:
272,128,139378,6,0,B|312:108|352:128|352:128|392:112|432:126|432:126|464:124|464:124|416:96,1,220.999989883423,2|0,0:0|0:0,0:0:0:0:
238,29,139892,1,8,0:0:0:0:
288,236,140064,1,0,0:0:0:0:
144,88,140235,2,0,B|64:80|64:80|0:92,1,110.499994941712,2|2,0:3|0:3,0:0:0:0:
238,29,140578,1,8,0:0:0:0:
108,264,140749,6,0,P|32:224|28:84,1,220.999989883423,4|0,0:0|0:0,0:0:0:0:
288,236,141264,1,8,0:0:0:0:
112,156,141435,1,0,0:0:0:0:
368,160,141606,1,2,0:3:0:0:
204,312,141778,1,0,0:0:0:0:
204,312,141949,1,8,0:0:0:0:
392,376,142121,6,0,B|375:315|375:315|383:235|383:235|367:159,1,220.999989883423,4|0,0:0|0:0,0:0:0:0:
236,24,142635,2,0,L|264:168,1,110.499994941712,10|8,0:0|0:0,0:0:0:0:
257,132,142892,1,0,0:0:0:0:
257,132,142978,1,2,0:0:0:0:
336,20,143149,1,0,0:0:0:0:
288,236,143321,1,10,0:0:0:0:
168,100,143492,1,0,0:0:0:0:
380,192,143664,6,0,L|500:184,1,110.499994941712,4|0,0:0|0:0,0:0:0:0:
320,352,144006,2,0,P|284:296|356:168,1,220.999989883423,8|2,0:0|0:3,0:0:0:0:
424,356,144521,1,2,0:3:0:0:
208,360,144692,1,8,0:0:0:0:
376,272,144864,1,0,0:0:0:0:
188,336,145035,6,0,P|123:328|64:344,1,110.499994941712,2|0,0:0|0:0,0:0:0:0:
356,244,145378,2,0,P|420:236|480:252,1,110.499994941712,10|0,0:0|0:0,0:0:0:0:
108,256,145721,2,0,L|96:132,1,110.499994941712,2|2,0:0|0:3,0:0:0:0:
268,64,146064,1,8,0:0:0:0:
208,224,146235,1,0,0:0:0:0:
28,28,146406,6,0,B|96:40|144:12|144:12|188:16|216:36,1,165.749992412568,2|0,0:0|0:0,0:0:0:0:
268,64,146749,2,0,P|280:128|272:184,1,110.499994941712,8|0,0:0|0:0,0:0:0:0:
177,329,147092,1,2,0:3:0:0:
32,244,147264,6,0,L|40:180,1,55.2499974708558,8|8,0:1|0:1,0:0:0:0:
176,172,147435,2,0,L|184:108,1,55.2499974708558,8|8,0:0|0:1,0:0:0:0:
232,336,147606,2,0,L|177:329,1,55.2499974708558,8|8,0:1|0:1,0:0:0:0:
100,132,147778,6,0,B|136:80|188:76|252:96|260:168|260:168|288:160|320:168|320:168|352:160|416:176,1,340,4|2,0:1|0:3,0:0:0:0:
176,172,148635,1,8,0:1:0:0:
276,40,148806,1,8,0:0:0:0:
288,256,148978,1,0,0:0:0:0:
100,132,149149,6,0,L|108:36,1,85,4|10,0:0|0:0,0:0:0:0:
112,24,149406,1,0,0:0:0:0:
112,24,149492,1,10,0:0:0:0:
92,252,149664,1,0,0:0:0:0:
288,256,149835,1,8,0:1:0:0:
176,172,150006,1,2,0:0:0:0:
32,192,150178,1,2,0:0:0:0:
200,92,150349,6,0,L|208:292,1,170,2|2,0:0|0:0,0:0:0:0:
292,120,150864,1,10,0:0:0:0:
296,84,150949,2,0,L|304:24,1,42.5,0|0,0:0|0:0,0:0:0:0:
336,292,151121,1,0,0:0:0:0:
348,328,151206,2,0,L|364:376,1,42.5,10|0,0:0|0:0,0:0:0:0:
277,217,151378,5,0,0:0:0:0:
314,198,151463,1,0,0:0:0:0:
356,198,151549,1,10,0:0:0:0:
394,218,151635,1,0,0:0:0:0:
432,238,151721,1,2,0:0:0:0:
474,238,151807,1,0,0:0:0:0:
512,220,151892,5,4,0:0:0:0:
336,292,152064,1,4,0:0:0:0:
452,144,152235,1,0,0:0:0:0:
424,344,152406,1,2,0:3:0:0:
244,304,152578,2,0,P|176:300|136:312,1,85,8|0,0:1|0:0,0:0:0:0:
28,160,152921,1,8,0:0:0:0:
28,160,153092,6,0,L|32:360,1,170,4|2,0:0|0:0,0:0:0:0:
112,201,153606,2,0,L|112:244,1,42.5,2|0,0:0|0:0,0:0:0:0:
0,28,153778,2,0,L|65:66,1,42.5,8|0,0:1|0:0,0:0:0:0:
248,44,153949,2,0,L|182:81,1,42.5,2|0,0:3|0:0,0:0:0:0:
28,160,154121,5,8,0:1:0:0:
54,127,154206,1,8,0:1:0:0:
92,109,154292,1,8,0:1:0:0:
134,110,154378,1,8,0:1:0:0:
172,130,154463,1,8,0:1:0:0:
196,164,154549,1,8,0:1:0:0:
203,206,154635,5,4,0:0:0:0:
156,344,154806,1,4,0:0:0:0:
112,201,154978,1,0,0:0:0:0:
296,156,155149,2,0,L|408:152,1,85,2|8,0:3|0:1,0:0:0:0:
203,206,155492,1,2,0:0:0:0:
248,44,155664,1,2,0:0:0:0:
274,265,155835,6,0,P|237:337|156:344,1,170,4|2,0:0|0:3,0:0:0:0:
32,236,156349,1,0,0:0:0:0:
220,120,156521,1,0,0:0:0:0:
188,264,156692,5,8,0:1:0:0:
88,68,156864,1,8,0:1:0:0:
104,288,157035,5,8,0:1:0:0:
164,20,157206,1,8,0:1:0:0:
274,265,157378,5,4,0:0:0:0:
0,156,157549,1,0,0:0:0:0:
388,152,157721,1,8,0:0:0:0:
104,288,157892,5,4,0:0:0:0:
256,0,158235,1,4,0:0:0:0:
408,288,158578,1,4,0:0:0:0:
432,112,158921,5,8,0:0:0:0:
336,320,159092,2,0,B|300:300|264:312|264:312|252:272|208:252,1,140.250001337528,4|0,0:0|0:0,0:0:0:0:
184,248,159349,1,8,0:1:0:0:
184,248,159435,1,8,0:1:0:0:
316,192,159606,1,2,0:0:0:0:
176,340,159778,1,0,0:0:0:0:
24,160,159949,6,0,B|56:144|92:144|124:168|124:168|104:72|192:44|192:44,1,220.999989883423,4|2,0:1|0:3,0:0:0:0:
68,236,160464,1,8,0:0:0:0:
28,72,160635,1,0,0:0:0:0:
72,256,160806,1,2,0:3:0:0:
216,144,160978,1,2,0:3:0:0:
16,180,161149,1,8,0:0:0:0:
228,120,161321,6,0,P|300:108|444:220,1,220.999989883423,4|2,0:0|0:3,0:0:0:0:
152,192,161835,2,0,P|124:136|132:68,1,110.499994941712,8|0,0:0|0:0,0:0:0:0:
296,208,162178,1,2,0:3:0:0:
248,344,162349,1,2,0:3:0:0:
248,344,162521,1,8,0:0:0:0:
260,112,162692,6,0,B|308:124|339:122|339:122|363:144|363:144|387:129|387:129|428:144|511:141,1,220.999989883423,4|2,0:0|0:3,0:0:0:0:
280,200,163206,1,8,0:0:0:0:
372,40,163378,1,0,0:0:0:0:
424,216,163549,1,2,0:3:0:0:
256,88,163721,1,2,0:3:0:0:
256,88,163892,1,8,0:0:0:0:
144,264,164064,1,0,0:0:0:0:
296,212,164235,6,0,L|424:204,1,110.499994941712,2|2,0:0|0:3,0:0:0:0:
440,204,164492,1,0,0:0:0:0:
440,204,164578,1,8,0:0:0:0:
256,136,164749,1,0,0:0:0:0:
440,64,164921,1,2,0:3:0:0:
324,296,165092,2,0,P|264:296|216:232,1,110.499994941712,2|8,0:0|0:0,0:0:0:0:
209,225,165349,2,4,P|215:172|255:135,1,110.499994941712,6|4,0:0|0:0,0:0:0:0:
296,128,165606,5,6,0:0:0:0:
324,296,165778,1,0,0:0:0:0:
144,264,165949,2,0,B|96:248|96:248|16:248,1,110.499994941712,8|0,0:0|0:0,0:0:0:0:
8,272,166206,1,0,0:0:0:0:
8,272,166292,1,2,0:3:0:0:
144,144,166464,1,2,0:3:0:0:
208,348,166635,1,8,0:0:0:0:
36,160,166806,6,0,P|68:64|184:44,1,220.999989883423,4|2,0:0|0:3,0:0:0:0:
344,164,167321,1,8,0:0:0:0:
144,264,167492,1,0,0:0:0:0:
368,184,167664,1,2,0:3:0:0:
136,164,167835,1,2,0:3:0:0:
248,16,168006,1,8,0:0:0:0:
244,256,168178,1,0,0:0:0:0:
480,188,168349,6,0,L|496:76,1,110.499994941712,2|0,0:0|0:0,0:0:0:0:
229,147,168692,2,0,L|244:256,1,110.499994941712,8|0,0:0|0:0,0:0:0:0:
268,376,169035,1,2,0:3:0:0:
368,184,169206,1,2,0:3:0:0:
368,184,169378,1,8,0:0:0:0:
144,264,169549,2,0,B|84:256|84:256|4:268,1,110.499994941712,0|2,0:0|0:0,0:0:0:0:
264,240,169892,5,0,0:0:0:0:
56,180,170064,1,8,0:0:0:0:
224,32,170235,1,0,0:0:0:0:
224,32,170321,1,0,0:0:0:0:
224,32,170406,1,2,0:3:0:0:
128,264,170578,1,2,0:3:0:0:
356,160,170749,1,8,0:0:0:0:
108,72,170921,1,0,0:0:0:0:
264,240,171092,6,0,B|292:243|310:256|310:256|304:217|254:178|254:178|241:211|205:234|205:234|217:270|197:310|197:310|259:299|298:336|298:336|347:338|377:319|393:270|393:270|367:201|363:136|430:96|430:96|404:191|484:249|484:249|486:229|464:195|464:195,1,952,4|8,0:1|0:1,0:0:0:0:
384,28,173835,6,0,P|341:64|303:133,1,127.500004863739,2|0,0:0|0:0,0:0:0:0:
269,22,174349,2,0,P|227:53|81:92,1,191.250007295609,2|0,0:3|0:0,0:0:0:0:
95,92,175206,1,0,0:0:0:0:
95,92,175378,2,0,P|155:88|187:92,1,63.7500024318696,0|2,0:0|0:3,0:0:0:0:
140,172,175721,2,0,P|187:185|273:244,1,127.500004863739,0|2,0:0|0:3,0:0:0:0:
300,336,176235,1,8,0:1:0:0:
184,40,176578,6,0,P|168:100|172:184,1,127.500004863739,2|0,0:0|0:0,0:0:0:0:
344,128,177092,2,0,P|360:188|356:272,1,127.500004863739,2|0,0:3|0:0,0:0:0:0:
300,336,177606,1,0,0:0:0:0:
128,240,177778,1,0,0:0:0:0:
116,236,177864,1,0,0:0:0:0:
104,232,177949,5,4,0:0:0:0:
184,160,178121,1,0,0:0:0:0:
152,340,178292,1,8,0:1:0:0:
8,228,178464,2,0,L|16:116,1,85,8|0,0:1|0:0,0:0:0:0:
20,48,178806,1,2,0:3:0:0:
140,244,178978,1,8,0:1:0:0:
140,244,179321,6,0,P|188:236|248:256,1,85,6|0,0:0|0:0,0:0:0:0:
372,172,179664,2,0,P|324:180|264:160,1,85,8|0,0:1|0:0,0:0:0:0:
168,120,180006,2,0,L|180:24,1,85,2|2,0:3|0:3,0:0:0:0:
392,184,180349,2,0,L|402:268,1,85,8|0,0:1|0:0,0:0:0:0:
223,243,180692,5,2,0:0:0:0:
280,120,180864,1,0,0:0:0:0:
264,352,181035,1,8,0:1:0:0:
200,232,181206,1,0,0:0:0:0:
388,208,181378,2,0,L|484:204,1,93.5000028533936,2|2,0:3|0:3,0:0:0:0:
256,112,181721,2,0,L|162:115,1,93.5000028533936,8|0,0:1|0:0,0:0:0:0:
76,68,181978,1,8,0:1:0:0:
76,68,182064,6,0,P|64:120|92:188,1,93.5000028533936,8|0,0:1|0:0,0:0:0:0:
112,336,182406,1,8,0:1:0:0:
200,232,182578,1,0,0:0:0:0:
32,232,182749,1,2,0:3:0:0:
32,232,182921,1,2,0:3:0:0:
220,208,183092,2,0,L|384:216,1,140.25000428009,8|0,0:1|0:0,0:0:0:0:
384,240,183435,6,0,B|448:244|448:244|488:272,1,93.5000028533936,2|0,0:3|0:0,0:0:0:0:
256,308,183778,1,8,0:1:0:0:
256,308,183949,1,0,0:0:0:0:
400,136,184121,1,2,0:3:0:0:
416,320,184292,1,0,0:0:0:0:
200,224,184464,2,0,P|184:176|244:88,1,140.25000428009,8|0,0:1|0:0,0:0:0:0:
260,92,184806,5,4,0:0:0:0:
256,288,184978,1,0,0:0:0:0:
88,184,185149,1,8,0:1:0:0:
276,172,185321,2,0,L|396:164,1,93.5000028533936,0|2,0:0|0:3,0:0:0:0:
84,264,185664,1,2,0:3:0:0:
132,104,185835,2,0,P|168:144|172:208,1,93.5000028533936,8|0,0:1|0:0,0:0:0:0:
32,352,186178,6,0,P|48:300|156:264,1,140.25000428009,2|0,0:3|0:0,0:0:0:0:
216,272,186521,2,0,P|276:280|348:200,1,140.25000428009,8|0,0:1|0:0,0:0:0:0:
364,144,186864,1,2,0:3:0:0:
368,332,187035,5,8,0:1:0:0:
252,176,187206,1,8,0:1:0:0:
408,32,187378,1,8,0:1:0:0:
432,260,187549,5,4,0:0:0:0:
205,182,187721,2,0,L|261:174,1,46.7500014266968,8|0,0:3|0:0,0:0:0:0:
410,150,187892,2,0,L|354:142,1,46.7500014266968,8|0,0:1|0:0,0:0:0:0:
92,200,188064,5,4,0:0:0:0:
216,44,188235,2,0,L|232:104,1,46.7500014266968,8|0,0:3|0:0,0:0:0:0:
79,245,188406,2,0,L|91:199,1,46.7500014266968,8|0,0:1|0:0,0:0:0:0:
116,88,188578,5,4,0:0:0:0:
129,307,188749,2,0,L|176:304,1,46.7500014266968,8|0,0:3|0:0,0:0:0:0:
332,232,188921,2,0,L|392:236,1,46.7500014266968,8|0,0:1|0:0,0:0:0:0:
228,376,189092,5,4,0:0:0:0:
276,172,189264,2,0,L|292:108,1,46.7500014266968,8|0,0:3|0:0,0:0:0:0:
435,357,189435,2,0,L|424:312,1,46.7500014266968,8|0,0:1|0:0,0:0:0:0:
376,104,189606,6,0,P|348:60|336:52,1,46.7500014266968,0|0,0:0|0:0,0:0:0:0:
116,88,189778,2,0,L|124:168,1,46.7500014266968,8|8,0:1|0:1,0:0:0:0:
327,278,189949,2,0,L|331:231,1,46.7500014266968,8|8,0:1|0:1,0:0:0:0:
184,52,190121,6,0,P|224:100|100:264,1,297.5,4|2,0:1|0:3,0:0:0:0:
32,196,191492,6,0,P|76:164|208:208,1,191.250007295609,4|2,0:0|0:3,0:0:0:0:
200,336,192178,2,0,P|156:368|24:324,1,191.250007295609,4|8,0:0|0:0,0:0:0:0:
268,264,192864,6,0,L|344:260,1,63.7500024318696,2|0,0:0|0:0,0:0:0:0:
444,292,193206,1,0,0:0:0:0:
368,188,193378,1,8,0:1:0:0:
380,344,193549,1,8,0:1:0:0:
512,188,193721,1,8,0:1:0:0:
272,132,193892,1,8,0:1:0:0:
456,372,194064,1,8,0:1:0:0:
352,80,194235,6,0,P|296:40|176:144,1,220.999989883423,4|0,0:0|0:0,0:0:0:0:
435,106,194749,2,0,L|256:134,1,165.749992412568,8|0,0:0|0:0,0:0:0:0:
168,188,195092,2,0,P|156:124|220:32,1,165.749992412568,8|0,0:0|0:0,0:0:0:0:
240,24,195435,1,8,0:0:0:0:
284,268,195606,1,8,0:0:0:0:
148,208,195778,6,0,L|44:216,1,85,4|0,0:0|0:0,0:0:0:0:
260,292,196121,2,0,L|364:300,1,85,2|0,0:3|0:0,0:0:0:0:
192,364,196464,2,0,P|168:328|164:276,1,85,2|0,0:3|0:0,0:0:0:0:
216,136,196806,2,0,P|240:172|244:224,1,85,2|0,0:3|0:0,0:0:0:0:
28,208,197149,1,2,0:3:0:0:
148,208,197321,1,0,0:0:0:0:
12,224,197492,1,2,0:3:0:0:
164,192,197664,2,0,L|344:196,1,170,0|0,0:0|0:0,0:0:0:0:
424,140,198178,2,0,P|440:200|404:280,1,127.5,2|0,0:3|0:0,0:0:0:0:
384,288,198521,5,4,0:0:0:0:
268,100,198692,1,0,0:0:0:0:
208,288,198864,1,8,0:0:0:0:
333,195,199035,1,0,0:0:0:0:
333,195,199121,1,8,0:1:0:0:
333,195,199206,1,8,0:1:0:0:
352,376,199378,1,8,0:1:0:0:
96,216,199549,1,8,0:1:0:0:
376,92,199721,1,8,0:1:0:0:
128,336,199892,5,8,0:0:0:0:
212,36,200064,1,0,0:0:0:0:
448,252,200235,1,8,0:0:0:0:
148,156,200406,2,0,B|104:124|60:144|60:144|12:128|-4:108|-4:108|52:120|120:92,1,255.000009727478,4|8,0:0|0:1,0:0:0:0:
112,96,200835,1,8,0:1:0:0:
144,80,200921,1,8,0:1:0:0:
172,56,201006,1,8,0:1:0:0:
184,24,201092,6,0,L|196:268,1,220.999989883423,4|0,0:1|0:0,0:0:0:0:
312,68,201606,2,0,L|320:200,1,110.499994941712,8|0,0:0|0:0,0:0:0:0:
64,144,201949,2,0,L|72:276,1,110.499994941712,2|2,0:3|0:3,0:0:0:0:
84,368,202292,1,8,0:0:0:0:
264,192,202464,6,0,P|352:176|444:296,1,220.999989883423,2|0,0:0|0:0,0:0:0:0:
192,288,202978,1,8,0:0:0:0:
384,88,203149,1,0,0:0:0:0:
332,280,203321,1,2,0:3:0:0:
180,136,203492,1,2,0:3:0:0:
384,88,203664,1,8,0:0:0:0:
192,288,203835,6,0,B|120:268|44:296|44:296|48:252|8:184,1,220.999989883423,4|0,0:0|0:0,0:0:0:0:
371,193,204349,2,0,P|299:201|243:181,1,110.499994941712,8|0,0:0|0:0,0:0:0:0:
512,324,204692,2,0,P|440:316|384:336,1,110.499994941712,2|0,0:3|0:0,0:0:0:0:
272,380,205035,1,8,0:0:0:0:
220,74,205206,6,0,B|224:138|224:138|188:222|188:222|192:298,1,220.999989883423,4|0,0:0|0:0,0:0:0:0:
140,72,205721,2,0,B|144:124|144:124|112:192,1,110.499994941712,10|8,0:0|0:0,0:0:0:0:
272,288,205978,1,0,0:0:0:0:
272,288,206064,2,0,B|268:236|268:236|292:180,1,110.499994941712,2|0,0:0|0:0,0:0:0:0:
484,140,206406,2,0,B|488:192|488:192|461:246|461:246|468:316,1,165.749992412568,10|0,0:0|0:0,0:0:0:0:
472,336,206749,6,0,P|428:272|320:256,1,165.749992412568,4|0,0:0|0:0,0:0:0:0:
272,288,207092,2,0,P|204:300|136:268,1,110.499994941712,8|0,0:0|0:0,0:0:0:0:
4,40,207435,2,0,P|72:28|140:60,1,110.499994941712,2|2,0:3|0:3,0:0:0:0:
216,196,207778,1,8,0:0:0:0:
60,136,207949,1,0,0:0:0:0:
316,116,208121,6,0,L|428:104,1,110.499994941712,2|0,0:0|0:0,0:0:0:0:
192,188,208464,1,10,0:0:0:0:
348,224,208635,1,0,0:0:0:0:
96,232,208806,1,2,0:0:0:0:
292,124,208978,1,2,0:3:0:0:
176,288,209149,1,8,0:0:0:0:
64,108,209321,1,0,0:0:0:0:
348,224,209492,6,0,L|460:212,1,110.499994941712,4|0,0:0|0:0,0:0:0:0:
284,316,209835,1,8,0:0:0:0:
316,200,210006,2,0,L|428:188,1,110.499994941712,0|2,0:0|0:3,0:0:0:0:
264,328,210349,1,2,0:3:0:0:
288,180,210521,2,0,L|400:168,1,110.499994941712,8|0,0:0|0:0,0:0:0:0:
244,340,210864,5,2,0:0:0:0:
260,156,211035,1,0,0:0:0:0:
344,220,211206,1,8,0:0:0:0:
180,240,211378,1,0,0:0:0:0:
352,128,211549,1,0,0:0:0:0:
212,252,211721,1,0,0:0:0:0:
184,68,211892,1,8,0:0:0:0:
180,52,211978,1,8,0:1:0:0:
176,36,212064,1,0,0:0:0:0:
100,196,212235,6,0,L|16:204,1,85,2|0,0:0|0:0,0:0:0:0:
212,252,212578,2,0,P|264:228|292:136,1,127.5,8|0,0:0|0:0,0:0:0:0:
288,124,212921,1,2,0:3:0:0:
372,256,213092,1,2,0:3:0:0:
200,156,213264,2,0,L|116:164,1,85,8|0,0:0|0:0,0:0:0:0:
327,53,213606,6,0,P|366:102|364:148,1,85,2|2,0:3|0:3,0:0:0:0:
296,243,213949,2,0,L|212:251,1,85,8|0,0:0|0:0,0:0:0:0:
420,188,214292,1,2,0:3:0:0:
328,320,214464,1,2,0:3:0:0:
288,124,214635,1,8,0:0:0:0:
448,200,214806,1,0,0:0:0:0:
268,224,214978,6,0,L|184:232,1,85,2|0,0:0|0:0,0:0:0:0:
52,136,215321,1,8,0:0:0:0:
200,152,215492,1,0,0:0:0:0:
112,280,215664,1,2,0:3:0:0:
288,124,215835,2,0,L|372:132,1,85,2|8,0:3|0:0,0:0:0:0:
176,228,216178,6,0,P|128:184|176:72,1,170,4|2,0:0|0:3,0:0:0:0:
288,124,216692,1,8,0:0:0:0:
236,288,216864,1,0,0:0:0:0:
28,112,217035,1,2,0:3:0:0:
200,152,217206,1,2,0:3:0:0:
76,280,217378,1,8,0:0:0:0:
136,56,217549,1,8,0:1:0:0:
136,56,217635,1,8,0:1:0:0:
136,56,217721,5,2,0:3:0:0:
220,268,217892,1,0,0:0:0:0:
28,144,218064,1,0,0:0:0:0:
292,104,218235,1,8,0:1:0:0:
108,280,218406,1,8,0:1:0:0:
284,24,218578,1,8,0:1:0:0:
422,276,218749,1,8,0:0:0:0:
152,176,218921,2,0,L|220:168,1,42.5,2|2,0:0|0:0,0:0:0:0:
464,112,219092,6,0,B|450:154|464:216|464:216|446:250|452:314|452:314|444:290|422:276,1,255.000009727478,6|0,0:0|0:0,0:0:0:0:
340,272,219949,5,2,0:3:0:0:
340,272,220035,1,2,0:3:0:0:
340,272,220121,2,0,P|388:264|452:376,1,191.250007295609,8|0,0:1|0:0,0:0:0:0:
376,344,220464,6,0,B|324:352|324:352|256:332|256:332|180:344,1,170,4|8,0:0|0:0,0:0:0:0:
108,280,220978,2,0,L|200:264,1,85,0|0,0:0|0:0,0:0:0:0:
52,344,221321,1,2,0:3:0:0:
52,344,221492,1,8,0:0:0:0:
124,196,221664,2,0,P|136:140|128:76,1,85,0|2,0:0|0:0,0:0:0:0:
100,36,222006,5,2,0:3:0:0:
100,36,222178,1,8,0:0:0:0:
228,168,222349,2,0,L|348:176,1,85,0|2,0:0|0:3,0:0:0:0:
416,180,222692,1,2,0:3:0:0:
368,92,222864,1,8,0:0:0:0:
368,92,222949,1,2,0:0:0:0:
368,92,223035,5,2,0:0:0:0:
180,57,223206,2,0,P|221:51|264:56,1,85,2|0,0:3|0:0,0:0:0:0:
92,112,223549,2,0,L|56:189,1,85,8|0,0:0|0:0,0:0:0:0:
60,280,223892,1,2,0:3:0:0:
304,240,224064,1,2,0:3:0:0:
184,284,224235,1,8,0:0:0:0:
364,132,224406,2,0,P|416:188|400:304,1,170,2|0,0:3|0:0,0:0:0:0:
304,240,224921,5,8,0:0:0:0:
372,8,225092,2,0,P|352:80|432:176,1,170,0|2,0:0|0:3,0:0:0:0:
456,72,225606,1,8,0:0:0:0:
256,100,225778,1,0,0:0:0:0:
256,100,225949,6,0,L|136:84,1,85,4|0,0:0|0:0,0:0:0:0:
36,176,226292,2,0,P|76:128|160:124,1,127.5,8|0,0:0|0:0,0:0:0:0:
208,172,226635,2,0,L|292:183,1,85,2|2,0:3|0:3,0:0:0:0:
128,216,226978,1,8,0:0:0:0:
128,216,227149,1,0,0:0:0:0:
84,312,227321,5,2,0:3:0:0:
84,312,227492,2,0,L|32:296,1,42.5,2|2,0:3|0:3,0:0:0:0:
192,304,227664,5,8,0:0:0:0:
192,304,227835,2,0,L|236:280,1,42.5,2|2,0:3|0:3,0:0:0:0:
128,216,228006,5,2,0:3:0:0:
128,216,228178,2,0,L|124:148,1,42.5,2|0,0:3|0:0,0:0:0:0:
256,88,228349,6,0,L|256:132,1,42.5,10|0,0:0|0:0,0:0:0:0:
384,216,228521,2,0,L|388:148,1,42.5,2|2,0:3|0:3,0:0:0:0:
332,28,228692,6,0,P|268:-8|168:36,1,170,6|8,0:0|0:0,0:0:0:0:
124,212,229206,1,2,0:0:0:0:
384,216,229549,1,2,0:0:0:0:
73,148,229892,1,0,0:0:0:0:
440,148,230235,5,2,0:0:0:0:
256,88,230406,1,2,0:0:0:0:
256,348,230749,5,8,0:1:0:0:
73,148,231092,1,8,0:0:0:0:
440,148,231435,6,0,B|372:172|328:116|328:116|296:180|216:180|184:116|184:116|140:172|72:148,1,433.500002645874,4|0,0:0|0:0,0:0:0:0:
257,88,232464,1,4,0:0:0:0:
256,348,232635,1,4,0:0:0:0:
256,192,232721,12,0,233835,0:0:0:0:
