osu file format v14

[General]
AudioFilename: audio.mp3
AudioLeadIn: 0
PreviewTime: 47611
Countdown: 0
SampleSet: Soft
StackLeniency: 0.7
Mode: 0
LetterboxInBreaks: 0
WidescreenStoryboard: 0

[Editor]
DistanceSpacing: 2.2
BeatDivisor: 4
GridSize: 4
TimelineZoom: 3.699998

[Metadata]
Title:Give Me Secret
TitleUnicode:ギブミー・シークレット
Artist:StylipS
ArtistUnicode:StylipS
Creator:Cris-
Version:Wolf's Insane
Source:ハイスクールD×D BorN
Tags:Hey lululu wolf3211 xxdeathx Highschool High School DxD Season 3 Ending TV Size TNK
BeatmapID:1466938
BeatmapSetID:693215

[Difficulty]
HPDrainRate:6
CircleSize:4
OverallDifficulty:7
ApproachRate:8
SliderMultiplier:1.6
SliderTickRate:1

[Events]
//Background and Video events
0,0,"BorN.jpg",0,0
Video,0,"DxDBorNED.flv"
//Break Periods
//Storyboard Layer 0 (Background)
//Storyboard Layer 1 (Fail)
//Storyboard Layer 2 (Pass)
//Storyboard Layer 3 (Foreground)
//Storyboard Sound Samples

[TimingPoints]
48,379.746835443038,4,2,1,50,1,0
1566,-100,4,2,1,55,0,0
3085,-100,4,2,1,60,0,0
3845,-90.9090909090909,4,2,1,65,0,0
4604,-100,4,2,1,70,0,0
4984,-200,4,2,1,25,0,0
5269,-200,4,2,1,5,0,0
5364,-166.666666666667,4,2,1,25,0,0
5649,-200,4,2,1,5,0,0
5744,-142.857142857143,4,2,1,25,0,0
5934,-100,4,2,1,25,0,0
6123,-100,4,2,1,55,0,0
9161,-100,4,2,1,45,0,0
9446,-90.9090909090909,4,2,1,55,0,0
9731,-90.9090909090909,4,2,1,45,0,0
9921,-83.3333333333333,4,2,1,55,0,0
10206,-83.3333333333333,4,2,1,60,0,0
10491,-83.3333333333333,4,2,1,55,0,0
10680,-76.9230769230769,4,2,1,45,0,0
10965,-76.9230769230769,4,2,1,50,0,0
11250,-76.9230769230769,4,2,1,55,0,0
11440,-100,4,2,1,70,0,0
11535,-100,4,2,1,50,0,0
12199,-117.647058823529,4,2,2,50,0,0
22832,-181.818181818181,4,2,1,40,0,0
23782,-181.818181818181,4,2,1,45,0,0
24161,-133.333333333333,4,2,1,50,0,0
24351,-100,4,2,1,65,0,0
47706,-100,4,2,1,35,0,0
48655,-100,4,2,1,70,0,1
59383,-100,4,2,1,5,0,1
59478,-100,4,2,1,70,0,1
59953,-100,4,2,1,5,0,1
60048,-100,4,2,1,60,0,0
60807,-100,4,2,1,70,0,1
71250,-117.647058823529,4,2,1,70,0,1
71535,-117.647058823529,4,2,1,5,0,1
71630,-105.263157894737,4,2,1,70,0,1
71915,-105.263157894737,4,2,1,5,0,1
72010,-95.2380952380951,4,2,1,70,0,1
72294,-95.2380952380951,4,2,1,5,0,1
72389,-86.9565217391304,4,2,1,70,0,1
72674,-95.2380952380951,4,2,1,5,0,1
72769,-86.9565217391304,4,2,1,70,0,1
72959,-100,4,2,1,60,0,0
85111,-100,4,2,1,65,0,0
87389,-100,4,2,1,70,0,0

[Colours]
Combo1 : 183,142,81
Combo2 : 231,35,45
Combo3 : 109,203,239
Combo4 : 236,208,15
Combo5 : 84,207,48
Combo6 : 112,74,54

[HitObjects]
430,88,48,6,0,B|392:100|392:100|354:90,1,80,6|0,0:0|0:0,0:0:0:0:
276,36,332,2,0,P|260:104|280:152,1,120,6|2,0:0|0:0,0:0:0:0:
216,272,807,1,6,0:0:0:0:
96,348,997,6,0,L|104:308,3,40
128,212,1377,1,2,0:0:0:0:
132,188,1472,1,0,0:0:0:0:
136,164,1566,6,0,L|219:153,1,80,6|0,0:0|0:0,0:0:0:0:
296,272,1851,2,0,B|284:232|284:232|304:132,1,120,6|2,0:0|0:0,0:0:0:0:
392,224,2326,1,6,0:0:0:0:
476,108,2516,6,0,L|420:96,3,40,0|0|2|0,0:0|0:0|0:0|0:0,0:0:0:0:
348,64,2896,1,2,0:0:0:0:
325,58,2991,1,0,0:0:0:0:
301,54,3085,6,0,P|245:57|213:117,1,120,6|6,0:0|0:0,0:0:0:0:
176,204,3465,2,0,B|136:212|136:212|92:196,1,80,8|2,0:0|0:0,0:0:0:0:
0,168,3845,6,0,L|8:320,1,132.00000402832,6|6,0:0|0:0,0:0:0:0:
96,364,4225,2,0,B|84:324|84:324|96:260,1,88.000002685547,8|2,0:0|0:0,0:0:0:0:
252,240,4604,5,6,0:0:0:0:
311,236,4984,6,0,L|243:240,1,60
280,152,5364,2,0,L|356:156,1,71.9999978027344
388,72,5744,1,0,0:0:0:0:
388,72,5934,2,0,L|424:68,3,20,2|2|2|2,0:0|0:0|0:0|0:0,0:0:0:0:
472,116,6123,6,0,B|480:156|480:156|460:208,1,80,6|2,0:0|0:0,0:0:0:0:
452,236,6408,1,2,0:0:0:0:
452,236,6503,1,8,0:0:0:0:
376,336,6693,2,0,L|292:332,1,80,0|2,0:0|0:0,0:0:0:0:
160,236,7073,1,2,0:0:0:0:
160,236,7168,1,2,0:0:0:0:
160,236,7263,1,8,0:0:0:0:
256,148,7453,1,0,0:0:0:0:
112,56,7642,6,0,L|204:48,1,80,2|2,0:0|0:0,0:0:0:0:
224,64,7927,1,2,0:0:0:0:
224,64,8022,1,8,0:0:0:0:
348,180,8212,2,0,B|356:144|356:144|340:92,1,80,0|2,0:0|0:0,0:0:0:0:
187,180,8592,1,2,0:0:0:0:
187,180,8687,1,2,0:0:0:0:
187,180,8782,1,8,0:0:0:0:
256,304,8972,1,0,0:0:0:0:
416,324,9161,6,0,L|424:228,1,80,2|2,0:0|0:0,0:0:0:0:
344,200,9446,1,2,0:0:0:0:
344,200,9541,1,8,0:0:0:0:
256,304,9731,1,0,0:0:0:0:
164,268,9921,6,0,B|116:276|116:276|72:260,1,95.9999970703126,2|2,0:0|0:0,0:0:0:0:
24,180,10206,1,2,0:0:0:0:
24,180,10301,1,8,0:0:0:0:
96,48,10491,1,0,0:0:0:0:
188,88,10680,6,0,P|208:136|188:180,1,103.999995239258,2|2,0:0|0:0,0:0:0:0:
276,236,10965,1,2,0:0:0:0:
276,236,11060,1,8,0:0:0:0:
404,184,11250,1,0,0:0:0:0:
404,184,11440,6,0,L|396:136,3,40,2|2|2|2,0:0|0:0|0:0|0:0,0:0:0:0:
448,76,11820,1,2,0:0:0:0:
504,228,12199,6,0,P|458:275|378:243,1,136.000002593994,6|10,0:0|0:0,0:0:0:0:
228,168,12959,1,2,0:0:0:0:
228,168,13149,2,0,L|236:252,1,68.0000012969971,0|10,0:0|0:0,0:0:0:0:
192,352,13529,1,0,0:0:0:0:
64,300,13718,6,0,B|96:304|96:304|144:288,1,68.0000012969971,2|0,0:0|0:0,0:0:0:0:
80,172,14098,2,0,B|48:168|48:168|0:184,1,68.0000012969971,10|0,0:0|0:0,0:0:0:0:
112,80,14478,2,0,P|164:124|176:188,1,136.000002593994,2|10,0:0|0:0,0:0:0:0:
288,236,15048,1,2,0:0:0:0:
360,84,15237,6,0,B|400:76|400:76|456:84|456:84|504:76,1,136.000002593994,2|10,0:0|0:0,0:0:0:0:
400,244,15997,1,2,0:0:0:0:
400,244,16187,2,0,P|412:276|400:312,1,68.0000012969971,0|10,0:0|0:0,0:0:0:0:
288,344,16566,1,0,0:0:0:0:
192,268,16756,6,0,P|180:236|192:200,1,68.0000012969971,2|0,0:0|0:0,0:0:0:0:
240,80,17136,2,0,P|252:112|240:148,1,68.0000012969971,10|0,0:0|0:0,0:0:0:0:
40,124,17516,2,0,B|88:140|88:140|176:116,1,136.000002593994,2|10,0:0|0:0,0:0:0:0:
264,28,18085,1,2,0:0:0:0:
400,124,18275,6,0,L|328:116,1,68.0000012969971,2|0,0:0|0:0,0:0:0:0:
332,244,18655,1,10,0:0:0:0:
452,208,18845,1,0,0:0:0:0:
392,312,19035,2,0,P|332:336|264:304,1,136.000002593994,2|10,0:0|0:0,0:0:0:0:
196,212,19604,1,0,0:0:0:0:
92,288,19794,6,0,B|100:252|100:252|88:212,1,68.0000012969971,2|0,0:0|0:0,0:0:0:0:
0,92,20174,2,0,P|56:80|104:160,1,136.000002593994,10|2,0:0|0:0,0:0:0:0:
196,212,20744,1,0,0:0:0:0:
284,108,20934,2,0,L|292:176,1,68.0000012969971,10|2,0:0|0:0,0:0:0:0:
392,304,21313,6,0,L|403:168,1,136.000002593994,2|10,0:0|0:0,0:0:0:0:
304,8,22073,1,2,0:0:0:0:
494,60,22453,1,10,0:0:0:0:
476,152,22642,1,0,0:0:0:0:
456,244,22832,6,0,P|420:184|400:280,1,220.000006713867,2|8,0:0|0:3,0:0:0:0:
272,336,23972,1,2,0:3:0:0:
184,264,24161,2,0,L|140:256,1,30.0000011444092,2|2,0:0|0:0,0:0:0:0:
44,180,24351,6,0,L|56:264,1,80,6|2,0:0|0:0,0:0:0:0:
52,296,24636,1,2,0:0:0:0:
52,296,24731,1,8,0:0:0:0:
136,160,24921,1,0,0:0:0:0:
104,36,25111,2,0,B|140:48|140:48|188:36,1,80,2|2,0:0|0:0,0:0:0:0:
216,36,25396,1,2,0:0:0:0:
216,36,25491,1,8,0:0:0:0:
340,96,25680,1,0,0:0:0:0:
480,56,25870,6,0,L|472:144,1,80,2|2,0:0|0:0,0:0:0:0:
476,172,26155,1,2,0:0:0:0:
476,172,26250,1,8,0:0:0:0:
408,276,26440,1,0,0:0:0:0:
296,196,26630,2,0,P|252:188|208:220,1,80,2|2,0:0|0:0,0:0:0:0:
221,203,26915,1,2,0:0:0:0:
221,203,27010,1,8,0:0:0:0:
264,336,27199,1,0,0:0:0:0:
96,308,27389,6,0,B|88:268|88:268|96:228,1,80,2|2,0:0|0:0,0:0:0:0:
116,200,27674,1,2,0:0:0:0:
116,200,27769,1,8,0:0:0:0:
168,48,27959,1,0,0:0:0:0:
299,108,28149,2,0,L|292:200,1,80,2|2,0:0|0:0,0:0:0:0:
300,220,28434,1,2,0:0:0:0:
300,220,28529,1,8,0:0:0:0:
428,136,28718,1,0,0:0:0:0:
255,35,28908,6,0,P|295:23|343:35,1,80,2|2,0:0|0:0,0:0:0:0:
356,52,29193,1,2,0:0:0:0:
356,52,29288,1,8,0:0:0:0:
216,140,29478,1,0,0:0:0:0:
104,48,29668,2,0,P|68:40|24:64,1,80,2|2,0:0|0:0,0:0:0:0:
30,57,29953,1,2,0:0:0:0:
30,57,30048,1,8,0:0:0:0:
56,196,30237,1,0,0:0:0:0:
176,232,30427,6,0,B|212:244|212:244|256:232,1,80,2|2,0:0|0:0,0:0:0:0:
284,216,30712,1,2,0:0:0:0:
284,216,30807,1,12,0:0:0:0:
416,200,30997,1,0,0:0:0:0:
504,308,31187,2,0,L|412:300,1,80,2|2,0:0|0:0,0:0:0:0:
388,304,31472,1,2,0:0:0:0:
388,304,31566,1,8,0:0:0:0:
292,164,31756,1,0,0:0:0:0:
384,8,31946,6,0,B|396:48|396:48|384:88,1,80,2|2,0:0|0:0,0:0:0:0:
385,84,32231,1,2,0:0:0:0:
385,84,32326,1,12,0:0:0:0:
264,48,32516,1,0,0:0:0:0:
140,168,32706,2,0,P|128:128|148:88,1,80,2|2,0:0|0:0,0:0:0:0:
142,94,32991,1,2,0:0:0:0:
142,94,33085,1,8,0:0:0:0:
248,232,33275,1,0,0:0:0:0:
120,356,33465,6,0,B|128:316|128:316|116:276,1,80,2|2,0:0|0:0,0:0:0:0:
104,244,33750,1,2,0:0:0:0:
104,244,33845,1,12,0:0:0:0:
256,280,34035,1,0,0:0:0:0:
403,215,34225,2,0,B|395:255|395:255|407:295,1,80,2|2,0:0|0:0,0:0:0:0:
424,324,34510,1,2,0:0:0:0:
424,324,34604,1,8,0:0:0:0:
470,163,34794,6,0,B|426:174|394:142|394:142|418:186|402:219,1,160,10|12,0:0|0:0,0:0:0:0:
450,83,35364,1,12,0:0:0:0:
326,187,35554,2,0,B|286:211|286:211|162:175,1,160,12|2,0:0|0:0,0:0:0:0:
280,56,36123,1,8,0:0:0:0:
108,120,36313,2,0,L|84:112,3,20,2|2|2|2,0:0|0:0|0:0|0:0,0:0:0:0:
88,36,36503,6,0,L|176:28,1,80,6|8,0:0|0:0,0:0:0:0:
204,40,36788,1,10,0:0:0:0:
204,40,36883,1,2,0:0:0:0:
308,120,37073,1,8,0:0:0:0:
177,179,37263,2,0,P|201:235|117:271,1,160,2|2,0:0|0:0,0:0:0:0:
28,220,37832,1,0,0:0:0:0:
108,356,38022,6,0,P|148:364|188:356,1,80,10|8,0:0|0:0,0:0:0:0:
224,348,38307,1,8,0:0:0:0:
224,348,38402,1,2,0:0:0:0:
352,304,38592,1,8,0:0:0:0:
312,184,38782,2,0,B|392:152|392:216|488:168,1,160,2|2,0:0|0:0,0:0:0:0:
436,44,39351,1,0,0:0:0:0:
304,108,39541,6,0,B|320:148|320:148|308:196,1,80,10|8,0:0|0:0,0:0:0:0:
284,208,39826,1,8,0:0:0:0:
284,208,39921,1,2,0:0:0:0:
172,64,40111,1,8,0:0:0:0:
52,176,40301,2,0,L|132:168,1,80,2|0,0:0|0:0,0:0:0:0:
200,288,40680,2,0,L|120:280,1,80,2|0,0:0|0:0,0:0:0:0:
290,260,41060,6,0,P|296:299|280:340,1,80,10|8,0:0|0:0,0:0:0:0:
252,356,41345,1,8,0:0:0:0:
252,356,41440,1,2,0:0:0:0:
400,288,41630,1,8,0:0:0:0:
452,156,41820,2,0,B|412:148|412:148|372:156,1,80,2|0,0:0|0:0,0:0:0:0:
240,64,42199,2,0,B|280:72|280:72|320:64,1,80,2|0,0:0|0:0,0:0:0:0:
128,36,42579,6,0,B|136:120,1,80,2|8,0:0|0:0,0:0:0:0:
132,152,42864,1,8,0:0:0:0:
132,188,42959,1,2,0:0:0:0:
36,292,43149,1,8,0:0:0:0:
184,340,43339,2,0,B|224:348|224:348|264:336,1,80,2|8,0:0|0:0,0:0:0:0:
296,328,43623,1,8,0:0:0:0:
332,328,43718,1,2,0:0:0:0:
244,176,43908,1,8,0:0:0:0:
384,52,44098,6,0,P|400:92|388:128,1,80,2|8,0:0|0:0,0:0:0:0:
372,160,44383,1,8,0:0:0:0:
340,176,44478,1,2,0:0:0:0:
224,244,44668,1,8,0:0:0:0:
176,64,44858,1,2,0:0:0:0:
136,56,44952,1,2,0:0:0:0:
104,72,45047,1,10,0:0:0:0:
88,104,45142,1,10,0:0:0:0:
96,144,45237,2,0,P|96:172|84:204,3,40,2|2|10|2,0:0|0:0|0:0|0:0,0:0:0:0:
40,288,45617,5,10,0:0:0:0:
80,296,45711,1,2,0:0:0:0:
120,304,45806,1,10,0:0:0:0:
160,312,45901,1,2,0:0:0:0:
200,320,45997,6,0,L|236:316,7,20,2|2|2|2|2|2|2|2,0:0|0:0|0:0|0:0|0:0|0:0|0:0|0:0,0:0:0:0:
264,312,46377,2,0,L|283:314,7,20,2|2|2|2|2|2|2|2,0:0|0:0|0:0|0:0|0:0|0:0|0:0|0:0,0:0:0:0:
328,320,46756,2,0,L|364:316,7,20,2|2|2|2|2|2|2|2,0:0|0:0|0:0|0:0|0:0|0:0|0:0|0:0,0:0:0:0:
392,312,47136,5,2,0:0:0:0:
477,344,47706,5,0,0:0:0:0:
395,235,47896,2,0,B|404:275|404:275|392:311,1,80
273,264,48275,2,0,B|263:223|263:223|275:187,1,80
456,84,48655,6,0,P|400:104|352:44,1,120,4|2,0:0|0:0,0:0:0:0:
272,24,49035,2,0,P|284:64|272:104,1,80,8|0,0:0|0:0,0:0:0:0:
96,184,49415,2,0,P|84:144|96:104,1,80,2|2,0:0|0:0,0:0:0:0:
120,84,49699,1,2,0:0:0:0:
120,84,49794,1,8,0:0:0:0:
200,180,49984,1,0,0:0:0:0:
168,304,50174,6,0,P|208:312|256:292,1,80,2|2,0:0|0:0,0:0:0:0:
280,284,50459,1,2,0:0:0:0:
280,284,50554,1,8,0:0:0:0:
396,356,50744,1,0,0:0:0:0:
472,200,50934,2,0,B|464:240|464:240|480:284,1,80,2|2,0:0|0:0,0:0:0:0:
496,308,51218,1,2,0:0:0:0:
496,308,51313,1,8,0:0:0:0:
352,216,51503,1,0,0:0:0:0:
256,80,51693,6,0,B|292:68|292:68|336:76,1,80,2|2,0:0|0:0,0:0:0:0:
368,88,51978,1,2,0:0:0:0:
396,112,52073,1,8,0:0:0:0:
484,224,52263,1,0,0:0:0:0:
376,296,52453,2,0,L|296:288,1,80,2|2,0:0|0:0,0:0:0:0:
264,288,52738,1,2,0:0:0:0:
264,288,52832,1,8,0:0:0:0:
152,208,53022,1,0,0:0:0:0:
4,160,53212,6,0,P|-8:196|4:240,1,80,2|2,0:0|0:0,0:0:0:0:
20,268,53497,1,2,0:0:0:0:
56,280,53592,1,8,0:0:0:0:
120,128,53782,1,0,0:0:0:0:
252,180,53972,2,0,L|332:172,1,80,2|2,0:0|0:0,0:0:0:0:
364,184,54256,1,2,0:0:0:0:
364,184,54351,1,8,0:0:0:0:
428,40,54541,1,0,0:0:0:0:
440,248,54731,6,0,P|462:197|439:131,1,120,2|2,0:0|0:0,0:0:0:0:
360,88,55111,2,0,B|320:100|320:100|280:92,1,80,12|0,0:0|0:0,0:0:0:0:
100,172,55491,2,0,P|88:136|104:96,1,80,2|2,0:0|0:0,0:0:0:0:
128,68,55775,1,2,0:0:0:0:
168,68,55870,1,12,0:0:0:0:
264,172,56060,1,0,0:0:0:0:
232,300,56250,6,0,B|272:308|272:308|312:292,1,80,2|2,0:0|0:0,0:0:0:0:
344,284,56535,1,2,0:0:0:0:
344,284,56630,1,12,0:0:0:0:
264,172,56820,1,0,0:0:0:0:
372,40,57010,2,0,L|380:132,1,80,2|2,0:0|0:0,0:0:0:0:
384,156,57294,1,2,0:0:0:0:
388,192,57389,1,12,0:0:0:0:
427,336,57579,6,0,P|363:356|311:268,1,160,4|2,0:0|0:0,0:0:0:0:
300,256,58054,1,2,0:0:0:0:
304,220,58149,1,8,0:0:0:0:
207,71,58339,2,0,P|219:135|207:159,1,80,0|2,0:0|0:0,0:0:0:0:
124,292,58718,1,2,0:0:0:0:
124,292,58813,1,2,0:0:0:0:
124,292,58908,1,8,0:0:0:0:
24,120,59098,6,0,L|144:116,1,120,10|0,0:0|0:0,0:0:0:0:
180,124,59478,1,4,0:0:0:0:
377,88,59668,2,0,B|393:128|393:128|377:220,1,120,8|0,0:0|0:0,0:0:0:0:
240,264,60048,5,2,0:0:0:0:
276,136,60237,1,2,0:0:0:0:
452,212,60427,1,2,0:0:0:0:
416,208,60522,1,2,0:0:0:0:
380,204,60617,2,0,L|332:216,1,40,2|2,0:0|0:0,0:0:0:0:
200,296,60807,6,0,P|172:248|208:180,1,120,4|2,0:0|0:0,0:0:0:0:
148,108,61187,2,0,B|108:116|108:116|68:108,1,80,8|0,0:0|0:0,0:0:0:0:
216,48,61566,2,0,B|256:40|256:40|296:48,1,80,2|2,0:0|0:0,0:0:0:0:
324,68,61851,1,2,0:0:0:0:
324,68,61946,1,8,0:0:0:0:
452,172,62136,1,0,0:0:0:0:
304,280,62326,6,0,L|384:276,1,80,2|2,0:0|0:0,0:0:0:0:
416,292,62611,1,2,0:0:0:0:
416,292,62706,1,8,0:0:0:0:
272,196,62896,1,0,0:0:0:0:
164,280,63085,2,0,B|124:268|124:268|84:276,1,80,2|2,0:0|0:0,0:0:0:0:
52,288,63370,1,2,0:0:0:0:
52,288,63465,1,8,0:0:0:0:
16,124,63655,1,0,0:0:0:0:
194,199,63845,6,0,B|234:207|234:207|274:195,1,80,2|2,0:0|0:0,0:0:0:0:
308,192,64130,1,2,0:0:0:0:
308,192,64225,1,8,0:0:0:0:
464,276,64415,1,0,0:0:0:0:
452,104,64604,2,0,P|424:68|372:64,1,80,2|2,0:0|0:0,0:0:0:0:
356,72,64889,1,2,0:0:0:0:
356,72,64984,1,8,0:0:0:0:
188,32,65174,1,0,0:0:0:0:
124,212,65364,6,0,P|112:176|128:132,1,80,2|2,0:0|0:0,0:0:0:0:
152,116,65649,1,2,0:0:0:0:
152,116,65744,1,8,0:0:0:0:
264,200,65934,1,0,0:0:0:0:
172,332,66123,1,2,0:0:0:0:
344,304,66313,1,2,0:0:0:0:
344,304,66408,1,2,0:0:0:0:
344,304,66503,1,8,0:0:0:0:
472,344,66693,1,0,0:0:0:0:
448,200,66883,6,0,P|456:152|380:124,1,120,2|2,0:0|0:0,0:0:0:0:
332,40,67263,2,0,B|372:48|372:48|412:36,1,80,12|0,0:0|0:0,0:0:0:0:
308,128,67642,2,0,P|272:116|220:132,1,80,2|2,0:0|0:0,0:0:0:0:
204,148,67927,1,2,0:0:0:0:
204,148,68022,1,12,0:0:0:0:
40,84,68212,1,0,0:0:0:0:
20,252,68402,6,0,B|60:260|60:260|100:244,1,80,2|2,0:0|0:0,0:0:0:0:
132,252,68687,1,2,0:0:0:0:
132,252,68782,1,12,0:0:0:0:
260,320,68972,1,0,0:0:0:0:
320,176,69161,2,0,B|356:184|356:184|408:172,1,80,2|2,0:0|0:0,0:0:0:0:
432,168,69446,1,2,0:0:0:0:
432,168,69541,1,12,0:0:0:0:
236,216,69731,6,0,P|224:180|252:120,1,80,4|2,0:0|0:0,0:0:0:0:
424,88,70111,1,2,0:0:0:0:
424,88,70206,1,2,0:0:0:0:
424,88,70301,1,8,0:0:0:0:
300,24,70491,2,0,B|256:32|256:32|208:16,1,80,0|2,0:0|0:0,0:0:0:0:
72,100,70870,1,2,0:0:0:0:
72,100,70965,1,2,0:0:0:0:
72,100,71060,1,8,0:0:0:0:
88,276,71250,6,0,P|84:232|104:272,1,102.000001945496,8|0,0:0|0:0,0:0:0:0:
217,264,71630,2,0,B|185:248|185:248|137:264|137:264|105:248,1,113.999996955872,12|0,0:0|0:0,0:0:0:0:
256,336,72010,2,0,P|296:284|288:220,1,125.999996154785,8|0,0:0|0:0,0:0:0:0:
204,104,72389,2,0,B|236:72|236:72|220:172,1,138.000002632141,12|0,0:0|0:0,0:0:0:0:
291,226,72769,1,8,0:0:0:0:
364,44,72959,6,0,L|372:136,1,80,4|2,0:0|0:0,0:0:0:0:
364,160,73244,1,2,0:0:0:0:
364,160,73339,1,8,0:0:0:0:
452,264,73529,1,0,0:0:0:0:
332,334,73718,2,0,B|292:346|292:346|248:334,1,80,2|2,0:0|0:0,0:0:0:0:
220,324,74003,1,2,0:0:0:0:
184,328,74098,1,8,0:0:0:0:
291,226,74288,1,0,0:0:0:0:
200,128,74478,6,0,L|108:120,1,80,6|2,0:0|0:0,0:0:0:0:
84,132,74763,1,2,0:0:0:0:
84,132,74858,1,8,0:0:0:0:
60,272,75048,1,0,0:0:0:0:
215,224,75237,2,0,P|255:236|299:220,1,80,2|2,0:0|0:0,0:0:0:0:
324,212,75522,1,2,0:0:0:0:
348,184,75617,1,8,0:0:0:0:
280,60,75807,1,0,0:0:0:0:
472,116,75997,6,0,B|432:108|432:108|392:116,1,80,6|2,0:0|0:0,0:0:0:0:
393,115,76282,1,2,0:0:0:0:
393,115,76377,1,8,0:0:0:0:
428,260,76566,1,0,0:0:0:0:
312,356,76756,2,0,P|300:316|316:264,1,80,2|2,0:0|0:0,0:0:0:0:
332,252,77041,1,2,0:0:0:0:
332,252,77136,1,8,0:0:0:0:
216,136,77326,1,0,0:0:0:0:
104,256,77516,6,0,B|112:216|112:216|100:168,1,80,2|2,0:0|0:0,0:0:0:0:
102,177,77801,1,2,0:0:0:0:
102,177,77896,1,8,0:0:0:0:
200,64,78085,1,0,0:0:0:0:
360,120,78275,2,0,L|448:116,1,80,2|2,0:0|0:0,0:0:0:0:
472,132,78560,1,2,0:0:0:0:
472,132,78655,1,8,0:0:0:0:
344,248,78845,1,0,0:0:0:0:
216,136,79035,6,0,B|228:176|228:176|216:224,1,80,6|2,0:0|0:0,0:0:0:0:
208,248,79320,1,2,0:0:0:0:
208,248,79415,1,8,0:0:0:0:
104,336,79604,1,0,0:0:0:0:
32,184,79794,2,0,B|68:196|68:196|108:184,1,80,2|2,0:0|0:0,0:0:0:0:
108,183,80079,1,2,0:0:0:0:
108,183,80174,1,8,0:0:0:0:
284,84,80364,1,0,0:0:0:0:
416,224,80554,6,0,P|404:184|416:144,1,80,6|2,0:0|0:0,0:0:0:0:
436,120,80839,1,2,0:0:0:0:
436,120,80934,1,8,0:0:0:0:
508,260,81123,1,0,0:0:0:0:
392,344,81313,2,0,B|352:332|352:332|308:344,1,80,2|2,0:0|0:0,0:0:0:0:
315,342,81598,1,2,0:0:0:0:
315,342,81693,1,8,0:0:0:0:
208,224,81883,1,0,0:0:0:0:
96,348,82073,5,6,0:0:0:0:
20,208,82263,1,2,0:0:0:0:
20,208,82358,1,2,0:0:0:0:
20,208,82453,1,8,0:0:0:0:
104,80,82642,1,0,0:0:0:0:
272,52,82832,2,0,B|312:40|312:40|360:48,1,80,2|2,0:0|0:0,0:0:0:0:
384,56,83117,1,2,0:0:0:0:
420,52,83212,1,8,0:0:0:0:
500,200,83402,1,0,0:0:0:0:
396,308,83592,5,2,0:0:0:0:
228,232,83782,1,2,0:0:0:0:
228,232,83877,1,2,0:0:0:0:
228,232,83972,1,8,0:0:0:0:
384,180,84161,1,0,0:0:0:0:
272,320,84351,2,0,B|232:332|232:332|184:324,1,80,2|2,0:0|0:0,0:0:0:0:
160,316,84636,1,2,0:0:0:0:
124,320,84731,1,8,0:0:0:0:
188,128,84921,1,0,0:0:0:0:
28,76,85111,6,0,L|112:68,1,80,6|0,0:0|0:0,0:0:0:0:
193,14,85396,2,0,B|209:74|209:74|185:134,1,120,6|2,0:0|0:0,0:0:0:0:
312,200,85870,6,0,B|300:160|300:160|312:120,1,80,6|0,0:0|0:0,0:0:0:0:
412,80,86155,2,0,L|392:212,1,120,6|2,0:0|0:0,0:0:0:0:
272,284,86630,6,0,P|230:286|194:262,1,80,6|0,0:0|0:0,0:0:0:0:
213,171,86915,2,0,P|267:159|315:215,1,120,6|2,0:0|0:0,0:0:0:0:
412,80,87389,5,6,0:0:0:0:
