osu file format v14

[General]
AudioFilename: audio.mp3
AudioLeadIn: 0
PreviewTime: 47611
Countdown: 0
SampleSet: Soft
StackLeniency: 0.7
Mode: 0
LetterboxInBreaks: 0
WidescreenStoryboard: 0

[Editor]
DistanceSpacing: 1
BeatDivisor: 4
GridSize: 4
TimelineZoom: 2.899999

[Metadata]
Title:Give Me Secret
TitleUnicode:ギブミー・シークレット
Artist:StylipS
ArtistUnicode:StylipS
Creator:Cris-
Version:Normal
Source:ハイスクールD×D BorN
Tags:Hey lululu wolf3211 xxdeathx Highschool High School DxD Season 3 Ending TV Size TNK
BeatmapID:1467387
BeatmapSetID:693215

[Difficulty]
HPDrainRate:4
CircleSize:3.5
OverallDifficulty:4
ApproachRate:5
SliderMultiplier:1.1
SliderTickRate:1

[Events]
//Background and Video events
0,0,"BorN.jpg",0,0
Video,0,"DxDBorNED.flv"
//Break Periods
//Storyboard Layer 0 (Background)
//Storyboard Layer 1 (Fail)
//Storyboard Layer 2 (Pass)
//Storyboard Layer 3 (Foreground)
//Storyboard Sound Samples

[TimingPoints]
48,379.746835443038,4,2,1,50,1,0
1566,-100,4,2,1,55,0,0
3085,-100,4,2,1,60,0,0
3845,-100,4,2,1,65,0,0
4604,-100,4,2,1,70,0,0
4984,-100,4,2,1,25,0,0
5934,-100,4,2,1,40,0,0
6123,-100,4,2,1,55,0,0
9161,-100,4,2,1,45,0,0
9921,-100,4,2,1,55,0,0
10680,-100,4,2,1,45,0,0
11440,-100,4,2,1,70,0,0
12199,-100,4,2,2,50,0,0
22832,-100,4,2,1,40,0,0
23782,-100,4,2,1,45,0,0
24161,-100,4,2,1,50,0,0
24351,-100,4,2,1,65,0,0
48655,-100,4,2,1,70,0,1
60048,-100,4,2,1,60,0,0
60807,-100,4,2,1,70,0,1
72959,-100,4,2,1,60,0,0
85111,-100,4,2,1,65,0,0
87389,-100,4,2,1,70,0,0

[Colours]
Combo1 : 183,142,81
Combo2 : 231,35,45
Combo3 : 109,203,239
Combo4 : 236,208,15
Combo5 : 84,207,48
Combo6 : 112,74,54

[HitObjects]
164,252,48,6,0,P|216:268|268:252,2,110,6|8|6,0:0|0:0|0:0,0:0:0:0:
120,152,1187,2,0,L|128:96,1,55,0|2,0:0|0:0,0:0:0:0:
140,44,1566,6,0,P|88:28|36:44,2,110,6|8|6,0:0|0:0|0:0,0:0:0:0:
240,96,2706,2,0,L|296:88,1,55,2|2,0:0|0:0,0:0:0:0:
348,84,3085,6,0,P|332:132|348:188,1,110,6|8,0:0|0:0,0:0:0:0:
380,232,3655,1,2,0:0:0:0:
412,276,3845,2,0,L|304:292,1,110,6|8,0:0|0:0,0:0:0:0:
248,300,4415,1,2,0:0:0:0:
248,300,4604,5,6,0:0:0:0:
160,232,4984,2,0,L|48:240,2,110,0|0|0,0:0|0:0|0:0,0:0:0:0:
200,192,5934,1,2,0:0:0:0:
244,156,6123,6,0,B|296:140|296:140|352:156,1,110,6|8,0:0|0:0,0:0:0:0:
392,192,6693,2,0,P|408:244|392:296,1,110,0|2,0:0|0:0,0:0:0:0:
360,340,7263,1,8,0:0:0:0:
256,304,7642,6,0,L|144:312,1,110,2|8,0:0|0:0,0:0:0:0:
92,316,8212,2,0,B|112:260|112:260|92:212,1,110,0|2,0:0|0:0,0:0:0:0:
64,164,8782,1,8,0:0:0:0:
124,72,9161,6,0,P|176:56|228:72,1,110,2|8,0:0|0:0,0:0:0:0:
272,108,9731,1,0,0:0:0:0:
316,140,9921,2,0,L|428:132,1,110,2|8,0:0|0:0,0:0:0:0:
512,200,10680,6,0,B|504:240|504:240|512:268|512:268|504:308,1,110,2|8,0:0|0:0,0:0:0:0:
468,348,11250,1,0,0:0:0:0:
424,380,11440,2,0,B|396:380|372:364|372:364|352:380|320:380,1,110,2|2,0:0|0:0,0:0:0:0:
216,348,12199,6,0,P|200:296|216:244,1,110,6|10,0:0|0:0,0:0:0:0:
300,172,12959,2,0,L|292:116,2,55,2|0|10,0:0|0:0|0:0,0:0:0:0:
308,228,13529,1,0,0:0:0:0:
316,284,13718,6,0,P|364:300|420:284,1,110,2|10,0:0|0:0,0:0:0:0:
464,252,14288,1,0,0:0:0:0:
500,208,14478,2,0,L|484:100,1,110,2|10,0:0|0:0,0:0:0:0:
396,32,15237,6,0,B|340:52|340:16|288:32,1,110,2|10,0:0|0:0,0:0:0:0:
188,76,15997,2,0,L|180:21,2,55,2|0|10,0:0|0:0|0:0,0:0:0:0:
200,128,16566,1,0,0:0:0:0:
208,184,16756,6,0,P|259:200|311:184,1,110,2|10,0:0|0:0,0:0:0:0:
360,156,17326,1,0,0:0:0:0:
408,128,17516,2,0,B|424:180|424:180|408:236,1,110,2|10,0:0|0:0,0:0:0:0:
364,336,18275,6,0,B|328:328|328:328|292:336|292:336|256:328,1,110,2|10,0:0|0:0,0:0:0:0:
204,316,18845,1,0,0:0:0:0:
152,304,19035,2,0,L|136:196,1,110,2|10,0:0|0:0,0:0:0:0:
128,140,19604,1,0,0:0:0:0:
120,84,19794,6,0,P|172:68|224:84,1,110,2|10,0:0|0:0,0:0:0:0:
320,140,20554,2,0,L|313:194,2,55,2|0|10,0:0|0:0|0:0,0:0:0:0:
344,92,21123,1,0,0:0:0:0:
376,48,21313,6,0,B|428:32|428:32|484:48,1,110,2|10,0:0|0:0,0:0:0:0:
480,156,22073,2,0,B|428:172|428:172|372:156,1,110,2|10,0:0|0:0,0:0:0:0:
320,140,22642,1,0,0:0:0:0:
268,128,22832,6,0,B|164:176|164:84|56:128,1,220,2|0,0:0|0:0,0:0:0:0:
8,156,23782,1,8,0:3:0:0:
40,260,24161,1,2,0:0:0:0:
40,260,24351,6,0,L|148:244,1,110,6|8,0:0|0:0,0:0:0:0:
204,236,24921,1,0,0:0:0:0:
260,228,25111,2,0,P|244:280|260:332,1,110,2|8,0:0|0:0,0:0:0:0:
356,280,25870,6,0,B|372:227|372:227|356:175,1,110,2|8,0:0|0:0,0:0:0:0:
336,124,26440,1,0,0:0:0:0:
316,72,26630,2,0,L|208:88,1,110,2|8,0:0|0:0,0:0:0:0:
100,112,27389,6,0,B|116:164|116:164|100:220,1,110,2|8,0:0|0:0,0:0:0:0:
80,268,27959,1,0,0:0:0:0:
56,320,28149,2,0,P|104:336|160:320,1,110,2|8,0:0|0:0,0:0:0:0:
256,268,28908,6,0,B|292:276|292:276|328:268|328:268|364:276,1,110,2|8,0:0|0:0,0:0:0:0:
416,288,29478,1,0,0:0:0:0:
468,300,29668,2,0,L|484:192,1,110,2|8,0:0|0:0,0:0:0:0:
504,84,30427,6,0,P|452:68|400:84,1,110,2|12,0:0|0:0,0:0:0:0:
308,144,31187,2,0,L|253:136,1,55,2|2,0:0|0:0,0:0:0:0:
200,128,31566,1,8,0:0:0:0:
92,120,31946,6,0,B|100:156|100:156|92:188|92:188|100:228,1,110,2|12,0:0|0:0,0:0:0:0:
116,336,32706,2,0,L|172:328,1,55,2|2,0:0|0:0,0:0:0:0:
224,320,33085,1,8,0:0:0:0:
332,296,33465,6,0,B|348:244|312:244|332:188,1,110,2|12,0:0|0:0,0:0:0:0:
360,80,34225,2,0,L|304:72,1,55,2|2,0:0|0:0,0:0:0:0:
252,64,34604,1,8,0:0:0:0:
252,64,34794,5,10,0:0:0:0:
160,120,35174,2,0,L|104:128,1,55,12|12,0:0|0:0,0:0:0:0:
52,136,35554,1,12,0:0:0:0:
76,244,35934,1,2,0:0:0:0:
76,244,36123,2,0,L|132:236,1,55,8|2,0:0|0:0,0:0:0:0:
183,232,36503,6,0,P|167:283|184:336,1,110,6|2,0:0|0:0,0:0:0:0:
280,284,37263,1,2,0:0:0:0:
376,336,37642,1,2,0:0:0:0:
376,336,37832,6,0,L|384:224,1,110,2|8,0:0|0:0,0:0:0:0:
480,172,38592,2,0,L|472:60,1,110,8|0,0:0|0:0,0:0:0:0:
464,8,39161,1,2,0:0:0:0:
364,52,39541,6,0,P|312:67|260:51,1,110,10|2,0:0|0:0,0:0:0:0:
160,8,40301,1,2,0:0:0:0:
60,52,40680,1,2,0:0:0:0:
60,52,40870,6,0,B|40:104|40:104|60:156,1,110,2|8,0:0|0:0,0:0:0:0:
140,232,41630,2,0,B|192:252|192:252|244:232,1,110,8|0,0:0|0:0,0:0:0:0:
292,212,42199,1,2,0:0:0:0:
388,156,42579,6,0,L|395:210,1,55,2|8,0:0|0:0,0:0:0:0:
420,260,42959,2,0,L|412:316,1,55,2|8,0:0|0:0,0:0:0:0:
400,368,43339,2,0,P|348:384|296:368,1,110,2|2,0:0|0:0,0:0:0:0:
200,316,44098,6,0,L|193:262,1,55,2|8,0:0|0:0,0:0:0:0:
168,212,44478,2,0,L|176:156,1,55,2|8,0:0|0:0,0:0:0:0:
188,104,44858,2,0,P|240:88|292:104,1,110,2|2,0:0|0:0,0:0:0:0:
256,192,45617,12,2,47136,0:0:0:0:
24,184,48655,6,0,P|8:235|23:287,1,110,4|8,0:0|0:0,0:0:0:0:
108,359,49415,1,2,0:0:0:0:
192,287,49794,2,0,L|248:279,1,55,8|0,0:0|0:0,0:0:0:0:
300,271,50174,6,0,B|352:255|352:291|408:271,1,110,2|8,0:0|0:0,0:0:0:0:
456,244,50744,1,0,0:0:0:0:
500,212,50934,2,0,B|492:102,1,110,2|8,0:0|0:0,0:0:0:0:
408,32,51693,6,0,B|356:12|356:12|304:32,1,110,2|8,0:0|0:0,0:0:0:0:
216,100,52453,1,2,0:0:0:0:
128,32,52832,2,0,L|120:88,1,55,8|0,0:0|0:0,0:0:0:0:
108,140,53212,6,0,P|56:120|8:140,1,110,2|8,0:0|0:0,0:0:0:0:
8,196,53782,1,0,0:0:0:0:
8,252,53972,2,0,P|56:272|108:252,1,110,2|8,0:0|0:0,0:0:0:0:
204,196,54731,6,0,B|256:176|256:176|307:196,1,110,2|12,0:0|0:0,0:0:0:0:
404,252,55491,2,0,L|412:140,1,110,2|12,0:0|0:0,0:0:0:0:
416,88,56060,1,0,0:0:0:0:
420,32,56250,6,0,P|368:16|316:32,1,110,2|12,0:0|0:0,0:0:0:0:
212,68,57010,2,0,L|204:12,2,55,2|2|12,0:0|0:0|0:0,0:0:0:0:
220,124,57579,6,0,L|232:236,1,110,4|2,0:0|0:0,0:0:0:0:
328,292,58339,2,0,L|340:180,1,110,0|2,0:0|0:0,0:0:0:0:
432,124,59098,2,0,L|440:180,1,55,8|0,0:0|0:0,0:0:0:0:
448,232,59478,6,0,P|468:280|448:332,1,110,4|0,0:0|0:0,0:0:0:0:
404,364,60048,2,0,L|350:356,1,55,2|2,0:0|0:0,0:0:0:0:
300,336,60427,2,0,L|244:344,1,55,2|2,0:0|0:0,0:0:0:0:
192,356,60807,6,0,B|136:336|136:372|84:356,1,110,4|8,0:0|0:0,0:0:0:0:
20,268,61567,1,2,0:0:0:0:
84,176,61946,2,0,L|92:116,1,55,8|0,0:0|0:0,0:0:0:0:
100,68,62326,6,0,B|152:48|152:48|204:68,1,110,2|8,0:0|0:0,0:0:0:0:
256,88,62896,1,0,0:0:0:0:
303,111,63085,2,0,P|287:163|303:215,1,110,2|8,0:0|0:0,0:0:0:0:
400,268,63845,6,0,P|415:216|400:164,1,110,2|8,0:0|0:0,0:0:0:0:
303,215,64604,1,2,0:0:0:0:
204,164,64984,2,0,L|148:172,1,55,8|0,0:0|0:0,0:0:0:0:
96,184,65364,6,0,B|76:236|76:236|96:288,1,110,2|8,0:0|0:0,0:0:0:0:
124,332,65933,1,0,0:0:0:0:
164,368,66123,2,0,B|196:368|216:352|216:352|236:368|268:368,1,110,2|8,0:0|0:0,0:0:0:0:
352,296,66883,6,0,L|360:184,1,110,2|12,0:0|0:0,0:0:0:0:
464,148,67642,2,0,L|472:260,1,110,2|12,0:0|0:0,0:0:0:0:
480,312,68212,1,0,0:0:0:0:
488,368,68402,6,0,P|436:384|384:368,1,110,2|12,0:0|0:0,0:0:0:0:
284,324,69161,2,0,L|276:380,2,55,2|2|12,0:0|0:0|0:0,0:0:0:0:
296,268,69731,6,0,B|244:252|244:284|188:268,1,110,4|2,0:0|0:0,0:0:0:0:
136,252,70301,2,0,L|80:260,1,55,8|0,0:0|0:0,0:0:0:0:
28,268,70680,2,0,B|8:216|8:216|28:164,1,110,2|8,0:0|0:0,0:0:0:0:
52,116,71250,5,8,0:0:0:0:
156,156,71630,2,0,P|208:172|260:156,1,110,12|8,0:0|0:0,0:0:0:0:
364,116,72389,2,0,L|357:226,1,110,12|8,0:0|0:0,0:0:0:0:
348,280,72959,6,0,P|296:296|244:280,1,110,4|8,0:0|0:0,0:0:0:0:
196,256,73529,1,0,0:0:0:0:
148,228,73718,2,0,B|132:176|132:176|148:120,1,110,2|8,0:0|0:0,0:0:0:0:
184,20,74478,6,0,L|296:28,1,110,6|8,0:0|0:0,0:0:0:0:
348,36,75048,1,0,0:0:0:0:
404,44,75237,2,0,B|420:96|384:96|404:152,1,110,2|8,0:0|0:0,0:0:0:0:
456,248,75997,6,0,P|400:264|352:248,1,110,6|8,0:0|0:0,0:0:0:0:
304,224,76566,1,0,0:0:0:0:
256,196,76756,2,0,L|264:308,1,110,2|8,0:0|0:0,0:0:0:0:
164,352,77516,6,0,L|156:240,1,110,2|8,0:0|0:0,0:0:0:0:
152,188,78085,1,0,0:0:0:0:
148,132,78275,2,0,P|164:80|148:28,1,110,2|8,0:0|0:0,0:0:0:0:
52,80,79035,5,4,0:0:0:0:
148,132,79415,2,0,P|200:148|252:132,1,110,8|2,0:0|0:0,0:0:0:0:
348,80,80174,1,8,0:0:0:0:
444,132,80554,6,0,B|460:184|460:184|444:237,1,110,6|8,0:0|0:0,0:0:0:0:
348,296,81313,1,2,0:0:0:0:
256,236,81693,1,8,0:0:0:0:
164,296,82073,6,0,P|112:313|60:297,1,110,6|8,0:0|0:0,0:0:0:0:
20,260,82642,1,0,0:0:0:0:
0,208,82832,2,0,L|4:153,1,55,2|2,0:0|0:0,0:0:0:0:
52,52,83402,6,0,B|104:36|104:36|160:52,2,110,0|2|0,0:0|0:0|0:0,0:0:0:0:
100,152,84541,2,0,B|152:168|152:168|208:152,1,110,2|0,0:0|0:0,0:0:0:0:
256,192,85111,12,6,87389,0:0:0:0:
