osu file format v14

[General]
AudioFilename: audio.mp3
AudioLeadIn: 0
PreviewTime: 47611
Countdown: 0
SampleSet: Soft
StackLeniency: 0.7
Mode: 0
LetterboxInBreaks: 0
WidescreenStoryboard: 0

[Editor]
DistanceSpacing: 1.2
BeatDivisor: 4
GridSize: 4
TimelineZoom: 2.899999

[Metadata]
Title:Give Me Secret
TitleUnicode:ギブミー・シークレット
Artist:StylipS
ArtistUnicode:StylipS
Creator:Cris-
Version:Hard
Source:ハイスクールD×D BorN
Tags:Hey lululu wolf3211 xxdeathx Highschool High School DxD Season 3 Ending TV Size TNK
BeatmapID:1481548
BeatmapSetID:693215

[Difficulty]
HPDrainRate:5.5
CircleSize:4
OverallDifficulty:6
ApproachRate:7
SliderMultiplier:1.4
SliderTickRate:1

[Events]
//Background and Video events
0,0,"BorN.jpg",0,0
Video,0,"DxDBorNED.flv"
//Break Periods
//Storyboard Layer 0 (Background)
//Storyboard Layer 1 (Fail)
//Storyboard Layer 2 (Pass)
//Storyboard Layer 3 (Foreground)
//Storyboard Sound Samples

[TimingPoints]
48,379.746835443038,4,2,1,50,1,0
1566,-100,4,2,1,55,0,0
3085,-100,4,2,1,60,0,0
3845,-100,4,2,1,65,0,0
4604,-100,4,2,1,70,0,0
4984,-100,4,2,1,25,0,0
6123,-100,4,2,1,55,0,0
9161,-100,4,2,1,45,0,0
9921,-100,4,2,1,55,0,0
10680,-100,4,2,1,45,0,0
11440,-100,4,2,1,70,0,0
12199,-100,4,2,2,50,0,0
22832,-133.333333333333,4,2,1,40,0,0
23782,-100,4,2,1,50,0,0
24161,-100,4,2,1,50,0,0
24351,-100,4,2,1,60,0,0
48655,-100,4,2,1,70,0,1
59098,-100,4,2,1,50,0,1
59383,-100,4,2,1,5,0,1
59478,-100,4,2,1,70,0,1
59858,-100,4,2,1,50,0,1
60048,-100,4,2,1,60,0,0
60807,-100,4,2,1,70,0,1
72959,-100,4,2,1,60,0,0
85111,-100,4,2,1,55,0,0
87389,-100,4,2,1,55,0,0

[Colours]
Combo1 : 183,142,81
Combo2 : 231,35,45
Combo3 : 109,203,239
Combo4 : 236,208,15
Combo5 : 84,207,48
Combo6 : 112,74,54

[HitObjects]
12,168,48,6,0,P|-4:216|12:268,1,105,6|6,0:0|0:0,0:0:0:0:
40,296,427,2,0,L|112:288,1,70,8|2,0:0|0:0,0:0:0:0:
184,332,807,1,6,0:0:0:0:
248,276,997,2,0,L|244:240,4,35,0|0|0|0|2,0:0|0:0|0:0|0:0|0:0,0:0:0:0:
260,360,1566,6,0,P|308:344|360:360,1,105,6|6,0:0|0:0,0:0:0:0:
396,380,1946,2,0,B|468:372,1,70,8|2,0:0|0:0,0:0:0:0:
512,300,2326,1,6,0:0:0:0:
452,240,2516,2,0,L|417:244,4,35,0|0|2|0|2,0:0|0:0|0:0|0:0|0:0,0:0:0:0:
512,180,3085,6,0,P|528:132|512:80,1,105,6|6,0:0|0:0,0:0:0:0:
484,52,3465,2,0,P|448:44|416:52,1,70,8|2,0:0|0:0,0:0:0:0:
344,96,3845,2,0,B|308:104|308:104|280:96|280:96|240:104,1,105,6|6,0:0|0:0,0:0:0:0:
200,116,4225,2,0,P|192:152|200:184,1,70,8|2,0:0|0:0,0:0:0:0:
248,252,4604,5,6,0:0:0:0:
248,252,4984,2,0,P|308:276|376:252,2,140,0|0|0,0:0|0:0|0:0,0:0:0:0:
199,183,5934,1,2,0:0:0:0:
199,183,6029,1,2,0:0:0:0:
199,183,6123,6,0,B|131:155|131:207|63:183,1,140,6|8,0:0|0:0,0:0:0:0:
0,124,6693,2,0,P|-7:90|1:56,1,70,0|2,0:0|0:0,0:0:0:0:
76,12,7073,1,2,0:0:0:0:
148,56,7263,2,0,L|217:48,1,70,8|0,0:0|0:0,0:0:0:0:
296,12,7642,6,0,B|320:80|272:80|296:148,1,140,2|8,0:0|0:0,0:0:0:0:
336,224,8212,2,0,L|328:296,1,70,0|2,0:0|0:0,0:0:0:0:
264,348,8592,1,2,0:0:0:0:
196,296,8782,2,0,P|164:288|128:296,1,70,8|0,0:0|0:0,0:0:0:0:
60,348,9161,6,0,B|40:312|40:312|60:216,1,140,2|8,0:0|0:0,0:0:0:0:
120,156,9731,1,0,0:0:0:0:
180,216,9921,2,0,B|232:224|232:224|268:208|268:208|316:216,1,140,2|8,0:0|0:0,0:0:0:0:
400,232,10491,1,0,0:0:0:0:
456,296,10680,6,0,P|483:234|455:168,1,140,2|8,0:0|0:0,0:0:0:0:
400,232,11250,1,0,0:0:0:0:
315,215,11440,2,0,L|307:179,3,35,2|2|2|2,0:0|0:0|0:0|0:0,0:0:0:0:
300,140,11820,2,0,P|252:156|200:140,1,105,2|0,0:0|0:0,0:0:0:0:
164,124,12199,6,0,B|96:100|96:148|28:124,2,140,6|10|2,0:0|0:0|0:0,0:0:0:0:
128,200,13149,1,0,0:0:0:0:
164,276,13339,2,0,P|197:284|231:276,1,70,10|0,0:0|0:0,0:0:0:0:
300,224,13718,6,0,P|333:215|367:223,1,70,2|0,0:0|0:0,0:0:0:0:
432,276,14098,1,10,0:0:0:0:
500,224,14288,1,0,0:0:0:0:
500,140,14478,2,0,P|500:80|432:72,1,140,2|10,0:0|0:0,0:0:0:0:
368,124,15048,1,2,0:0:0:0:
304,72,15237,6,0,B|268:68|240:96|240:96|212:68|176:72,2,140,2|10|2,0:0|0:0|0:0,0:0:0:0:
368,124,16187,1,0,0:0:0:0:
356,208,16377,2,0,L|347:278,1,70,10|0,0:0|0:0,0:0:0:0:
272,320,16756,6,0,L|264:248,1,70,2|0,0:0|0:0,0:0:0:0:
192,208,17136,1,10,0:0:0:0:
129,265,17326,1,0,0:0:0:0:
67,206,17516,2,0,P|130:180|192:208,1,140,2|10,0:0|0:0,0:0:0:0:
264,250,18085,1,2,0:0:0:0:
336,208,18275,6,0,P|345:175|336:141,1,70,2|0,0:0|0:0,0:0:0:0:
260,100,18655,2,0,P|252:136|260:168,1,70,10|0,0:0|0:0,0:0:0:0:
336,141,19035,2,0,B|426:125|426:125|470:145,1,140,2|10,0:0|0:0,0:0:0:0:
508,220,19604,1,0,0:0:0:0:
472,296,19794,6,0,L|402:303,1,70,2|0,0:0|0:0,0:0:0:0:
340,364,20174,2,0,P|312:304|340:240,1,140,10|2,0:0|0:0,0:0:0:0:
403,184,20744,1,0,0:0:0:0:
339,128,20934,1,10,0:0:0:0:
275,184,21123,1,0,0:0:0:0:
339,240,21313,6,0,P|367:304|339:365,2,140,2|10|2,0:0|0:0|0:0,0:0:0:0:
275,184,22263,1,0,0:0:0:0:
212,240,22453,2,0,P|178:248|145:239,1,70,10|0,0:0|0:0,0:0:0:0:
80,184,22832,6,0,B|80:152|112:128|112:128|56:64|112:0,1,210.000008010865,2|0,0:0|0:0,0:0:0:0:
168,64,23782,2,0,B|236:44|236:88|304:64,1,140,8|2,0:3|0:0,0:0:0:0:
364,4,24351,6,0,P|388:67|358:129,1,140,6|8,0:0|0:0,0:0:0:0:
288,176,24921,1,0,0:0:0:0:
288,260,25111,2,0,P|256:268|220:260,1,70,2|2,0:0|0:0,0:0:0:0:
220,175,25491,2,0,P|253:167|287:175,1,70,8|0,0:0|0:0,0:0:0:0:
360,216,25870,5,2,0:0:0:0:
432,176,26060,1,2,0:0:0:0:
508,216,26250,2,0,B|516:248|516:248|508:284,1,70,8|0,0:0|0:0,0:0:0:0:
432,324,26630,2,0,B|424:288|424:288|432:256,2,70,2|2|8,0:0|0:0|0:0,0:0:0:0:
360,368,27199,1,0,0:0:0:0:
288,324,27389,6,0,B|248:336|248:336|196:320|196:320|152:332,1,140,2|8,0:0|0:0,0:0:0:0:
76,368,27959,1,0,0:0:0:0:
0,332,28149,2,0,L|-8:260,1,70,2|2,0:0|0:0,0:0:0:0:
28,188,28529,2,0,L|36:116,1,70,8|0,0:0|0:0,0:0:0:0:
96,60,28908,5,2,0:0:0:0:
160,116,29098,1,2,0:0:0:0:
224,60,29288,2,0,P|260:52|292:60,1,70,8|0,0:0|0:0,0:0:0:0:
356,116,29668,2,0,L|348:188,2,70,2|2|8,0:0|0:0|0:0,0:0:0:0:
420,60,30237,1,0,0:0:0:0:
484,116,30427,6,0,B|460:184|512:184|484:252,1,140,2|12,0:0|0:0,0:0:0:0:
424,312,30997,1,0,0:0:0:0:
364,252,31187,2,0,P|330:243|296:251,1,70,2|2,0:0|0:0,0:0:0:0:
240,312,31566,1,8,0:0:0:0:
180,252,31756,1,0,0:0:0:0:
120,312,31946,6,0,B|88:296|52:312|52:312|68:280|52:244,1,140,2|12,0:0|0:0,0:0:0:0:
20,168,32516,1,0,0:0:0:0:
52,92,32706,2,0,L|124:100,1,70,2|2,0:0|0:0,0:0:0:0:
192,144,33086,1,8,0:0:0:0:
264,100,33276,1,0,0:0:0:0:
336,144,33465,6,0,P|348:84|304:24,1,140,2|12,0:0|0:0,0:0:0:0:
264,100,34035,1,0,0:0:0:0:
336,144,34225,2,0,P|372:152|404:144,1,70,2|2,0:0|0:0,0:0:0:0:
476,100,34604,1,8,0:0:0:0:
488,188,34794,1,10,0:0:0:0:
488,188,35174,6,0,P|496:220|488:256,1,70,12|12,0:0|0:0,0:0:0:0:
444,328,35554,1,12,0:0:0:0:
444,328,35934,2,0,L|374:321,1,70,2|8,0:0|0:0,0:0:0:0:
292,316,36313,1,2,0:0:0:0:
292,316,36408,1,2,0:0:0:0:
292,316,36503,6,0,B|224:292|224:340|156:316,1,140,6|2,0:0|0:0,0:0:0:0:
112,244,37073,1,8,0:0:0:0:
156,172,37263,2,0,P|164:138|156:104,1,70,2|0,0:0|0:0,0:0:0:0:
71,104,37642,2,0,P|63:140|71:172,1,70,2|0,0:0|0:0,0:0:0:0:
112,244,38022,6,0,B|160:236|160:236|200:252|200:252|248:244,1,140,10|2,0:0|0:0,0:0:0:0:
324,208,38592,1,8,0:0:0:0:
400,244,38782,2,0,P|408:212|400:176,1,70,2|0,0:0|0:0,0:0:0:0:
364,100,39161,2,0,P|396:92|432:100,1,70,2|0,0:0|0:0,0:0:0:0:
400,176,39541,6,0,P|340:204|276:176,1,140,10|2,0:0|0:0,0:0:0:0:
216,116,40111,1,8,0:0:0:0:
156,176,40301,2,0,L|84:184,1,70,2|0,0:0|0:0,0:0:0:0:
92,268,40680,2,0,L|162:260,1,70,2|0,0:0|0:0,0:0:0:0:
232,212,41060,6,0,B|300:236|300:192|368:212,1,140,10|2,0:0|0:0,0:0:0:0:
436,264,41630,1,8,0:0:0:0:
504,212,41820,2,0,B|512:180|512:180|504:144,1,70,2|0,0:0|0:0,0:0:0:0:
468,68,42199,2,0,B|436:60|436:60|400:68,1,70,2|0,0:0|0:0,0:0:0:0:
320,92,42579,6,0,L|312:20,2,70,2|8|2,0:0|0:0|0:0,0:0:0:0:
384,148,43149,1,8,0:0:0:0:
332,216,43339,2,0,L|340:288,2,70,2|8|2,0:0|0:0|0:0,0:0:0:0:
268,160,43908,1,8,0:0:0:0:
200,112,44098,6,0,L|192:43,2,70,2|8|2,0:0|0:0|0:0,0:0:0:0:
144,176,44668,1,8,0:0:0:0:
212,224,44858,2,0,L|220:296,2,70,2|10|2,0:0|0:0|0:0,0:0:0:0:
268,160,45427,1,10,0:0:0:0:
256,192,45617,12,2,47136,0:0:0:0:
40,36,48655,6,0,B|84:48|84:48|132:32|132:32|176:44,1,140,4|8,0:0|0:0,0:0:0:0:
248,88,49225,1,0,0:0:0:0:
320,44,49415,2,0,P|353:36|387:44,1,70,2|2,0:0|0:0,0:0:0:0:
388,128,49794,2,0,P|356:136|320:128,1,70,8|0,0:0|0:0,0:0:0:0:
248,88,50174,6,0,L|240:160,1,70,2|2,0:0|0:0,0:0:0:0:
232,240,50554,1,8,0:0:0:0:
160,284,50744,1,0,0:0:0:0:
88,240,50934,2,0,P|52:232|20:240,1,70,2|2,0:0|0:0,0:0:0:0:
20,324,51313,2,0,P|56:332|88:324,1,70,8|0,0:0|0:0,0:0:0:0:
160,284,51693,6,0,B|196:288|224:260|224:260|252:288|286:284,1,140,2|8,0:0|0:0,0:0:0:0:
360,324,52263,1,0,0:0:0:0:
436,284,52453,2,0,P|444:250|435:216,1,70,2|2,0:0|0:0,0:0:0:0:
384,148,52832,2,0,L|391:78,1,70,8|0,0:0|0:0,0:0:0:0:
324,28,53212,6,0,P|290:19|256:27,1,70,2|2,0:0|0:0,0:0:0:0:
188,80,53592,1,8,0:0:0:0:
120,28,53782,1,0,0:0:0:0:
52,80,53972,2,0,L|60:152,1,70,2|2,0:0|0:0,0:0:0:0:
72,232,54351,1,8,0:0:0:0:
136,288,54541,1,0,0:0:0:0:
200,232,54731,6,0,P|260:204|324:232,1,140,2|12,0:0|0:0,0:0:0:0:
262,288,55301,1,0,0:0:0:0:
200,232,55491,2,0,P|208:200|200:164,2,70,2|2|12,0:0|0:0|0:0,0:0:0:0:
136,288,56060,1,0,0:0:0:0:
72,232,56250,6,0,B|100:164|52:164|72:96,1,140,2|12,0:0|0:0,0:0:0:0:
140,44,56820,1,0,0:0:0:0:
208,96,57010,2,0,P|241:104|275:96,1,70,2|2,0:0|0:0,0:0:0:0:
344,44,57389,1,12,0:0:0:0:
412,96,57579,6,0,L|404:165,1,70,4|2,0:0|0:0,0:0:0:0:
392,248,57958,1,2,0:0:0:0:
332,308,58149,1,8,0:0:0:0:
272,248,58339,2,0,P|238:239|204:247,1,70,0|2,0:0|0:0,0:0:0:0:
144,308,58718,1,2,0:0:0:0:
84,248,58908,1,8,0:0:0:0:
144,188,59098,6,0,P|128:140|144:88,1,105,8|0,0:0|0:0,0:0:0:0:
172,56,59478,2,0,B|220:64|220:64|256:48|256:48|308:56,1,140,4|0,0:0|0:0,0:0:0:0:
388,80,60048,2,0,P|380:114|389:148,1,70,2|2,0:0|0:0,0:0:0:0:
440,216,60427,2,0,P|448:249|440:283,1,70,2|2,0:0|0:0,0:0:0:0:
380,340,60807,6,0,P|441:368|503:340,1,140,4|8,0:0|0:0,0:0:0:0:
440,283,61377,1,0,0:0:0:0:
380,340,61566,2,0,B|344:348|344:348|312:340,1,70,2|2,0:0|0:0,0:0:0:0:
248,284,61946,2,0,B|212:276|212:276|180:284,1,70,8|0,0:0|0:0,0:0:0:0:
100,312,62326,6,0,L|92:240,1,70,2|2,0:0|0:0,0:0:0:0:
80,160,62706,1,8,0:0:0:0:
152,116,62896,1,0,0:0:0:0:
224,160,63085,2,0,P|257:167|291:159,1,70,2|2,0:0|0:0,0:0:0:0:
292,76,63465,2,0,P|258:68|224:76,1,70,8|0,0:0|0:0,0:0:0:0:
152,116,63845,6,0,P|148:196|188:236,1,140,2|8,0:0|0:0,0:0:0:0:
224,160,64415,1,0,0:0:0:0:
152,116,64605,2,0,L|80:124,1,70,2|2,0:0|0:0,0:0:0:0:
80,40,64984,2,0,L|149:32,1,70,8|0,0:0|0:0,0:0:0:0:
224,76,65364,6,0,P|257:83|291:75,1,70,2|2,0:0|0:0,0:0:0:0:
364,32,65744,1,8,0:0:0:0:
436,76,65934,1,0,0:0:0:0:
424,160,66124,2,0,L|416:232,1,70,2|2,0:0|0:0,0:0:0:0:
356,288,66503,1,8,0:0:0:0:
292,232,66693,1,0,0:0:0:0:
228,288,66883,6,0,B|160:264|160:312|92:288,1,140,2|12,0:0|0:0,0:0:0:0:
28,232,67453,1,0,0:0:0:0:
92,176,67643,2,0,P|100:144|92:108,2,70,2|2|12,0:0|0:0|0:0,0:0:0:0:
28,232,68212,1,0,0:0:0:0:
92,288,68402,6,0,B|128:292|156:264|156:264|184:292|218:288,1,140,2|12,0:0|0:0,0:0:0:0:
280,228,68972,1,0,0:0:0:0:
340,288,69162,2,0,P|372:296|408:288,1,70,2|2,0:0|0:0,0:0:0:0:
468,228,69541,1,12,0:0:0:0:
456,144,69731,6,0,L|448:72,1,70,4|2,0:0|0:0,0:0:0:0:
392,12,70111,2,0,B|324:36|324:-12|256:12,1,140,2|0,0:0|0:0,0:0:0:0:
200,76,70680,2,0,P|168:84|132:76,1,70,2|2,0:0|0:0,0:0:0:0:
76,12,71060,1,8,0:0:0:0:
20,76,71250,6,0,P|-4:140|20:204,2,140,8|12|8,0:0|0:0|0:0,0:0:0:0:
176,140,72389,1,12,0:0:0:0:
332,76,72769,1,8,0:0:0:0:
332,76,72864,1,0,0:0:0:0:
332,76,72959,6,0,B|340:124|340:124|324:168|324:168|332:212,1,140,4|8,0:0|0:0,0:0:0:0:
376,284,73529,1,0,0:0:0:0:
332,356,73718,2,0,L|260:348,1,70,2|2,0:0|0:0,0:0:0:0:
192,300,74098,2,0,L|120:308,1,70,8|0,0:0|0:0,0:0:0:0:
48,348,74478,6,0,B|28:304|28:304|48:212,1,140,6|8,0:0|0:0,0:0:0:0:
104,152,75048,1,0,0:0:0:0:
164,212,75237,2,0,P|196:220|232:212,1,70,2|2,0:0|0:0,0:0:0:0:
292,152,75617,2,0,P|325:144|359:152,1,70,8|0,0:0|0:0,0:0:0:0:
419,211,75997,6,0,P|443:131|415:87,1,140,6|8,0:0|0:0,0:0:0:0:
359,152,76566,1,0,0:0:0:0:
419,211,76756,2,0,B|411:283,1,70,2|2,0:0|0:0,0:0:0:0:
396,364,77136,1,8,0:0:0:0:
328,316,77326,1,0,0:0:0:0:
260,364,77516,6,0,B|192:340|192:392|124:364,1,140,2|8,0:0|0:0,0:0:0:0:
56,316,78085,1,0,0:0:0:0:
68,232,78275,2,0,L|76:160,1,70,2|2,0:0|0:0,0:0:0:0:
140,104,78655,1,8,0:0:0:0:
204,160,78845,1,0,0:0:0:0:
268,104,79035,6,0,P|328:74|391:100,1,140,4|8,0:0|0:0,0:0:0:0:
332,160,79604,1,0,0:0:0:0:
268,104,79794,2,0,L|260:32,1,70,2|2,0:0|0:0,0:0:0:0:
176,36,80174,2,0,L|168:108,1,70,8|0,0:0|0:0,0:0:0:0:
104,160,80554,6,0,B|104:200|80:224|80:224|104:248|104:288,1,140,6|8,0:0|0:0,0:0:0:0:
168,344,81123,1,0,0:0:0:0:
232,288,81313,2,0,P|268:280|300:288,1,70,2|2,0:0|0:0,0:0:0:0:
364,344,81693,1,8,0:0:0:0:
428,288,81883,1,0,0:0:0:0:
364,232,82073,6,0,P|334:171|360:108,1,140,6|8,0:0|0:0,0:0:0:0:
420,168,82642,1,0,0:0:0:0:
364,232,82832,2,0,L|295:224,1,70,2|2,0:0|0:0,0:0:0:0:
224,272,83212,1,8,0:0:0:0:
156,224,83402,1,0,0:0:0:0:
88,272,83592,6,0,B|88:232|64:208|64:208|88:184|88:144,1,140,2|8,0:0|0:0,0:0:0:0:
156,92,84161,1,0,0:0:0:0:
224,144,84351,2,0,L|293:136,1,70,2|2,0:0|0:0,0:0:0:0:
372,101,84731,1,8,0:0:0:0:
363,186,84921,1,0,0:0:0:0:
293,136,85111,6,0,P|276:185|293:234,2,105,6|6|2,0:0|0:0|0:0,0:0:0:0:
363,186,85870,2,0,P|412:202|461:186,2,105,6|6|2,0:0|0:0|0:0,0:0:0:0:
293,234,86630,6,0,P|243:217|194:233,2,105,6|6|2,0:0|0:0|0:0,0:0:0:0:
245,305,87389,1,6,0:0:0:0:
