osu file format v14

[General]
AudioFilename: audio.mp3
AudioLeadIn: 0
PreviewTime: 47611
Countdown: 0
SampleSet: Soft
StackLeniency: 0.7
Mode: 0
LetterboxInBreaks: 0
WidescreenStoryboard: 0

[Editor]
DistanceSpacing: 0.6
BeatDivisor: 8
GridSize: 4
TimelineZoom: 2.4

[Metadata]
Title:Give Me Secret
TitleUnicode:ギブミー・シークレット
Artist:StylipS
ArtistUnicode:StylipS
Creator:Cris-
Version:xxdeathx's Insane
Source:ハイスクールD×D BorN
Tags:Hey lululu wolf3211 xxdeathx Highschool High School DxD Season 3 Ending TV Size TNK
BeatmapID:1510171
BeatmapSetID:693215

[Difficulty]
HPDrainRate:6
CircleSize:4
OverallDifficulty:7.5
ApproachRate:9
SliderMultiplier:1.72
SliderTickRate:1

[Events]
//Background and Video events
0,0,"BorN.jpg",0,0
Video,0,"DxDBorNED.flv"
//Break Periods
//Storyboard Layer 0 (Background)
//Storyboard Layer 1 (Fail)
//Storyboard Layer 2 (Pass)
//Storyboard Layer 3 (Foreground)
//Storyboard Sound Samples

[TimingPoints]
48,379.746835443038,4,2,1,70,1,0
4984,-133.333333333333,4,2,1,30,0,0
6123,-100,4,2,1,70,0,0
11440,-133.333333333333,4,2,1,50,0,0
12199,-133.333333333333,4,2,2,50,0,0
23782,-100,4,2,1,50,0,0
24351,-100,4,2,1,60,0,0
30807,-66.6666666666667,4,2,1,60,0,0
31187,-100,4,2,1,60,0,0
32326,-66.6666666666667,4,2,1,60,0,0
32706,-100,4,2,1,60,0,0
33845,-66.6666666666667,4,2,1,60,0,0
34225,-100,4,2,1,60,0,0
42579,-100,4,2,1,70,0,0
47706,-133.333333333333,4,2,1,50,0,0
48655,-80,4,2,1,80,0,1
60048,-80,4,2,1,70,0,0
60807,-80,4,2,1,80,0,1
72959,-100,4,2,1,70,0,0
74478,-66.6666666666667,4,2,1,70,0,0
74858,-100,4,2,1,70,0,0
75997,-66.6666666666667,4,2,1,70,0,0
76377,-100,4,2,1,70,0,0
80554,-66.6666666666667,4,2,1,70,0,0
80934,-100,4,2,1,70,0,0
82073,-66.6666666666667,4,2,1,70,0,0
82453,-100,4,2,1,70,0,0

[Colours]
Combo1 : 183,142,81
Combo2 : 231,35,45
Combo3 : 109,203,239
Combo4 : 236,208,15
Combo5 : 84,207,48
Combo6 : 112,74,54

[HitObjects]
168,128,48,6,0,P|108:148|44:120,2,129,4|8|0,0:0|0:0|0:0,0:0:0:0:
256,52,807,1,8,0:0:0:0:
256,152,997,1,0,0:0:0:0:
256,172,1092,1,0,0:0:0:0:
256,192,1187,1,2,0:0:0:0:
256,212,1282,1,0,0:0:0:0:
256,232,1377,2,0,L|256:276,1,43,8|0,0:0|0:0,0:0:0:0:
344,256,1566,6,0,P|404:236|472:264,2,129,4|8|0,0:0|0:0|0:0,0:0:0:0:
256,332,2326,1,8,0:0:0:0:
256,232,2516,1,0,0:0:0:0:
256,212,2611,1,0,0:0:0:0:
256,192,2706,2,0,L|256:144,1,43,2|0,0:0|0:0,0:0:0:0:
256,68,2896,2,0,L|256:24,1,43,8|0,0:0|0:0,0:0:0:0:
132,152,3085,5,4,0:0:0:0:
380,152,3370,1,8,0:0:0:0:
256,332,3655,1,0,0:0:0:0:
256,68,3845,5,4,0:0:0:0:
104,304,4130,1,8,0:0:0:0:
408,304,4415,1,0,0:0:0:0:
256,192,4604,5,4,0:0:0:0:
256,192,4984,2,0,L|256:348,2,129.00000492096,2|2|2,0:0|0:0|0:0,0:0:0:0:
256,96,5934,2,0,L|256:72,3,16.12500061512,0|0|0|0,0:0|0:0|0:0|0:0,0:0:0:0:
216,56,6123,6,0,P|168:36|120:44,1,86,4|0,0:0|0:0,0:0:0:0:
128,60,6408,1,8,0:0:0:0:
132,80,6503,1,8,0:0:0:0:
216,200,6693,2,0,P|253:274|219:350,1,172,2|8,0:0|0:0,0:0:0:0:
140,316,7168,1,8,0:0:0:0:
120,324,7263,2,0,P|116:281|132:241,1,86,8|0,0:0|0:0,0:0:0:0:
296,328,7642,6,0,P|344:348|392:340,1,86,4|0,0:0|0:0,0:0:0:0:
384,324,7927,1,8,0:0:0:0:
380,304,8022,1,8,0:0:0:0:
296,184,8212,2,0,P|258:109|292:33,1,172,2|8,0:0|0:0,0:0:0:0:
372,68,8687,1,8,0:0:0:0:
392,60,8782,2,0,P|395:102|379:142,1,86,8|0,0:0|0:0,0:0:0:0:
136,136,9161,6,0,P|96:120|32:128,1,86,2|0,0:0|0:0,0:0:0:0:
53,120,9446,1,8,0:0:0:0:
53,120,9541,1,8,0:0:0:0:
183,228,9731,1,0,0:0:0:0:
376,136,9921,2,0,P|416:120|480:128,1,86,2|0,0:0|0:0,0:0:0:0:
459,120,10206,1,8,0:0:0:0:
459,120,10301,1,8,0:0:0:0:
329,228,10491,1,0,0:0:0:0:
256,96,10680,6,0,L|256:204,1,86,0|0,0:0|0:0,0:0:0:0:
256,182,10965,1,8,0:0:0:0:
256,182,11060,1,8,0:0:0:0:
256,24,11250,1,0,0:0:0:0:
256,268,11440,2,0,L|256:312,3,32.2500012302399,4|0|0|0,0:0|0:0|0:0|0:0,0:0:0:0:
220,324,11820,2,0,P|256:352|292:308,1,96.7500036907198,2|0,0:0|0:0,0:0:0:0:
336,264,12199,6,0,B|344:224|344:224|332:120,1,129.00000492096,4|2,0:0|0:0,0:0:0:0:
333,136,12959,1,2,0:0:0:0:
256,220,13149,1,0,0:0:0:0:
256,220,13244,1,0,0:0:0:0:
256,220,13339,2,0,P|212:224|176:216,1,64.5000024604798,2|0,0:0|0:0,0:0:0:0:
104,148,13718,5,2,0:0:0:0:
76,252,13908,1,0,0:0:0:0:
76,252,14003,1,0,0:0:0:0:
76,252,14098,2,0,L|84:340,1,64.5000024604798,2|0,0:0|0:0,0:0:0:0:
192,220,14478,1,2,0:0:0:0:
288,296,14668,1,0,0:0:0:0:
288,296,14763,1,0,0:0:0:0:
288,296,14858,2,0,P|320:288|372:296,1,64.5000024604798,2|0,0:0|0:0,0:0:0:0:
176,264,15237,6,0,B|168:224|168:224|180:120,1,129.00000492096,4|2,0:0|0:0,0:0:0:0:
179,136,15997,1,2,0:0:0:0:
256,220,16187,1,0,0:0:0:0:
256,220,16282,1,0,0:0:0:0:
256,220,16377,2,0,P|300:224|336:216,1,64.5000024604798,2|0,0:0|0:0,0:0:0:0:
408,148,16756,5,2,0:0:0:0:
436,252,16946,1,0,0:0:0:0:
436,252,17041,1,0,0:0:0:0:
436,252,17136,2,0,L|428:340,1,64.5000024604798,2|0,0:0|0:0,0:0:0:0:
319,220,17516,1,2,0:0:0:0:
224,296,17706,1,0,0:0:0:0:
224,296,17801,1,0,0:0:0:0:
224,296,17896,2,0,P|192:288|140:296,1,64.5000024604798,2|0,0:0|0:0,0:0:0:0:
288,360,18275,5,2,0:0:0:0:
320,220,18465,1,0,0:0:0:0:
320,220,18560,1,0,0:0:0:0:
320,220,18655,2,0,L|408:216,1,64.5000024604798,2|0,0:0|0:0,0:0:0:0:
224,84,19035,1,2,0:0:0:0:
192,224,19225,1,0,0:0:0:0:
192,224,19320,1,0,0:0:0:0:
192,224,19415,2,0,L|104:228,1,64.5000024604798,2|0,0:0|0:0,0:0:0:0:
256,160,19794,5,2,0:0:0:0:
196,296,19984,1,0,0:0:0:0:
196,296,20079,1,0,0:0:0:0:
196,296,20174,2,0,P|256:320|324:292,1,129.00000492096,2|2,0:0|0:0,0:0:0:0:
256,160,20744,1,0,0:0:0:0:
256,160,20839,1,0,0:0:0:0:
256,160,20934,2,0,L|256:252,1,64.5000024604798,2|0,0:0|0:0,0:0:0:0:
197,75,21313,2,0,P|257:55|315:79,1,129.00000492096,2|2,0:0|0:0,0:0:0:0:
176,192,22073,6,0,L|44:192,1,129.00000492096,2|2,0:0|0:0,0:0:0:0:
256,192,22642,1,0,0:0:0:0:
328,240,22832,6,0,P|444:192|320:152,1,322.500012302399,2|2,0:0|0:0,0:0:0:0:
256,192,23972,1,0,0:0:0:0:
256,192,24161,2,0,L|256:252,1,43
256,116,24351,6,0,L|256:12,1,86,4|0,0:0|0:0,0:0:0:0:
156,152,24731,1,8,0:0:0:0:
356,152,24921,1,0,0:0:0:0:
128,240,25111,1,0,0:0:0:0:
384,240,25301,1,0,0:0:0:0:
196,304,25491,1,8,0:0:0:0:
316,304,25680,1,0,0:0:0:0:
156,152,25870,5,2,0:0:0:0:
256,360,26060,1,0,0:0:0:0:
356,152,26250,1,8,0:0:0:0:
256,258,26440,1,0,0:0:0:0:
256,108,26630,2,0,L|256:8,1,86,0|0,0:0|0:0,0:0:0:0:
256,140,26915,1,0,0:0:0:0:
256,172,27010,2,0,L|256:272,1,86,8|0,0:0|0:0,0:0:0:0:
72,192,27389,6,0,L|188:192,1,86,2|0,0:0|0:0,0:0:0:0:
332,136,27769,1,8,0:0:0:0:
332,248,27959,1,0,0:0:0:0:
160,104,28149,1,0,0:0:0:0:
268,300,28339,1,0,0:0:0:0:
268,84,28529,1,8,0:0:0:0:
160,280,28718,1,0,0:0:0:0:
392,192,28908,5,2,0:0:0:0:
200,192,29098,1,0,0:0:0:0:
464,192,29288,1,8,0:0:0:0:
272,192,29478,1,0,0:0:0:0:
500,160,29668,2,0,P|516:116|496:56,1,86,0|0,0:0|0:0,0:0:0:0:
464,192,29953,1,0,0:0:0:0:
428,224,30048,2,0,P|412:268|432:328,1,86,8|0,0:0|0:0,0:0:0:0:
432,112,30427,6,0,P|396:100|332:124,1,86,2|0,0:0|0:0,0:0:0:0:
304,176,30712,1,0,0:0:0:0:
308,208,30807,2,0,P|368:236|376:160,1,129.00000492096,12|0,0:0|0:0,0:0:0:0:
240,112,31187,1,2,0:0:0:0:
136,176,31377,1,0,0:0:0:0:
136,176,31472,1,0,0:0:0:0:
136,176,31566,2,0,P|100:214|92:262,1,86,8|0,0:0|0:0,0:0:0:0:
237,384,31946,6,0,P|265:359|276:291,1,86,2|0,0:0|0:0,0:0:0:0:
245,241,32231,1,0,0:0:0:0:
216,229,32326,2,0,P|161:266|223:311,1,129.00000492096,12|0,0:0|0:0,0:0:0:0:
333,218,32706,1,2,0:0:0:0:
329,96,32896,1,0,0:0:0:0:
329,96,32991,1,0,0:0:0:0:
329,96,33085,2,0,P|314:46|276:15,1,86,8|0,0:0|0:0,0:0:0:0:
98,79,33465,6,0,P|106:116|159:160,1,86,2|0,0:0|0:0,0:0:0:0:
216,156,33750,1,0,0:0:0:0:
243,138,33845,2,0,P|238:73|168:104,1,129.00000492096,12|0,0:0|0:0,0:0:0:0:
194,245,34225,1,2,0:0:0:0:
302,303,34415,1,0,0:0:0:0:
302,303,34510,1,0,0:0:0:0:
302,303,34604,1,8,0:0:0:0:
76,192,34794,5,8,0:0:0:0:
376,88,35174,5,8,0:0:0:0:
432,192,35364,1,8,0:0:0:0:
376,296,35554,1,8,0:0:0:0:
376,296,35933,5,8,0:0:0:0:
376,88,36123,1,8,0:0:0:0:
432,192,36313,2,0,L|396:192,3,21.5,8|0|0|0,0:0|0:0|0:0|0:0,0:0:0:0:
372,192,36503,6,0,L|268:192,1,86,4|8,0:0|0:0,0:0:0:0:
208,240,36788,1,0,0:0:0:0:
208,240,36883,2,0,P|168:268|112:264,1,86,2|0,0:0|0:0,0:0:0:0:
304,240,37263,2,0,P|344:268|400:264,2,86,2|0|2,0:0|0:0|0:0,0:0:0:0:
256,140,37832,6,0,L|256:54,1,86,2|8,0:0|0:0,0:0:0:0:
256,304,38212,1,8,0:0:0:0:
256,324,38307,1,0,0:0:0:0:
256,344,38402,1,2,0:0:0:0:
124,340,38592,2,0,P|80:316|60:260,1,86,0|2,0:0|0:0,0:0:0:0:
212,212,38972,2,0,L|312:212,1,86,0|2,0:0|0:0,0:0:0:0:
449,285,39351,2,0,P|426:321|388:340,1,86,0|8,0:0|0:0,0:0:0:0:
256,140,39731,5,8,0:0:0:0:
256,140,39826,1,0,0:0:0:0:
256,140,39921,2,0,L|256:44,1,86,2|8,0:0|0:0,0:0:0:0:
184,184,40301,2,0,P|256:224|328:184,1,172,2|2,0:0|0:0,0:0:0:0:
176,92,40870,6,0,L|72:80,1,86,2|8,0:0|0:0,0:0:0:0:
328,184,41250,2,0,L|432:196,1,86,8|2,0:0|0:0,0:0:0:0:
184,184,41630,2,0,L|80:196,1,86,8|2,0:0|0:0,0:0:0:0:
336,92,42010,2,0,L|440:80,2,86,0|2|0,0:0|0:0|0:0,0:0:0:0:
180,308,42579,5,8,0:0:0:0:
256,176,42769,1,8,0:0:0:0:
256,176,42864,1,0,0:0:0:0:
256,176,42959,1,2,0:0:0:0:
332,308,43149,1,8,0:0:0:0:
128,184,43339,5,2,0:0:0:0:
256,348,43529,1,8,0:0:0:0:
256,348,43624,1,0,0:0:0:0:
256,348,43718,1,2,0:0:0:0:
384,184,43908,1,8,0:0:0:0:
117,263,44098,5,2,0:0:0:0:
256,100,44288,1,8,0:0:0:0:
256,100,44383,1,0,0:0:0:0:
256,100,44478,1,2,0:0:0:0:
394,263,44668,1,8,0:0:0:0:
204,188,44858,6,0,L|136:176,1,43,2|0,0:0|0:0,0:0:0:0:
308,188,45048,2,0,L|376:176,1,43,8|0,0:0|0:0,0:0:0:0:
160,260,45237,2,0,L|112:264,1,43,2|0,0:0|0:0,0:0:0:0:
352,260,45427,2,0,L|400:264,1,43,8|0,0:0|0:0,0:0:0:0:
200,92,45617,5,8,0:0:0:0:
224,68,45712,1,0,0:0:0:0:
256,60,45807,1,8,0:0:0:0:
288,68,45902,1,0,0:0:0:0:
312,92,45997,6,0,L|296:116,6,21.5,8|0|0|0|8|0|0,0:0|0:0|0:0|0:0|0:0|0:0|0:0,0:0:0:0:
200,92,46377,2,0,L|211:109,6,21.5,8|0|0|0|8|0|0,0:0|0:0|0:0|0:0|0:0|0:0|0:0,0:0:0:0:
256,180,46756,6,0,L|256:160,16,10.75,8|0|0|0|0|0|0|0|0|0|0|0|0|0|0|0|0,0:0|0:0|0:0|0:0|0:0|0:0|0:0|0:0|0:0|0:0|0:0|0:0|0:0|0:0|0:0|0:0|0:0,0:0:0:0:
192,208,47706,5,0,0:0:0:0:
120,280,47896,2,0,L|140:368,1,64.5000024604798
377,342,48275,2,0,L|392:280,1,64.5000024604798
320,208,48654,5,4,0:0:0:0:
308,312,48845,1,0,0:0:0:0:
308,312,48940,1,0,0:0:0:0:
308,312,49035,2,0,P|256:328|204:312,1,107.5,8|0,0:0|0:0,0:0:0:0:
180,184,49415,2,0,L|156:80,1,107.5,2|0,0:0|0:0,0:0:0:0:
155,79,49699,1,0,0:0:0:0:
155,79,49794,1,8,0:0:0:0:
356,80,49984,6,0,L|332:184,1,107.5,0|2,0:0|0:0,0:0:0:0:
216,28,50364,1,0,0:0:0:0:
256,16,50459,1,0,0:0:0:0:
296,28,50554,1,8,0:0:0:0:
146,260,50744,2,0,P|108:224|104:172,1,107.5,0|2,0:0|0:0,0:0:0:0:
408,172,51123,1,0,0:0:0:0:
408,172,51218,1,0,0:0:0:0:
408,172,51313,2,0,P|403:224|365:260,1,107.5,8|0,0:0|0:0,0:0:0:0:
256,88,51693,5,2,0:0:0:0:
336,192,51883,1,0,0:0:0:0:
336,192,51978,1,0,0:0:0:0:
336,192,52073,2,0,B|280:204|256:256|256:256|232:204|172:192,1,215,8|2,0:0|0:0,0:0:0:0:
160,292,52642,1,0,0:0:0:0:
160,292,52737,1,0,0:0:0:0:
160,292,52832,1,8,0:0:0:0:
350,290,53022,6,0,P|254:333|158:290,1,215,2|0,0:0|0:0,0:0:0:0:
159,291,53497,1,0,0:0:0:0:
159,291,53592,1,8,0:0:0:0:
204,92,53782,2,0,P|256:76|308:92,1,107.5,0|2,0:0|0:0,0:0:0:0:
308,236,54161,2,0,P|256:252|204:236,1,107.5,0|8,0:0|0:0,0:0:0:0:
256,164,54541,1,0,0:0:0:0:
104,156,54731,6,0,B|80:136|80:136|172:156,1,107.5,2|0,0:0|0:0,0:0:0:0:
408,228,55111,2,0,B|432:248|432:248|340:228,1,107.5,8|0,0:0|0:0,0:0:0:0:
168,64,55491,2,0,P|256:12|344:64,1,215,2|8,0:0|0:0,0:0:0:0:
308,176,56060,6,0,P|256:192|204:176,1,107.5,0|2,0:0|0:0,0:0:0:0:
256,104,56440,1,0,0:0:0:0:
256,104,56535,1,0,0:0:0:0:
256,104,56630,1,8,0:0:0:0:
356,244,56820,2,0,P|256:272|152:244,1,215,2|0,0:0|0:0,0:0:0:0:
151,243,57294,1,0,0:0:0:0:
151,243,57389,1,8,0:0:0:0:
256,28,57579,5,4,0:0:0:0:
256,320,57959,1,0,0:0:0:0:
256,348,58054,1,0,0:0:0:0:
256,376,58149,1,8,0:0:0:0:
256,243,58339,2,0,L|256:27,1,215,2|0,0:0|0:0,0:0:0:0:
256,28,58813,1,0,0:0:0:0:
256,28,58908,1,8,0:0:0:0:
72,192,59098,5,8,0:0:0:0:
440,192,59478,1,12,0:0:0:0:
300,304,59668,2,0,P|256:360|212:304,1,161.25,8|0,0:0|0:0,0:0:0:0:
344,232,60048,1,8,0:0:0:0:
168,232,60237,1,0,0:0:0:0:
256,28,60427,1,8,0:0:0:0:
256,76,60522,1,0,0:0:0:0:
256,124,60617,1,0,0:0:0:0:
256,172,60712,1,0,0:0:0:0:
256,220,60807,6,0,L|256:352,1,107.5,4|0,0:0|0:0,0:0:0:0:
256,327,61092,1,0,0:0:0:0:
256,327,61187,1,8,0:0:0:0:
344,232,61377,1,0,0:0:0:0:
168,232,61566,2,0,P|256:180|344:232,1,215,2|8,0:0|0:0,0:0:0:0:
160,316,62136,6,0,P|104:284|88:232,1,107.5,0|2,0:0|0:0,0:0:0:0:
296,136,62516,1,0,0:0:0:0:
316,112,62611,1,0,0:0:0:0:
336,84,62706,1,8,0:0:0:0:
423,246,62896,2,0,P|399:293|352:316,1,107.5,0|2,0:0|0:0,0:0:0:0:
216,136,63275,1,0,0:0:0:0:
196,112,63370,1,0,0:0:0:0:
176,84,63465,1,8,0:0:0:0:
256,316,63655,5,0,0:0:0:0:
352,316,63845,2,0,P|352:289|288:224,1,107.5,2|0,0:0|0:0,0:0:0:0:
256,224,64130,1,0,0:0:0:0:
207,228,64225,2,0,P|168:263|160:316,1,107.5,8|0,0:0|0:0,0:0:0:0:
256,384,64604,2,0,L|256:268,1,107.5,2|0,0:0|0:0,0:0:0:0:
256,250,64889,1,0,0:0:0:0:
256,224,64984,1,8,0:0:0:0:
324,88,65174,6,0,P|364:56|436:64,1,107.5,0|2,0:0|0:0,0:0:0:0:
436,196,65554,1,0,0:0:0:0:
408,216,65649,1,0,0:0:0:0:
376,216,65744,1,8,0:0:0:0:
188,88,65934,2,0,P|148:56|76:64,1,107.5,0|2,0:0|0:0,0:0:0:0:
76,196,66313,1,0,0:0:0:0:
104,216,66408,1,0,0:0:0:0:
136,216,66503,1,8,0:0:0:0:
324,88,66693,1,0,0:0:0:0:
188,88,66883,5,2,0:0:0:0:
256,236,67073,1,0,0:0:0:0:
256,236,67168,1,0,0:0:0:0:
256,236,67263,2,0,L|256:108,1,107.5,8|0,0:0|0:0,0:0:0:0:
168,288,67642,2,0,P|256:340|344:288,1,215,2|8,0:0|0:0,0:0:0:0:
168,164,68212,6,0,L|56:124,1,107.5,0|2,0:0|0:0,0:0:0:0:
344,168,68592,2,0,L|456:128,1,107.5,0|8,0:0|0:0,0:0:0:0:
256,236,68972,2,0,L|256:356,1,107.5,0|2,0:0|0:0,0:0:0:0:
256,112,69351,1,0,0:0:0:0:
256,80,69446,1,0,0:0:0:0:
256,48,69541,1,8,0:0:0:0:
96,160,69731,6,0,P|76:208|92:268,1,107.5,4|0,0:0|0:0,0:0:0:0:
179,356,70111,1,0,0:0:0:0:
197,332,70206,1,0,0:0:0:0:
216,308,70301,1,8,0:0:0:0:
416,160,70491,2,0,P|436:208|420:268,1,107.5,0|2,0:0|0:0,0:0:0:0:
333,356,70871,1,0,0:0:0:0:
315,332,70966,1,0,0:0:0:0:
296,308,71060,1,8,0:0:0:0:
128,116,71250,5,8,0:0:0:0:
384,116,71630,1,4,0:0:0:0:
156,240,72010,1,8,0:0:0:0:
356,240,72389,1,8,0:0:0:0:
256,28,72769,1,8,0:0:0:0:
212,116,72959,6,0,L|324:116,1,86,4|0,0:0|0:0,0:0:0:0:
298,116,73244,1,0,0:0:0:0:
298,116,73339,1,8,0:0:0:0:
136,204,73529,1,0,0:0:0:0:
376,204,73718,1,2,0:0:0:0:
192,292,73908,1,0,0:0:0:0:
192,292,74003,1,0,0:0:0:0:
192,292,74098,1,8,0:0:0:0:
320,292,74288,1,0,0:0:0:0:
212,116,74478,6,0,P|180:104|196:176,1,129.00000492096,4|0,0:0|0:0,0:0:0:0:
316,196,74763,1,0,0:0:0:0:
336,208,74858,2,0,P|364:168|364:120,1,86,8|0,0:0|0:0,0:0:0:0:
256,16,75237,1,2,0:0:0:0:
366,132,75427,1,0,0:0:0:0:
366,132,75522,1,0,0:0:0:0:
366,132,75617,1,8,0:0:0:0:
192,92,75807,1,0,0:0:0:0:
300,268,75997,6,0,P|332:280|316:208,1,129.00000492096,4|0,0:0|0:0,0:0:0:0:
196,188,76282,1,0,0:0:0:0:
176,176,76377,2,0,P|148:216|148:264,1,86,8|0,0:0|0:0,0:0:0:0:
256,368,76756,1,2,0:0:0:0:
145,251,76946,1,0,0:0:0:0:
145,251,77041,1,0,0:0:0:0:
145,251,77136,1,8,0:0:0:0:
368,72,77326,6,0,L|440:144,1,86,0|2,0:0|0:0,0:0:0:0:
292,104,77706,1,0,0:0:0:0:
296,80,77801,1,0,0:0:0:0:
300,56,77896,1,8,0:0:0:0:
144,72,78085,2,0,L|72:144,1,86,2|2,0:0|0:0,0:0:0:0:
220,104,78465,1,0,0:0:0:0:
216,80,78560,1,0,0:0:0:0:
212,56,78655,1,8,0:0:0:0:
256,280,78845,5,0,0:0:0:0:
212,192,79035,2,0,L|298:192,1,86,4|0,0:0|0:0,0:0:0:0:
376,208,79320,1,0,0:0:0:0:
376,208,79415,2,0,P|392:248|356:312,1,86,8|0,0:0|0:0,0:0:0:0:
131,288,79794,2,0,P|121:247|136:208,1,86,2|0,0:0|0:0,0:0:0:0:
137,207,80079,1,0,0:0:0:0:
137,207,80174,1,8,0:0:0:0:
256,304,80364,1,0,0:0:0:0:
300,120,80554,6,0,P|256:80|212:120,1,129.00000492096,4|0,0:0|0:0,0:0:0:0:
336,188,80839,1,0,0:0:0:0:
336,188,80934,2,0,P|376:137|370:94,1,86,8|0,0:0|0:0,0:0:0:0:
136,118,81313,2,0,P|145:159|176:188,1,86,2|0,0:0|0:0,0:0:0:0:
177,188,81598,1,0,0:0:0:0:
177,188,81693,1,8,0:0:0:0:
256,36,81883,1,0,0:0:0:0:
300,264,82073,6,0,P|256:304|212:264,1,129.00000492096,4|0,0:0|0:0,0:0:0:0:
256,192,82358,1,0,0:0:0:0:
256,192,82453,1,8,0:0:0:0:
352,328,82642,1,0,0:0:0:0:
160,328,82832,1,2,0:0:0:0:
256,168,83022,1,0,0:0:0:0:
256,144,83117,1,0,0:0:0:0:
256,120,83212,1,8,0:0:0:0:
152,28,83402,6,0,P|112:72|124:124,1,86,0|2,0:0|0:0,0:0:0:0:
316,244,83782,1,0,0:0:0:0:
332,264,83877,1,0,0:0:0:0:
348,284,83972,1,8,0:0:0:0:
400,95,84161,2,0,P|392:54|360:28,1,86,2|0,0:0|0:0,0:0:0:0:
196,244,84541,1,0,0:0:0:0:
180,264,84636,1,0,0:0:0:0:
164,284,84731,1,8,0:0:0:0:
324,120,84921,1,8,0:0:0:0:
96,28,85111,6,0,P|59:49|41:87,1,86,2|0,0:0|0:0,0:0:0:0:
135,181,85396,2,0,P|171:158|187:119,1,86,8|0,0:0|0:0,0:0:0:0:
96,28,85680,1,8,0:0:0:0:
416,28,85870,6,0,P|452:49|470:87,1,86,2|0,0:0|0:0,0:0:0:0:
377,181,86155,2,0,P|340:158|324:119,1,86,8|0,0:0|0:0,0:0:0:0:
416,28,86439,1,8,0:0:0:0:
320,248,86630,6,0,L|352:336,1,86,0|0,0:0|0:0,0:0:0:0:
162,328,86915,2,0,L|192:248,1,86,8|0,0:0|0:0,0:0:0:0:
256,140,87199,1,8,0:0:0:0:
256,340,87389,5,4,0:0:0:0:
