osu file format v14

[General]
AudioFilename: audio.mp3
AudioLeadIn: 0
PreviewTime: 47611
Countdown: 0
SampleSet: Soft
StackLeniency: 0.7
Mode: 0
LetterboxInBreaks: 0
WidescreenStoryboard: 0

[Editor]
DistanceSpacing: 1
BeatDivisor: 2
GridSize: 4
TimelineZoom: 2.4

[Metadata]
Title:Give Me Secret
TitleUnicode:ギブミー・シークレット
Artist:StylipS
ArtistUnicode:StylipS
Creator:Cris-
Version:lululu's Easy
Source:ハイスクールD×D BorN
Tags:Hey lululu wolf3211 xxdeathx Highschool High School DxD Season 3 Ending TV Size TNK
BeatmapID:1508894
BeatmapSetID:693215

[Difficulty]
HPDrainRate:2
CircleSize:3
OverallDifficulty:2
ApproachRate:3
SliderMultiplier:0.899999999999999
SliderTickRate:1

[Events]
//Background and Video events
0,0,"BorN.jpg",0,0
Video,0,"DxDBorNED.flv"
//Break Periods
//Storyboard Layer 0 (Background)
//Storyboard Layer 1 (Fail)
//Storyboard Layer 2 (Pass)
//Storyboard Layer 3 (Foreground)
//Storyboard Sound Samples

[TimingPoints]
48,379.746835443038,4,2,1,50,1,0
1566,-100,4,2,1,55,0,0
3085,-100,4,2,1,60,0,0
3845,-100,4,2,1,65,0,0
4604,-100,4,2,1,70,0,0
4984,-100,4,2,1,25,0,0
6123,-100,4,2,1,55,0,0
9161,-100,4,2,1,45,0,0
9921,-100,4,2,1,55,0,0
10680,-100,4,2,1,45,0,0
11440,-100,4,2,1,70,0,0
12199,-100,4,2,2,50,0,0
22832,-100,4,2,1,40,0,0
23782,-100,4,2,1,50,0,0
24351,-100,4,2,1,60,0,0
47706,-100,4,2,1,40,0,0
48655,-100,4,2,1,70,0,1
59098,-100,4,2,1,50,0,1
59478,-100,4,2,1,70,0,1
60048,-100,4,2,1,60,0,0
60807,-100,4,2,1,70,0,1
72959,-100,4,2,1,60,0,0
85111,-100,4,2,1,55,0,0

[Colours]
Combo1 : 183,142,81
Combo2 : 231,35,45
Combo3 : 109,203,239
Combo4 : 236,208,15
Combo5 : 84,207,48
Combo6 : 112,74,54

[HitObjects]
60,293,48,6,0,B|167:285|125:343|231:335,1,180,6|6,0:0|0:0,0:0:0:0:
298,277,1187,1,0,0:0:0:0:
338,357,1566,2,0,P|387:290|351:204,1,180,6|6,0:0|0:0,0:0:0:0:
265,191,2706,1,2,0:0:0:0:
315,116,3085,6,0,L|506:141,2,180,6|6|6,0:0|0:0|0:0,0:0:0:0:
234,157,4984,2,0,P|222:117|236:68,2,89.9999999999999,0|0|0,0:0|0:0|0:0,0:0:0:0:
285,230,6123,6,0,P|202:262|112:245,1,180,6|2,0:0|0:0,0:0:0:0:
45,187,7263,1,8,0:0:0:0:
72,101,7642,2,0,L|60:1,2,89.9999999999999,2|8|2,0:0|0:0|0:0,0:0:0:0:
138,161,8782,1,8,0:0:0:0:
191,88,9161,6,0,P|235:77|287:79,1,89.9999999999999,2|8,0:0|0:0,0:0:0:0:
322,157,9921,2,0,P|366:168|418:166,1,89.9999999999999,2|8,0:0|0:0,0:0:0:0:
482,113,10680,2,0,P|495:62|486:22,2,89.9999999999999,2|8|2,0:0|0:0|0:0,0:0:0:0:
421,282,12199,6,0,P|331:277|243:309,1,180,6|2,0:0|0:0,0:0:0:0:
159,284,13339,1,10,0:0:0:0:
92,223,13718,2,0,P|71:182|77:125,2,89.9999999999999,2|10|2,0:0|0:0|0:0,0:0:0:0:
160,163,14858,1,10,0:0:0:0:
233,214,15237,6,0,P|241:125|174:72,1,180,2|2,0:0|0:0,0:0:0:0:
88,51,16377,1,10,0:0:0:0:
29,119,16756,2,0,L|43:216,1,89.9999999999999,2|10,0:0|0:0,0:0:0:0:
113,262,17516,2,0,L|127:359,1,89.9999999999999,2|10,0:0|0:0,0:0:0:0:
212,374,18275,6,0,P|258:374|305:342,1,89.9999999999999,2|10,0:0|0:0,0:0:0:0:
234,285,19035,1,2,0:0:0:0:
262,199,19415,1,10,0:0:0:0:
217,121,19794,2,0,L|124:112,2,89.9999999999999,2|10|2,0:0|0:0|0:0,0:0:0:0:
304,98,20934,1,10,0:0:0:0:
368,160,21313,6,0,P|390:76|329:11,1,180,2|2,0:0|0:0,0:0:0:0:
245,31,22453,1,10,0:0:0:0:
304,98,22832,1,2,0:0:0:0:
394,229,24351,6,0,P|392:275|365:314,2,89.9999999999999,6|8|2,0:0|0:0|0:0,0:0:0:0:
305,243,25491,1,8,0:0:0:0:
249,172,25870,2,0,L|148:196,1,89.9999999999999,2|8,0:0|0:0,0:0:0:0:
116,114,26630,2,0,L|203:93,1,89.9999999999999,2|8,0:0|0:0,0:0:0:0:
290,69,27389,5,2,0:0:0:0:
351,134,27769,2,0,P|374:101|377:44,2,89.9999999999999,8|2|8,0:0|0:0|0:0,0:0:0:0:
263,155,28908,2,0,L|282:254,1,89.9999999999999,2|8,0:0|0:0,0:0:0:0:
302,330,29668,1,2,0:0:0:0:
224,376,30048,1,8,0:0:0:0:
144,334,30427,6,0,L|41:344,1,89.9999999999999,2|12,0:0|0:0,0:0:0:0:
19,259,31187,2,0,L|108:250,1,89.9999999999999,2|8,0:0|0:0,0:0:0:0:
173,187,31946,2,0,P|181:132|153:75,2,89.9999999999999,2|12|2,0:0|0:0|0:0,0:0:0:0:
91,149,33085,1,8,0:0:0:0:
13,102,33465,6,0,P|5:47|33:-10,2,89.9999999999999,2|12|2,0:0|0:0|0:0,0:0:0:0:
95,65,34604,2,0,L|158:55,1,45,8|8,0:0|0:0,0:0:0:0:
221,96,35174,2,0,L|335:75,2,89.9999999999999,12|12|2,0:0|0:0|0:0,0:0:0:0:
118,178,36503,6,0,P|70:251|97:342,1,180,6|2,0:0|0:0,0:0:0:0:
170,292,37642,1,2,0:0:0:0:
247,337,38022,2,0,L|364:330,1,89.9999999999999,10|2,0:0|0:0,0:0:0:0:
413,379,38782,2,0,P|428:333|405:273,1,89.9999999999999,2|2,0:0|0:0,0:0:0:0:
460,213,39541,6,0,B|359:181|387:247|285:215,1,180,10|2,0:0|0:0,0:0:0:0:
240,137,40680,1,2,0:0:0:0:
161,92,41060,2,0,P|148:138|167:192,1,89.9999999999999,10|2,0:0|0:0,0:0:0:0:
209,252,41820,2,0,P|222:298|203:352,1,89.9999999999999,2|2,0:0|0:0,0:0:0:0:
125,361,42579,6,0,B|80:324|80:324|65:181,1,180,2|2,0:0|0:0,0:0:0:0:
120,130,43718,1,2,0:0:0:0:
204,159,44098,2,0,P|295:164|393:153,1,180,2|2,0:0|0:0,0:0:0:0:
430,78,45237,1,2,0:0:0:0:
256,192,45617,12,2,47136,0:0:0:0:
55,320,48655,6,0,L|176:307,1,89.9999999999999,4|8,0:0|0:0,0:0:0:0:
201,240,49415,2,0,L|322:253,1,89.9999999999999,2|8,0:0|0:0,0:0:0:0:
380,256,50174,2,0,P|413:221|417:161,2,89.9999999999999,2|8|2,0:0|0:0|0:0,0:0:0:0:
328,181,51313,1,8,0:0:0:0:
278,105,51693,6,0,L|153:115,1,89.9999999999999,2|8,0:0|0:0,0:0:0:0:
106,150,52453,2,0,P|85:106|99:41,2,89.9999999999999,2|8|2,0:0|0:0|0:0,0:0:0:0:
177,204,53592,1,8,0:0:0:0:
144,288,53972,2,0,L|52:302,1,89.9999999999999,2|8,0:0|0:0,0:0:0:0:
0,229,54731,6,0,P|-7:185|8:116,1,89.9999999999999,2|12,0:0|0:0,0:0:0:0:
62,75,55491,2,0,P|105:64|171:88,1,89.9999999999999,2|12,0:0|0:0,0:0:0:0:
196,150,56250,2,0,P|162:163|97:144,2,89.9999999999999,2|12|2,0:0|0:0|0:0,0:0:0:0:
280,119,57389,2,0,L|288:191,1,45,12|4,0:0|0:0,0:0:0:0:
306,251,57959,6,0,L|178:269,2,89.9999999999999,2|0|2,0:0|0:0|0:0,0:0:0:0:
387,288,59098,2,0,P|409:246|393:177,1,89.9999999999999,8|4,0:0|0:0,0:0:0:0:
391,70,60048,2,0,P|348:86|280:89,1,89.9999999999999,2|2,0:0|0:0,0:0:0:0:
224,131,60807,6,0,L|215:26,2,89.9999999999999,4|8|2,0:0|0:0|0:0,0:0:0:0:
233,219,61946,1,8,0:0:0:0:
182,294,62326,2,0,P|138:278|86:289,1,89.9999999999999,2|8,0:0|0:0,0:0:0:0:
132,367,63085,2,0,P|172:382|226:370,1,89.9999999999999,2|8,0:0|0:0,0:0:0:0:
287,317,63845,6,0,L|394:338,2,89.9999999999999,2|8|2,0:0|0:0|0:0,0:0:0:0:
245,237,64984,1,8,0:0:0:0:
316,182,65364,2,0,P|330:139|318:86,1,89.9999999999999,2|8,0:0|0:0,0:0:0:0:
239,61,66123,2,0,L|125:70,1,89.9999999999999,2|8,0:0|0:0,0:0:0:0:
80,9,66883,6,0,P|59:51|69:108,1,89.9999999999999,2|12,0:0|0:0,0:0:0:0:
129,152,67642,2,0,P|150:194|140:251,1,89.9999999999999,2|12,0:0|0:0,0:0:0:0:
105,316,68402,2,0,L|4:348,2,89.9999999999999,2|12|2,0:0|0:0|0:0,0:0:0:0:
182,362,69541,2,0,L|241:341,1,45,12|4,0:0|0:0,0:0:0:0:
283,278,70111,6,0,P|292:230|275:171,2,89.9999999999999,2|0|2,0:0|0:0|0:0,0:0:0:0:
327,356,71250,2,0,L|434:339,1,89.9999999999999,8|12,0:0|0:0,0:0:0:0:
484,283,72010,2,0,P|474:241|472:184,1,89.9999999999999,8|12,0:0|0:0,0:0:0:0:
453,106,72769,2,0,L|383:118,1,45,8|4,0:0|0:0,0:0:0:0:
321,88,73339,6,0,P|289:44|295:-27,2,89.9999999999999,8|2|8,0:0|0:0|0:0,0:0:0:0:
345,172,74478,1,6,0:0:0:0:
310,255,74858,2,0,L|192:245,2,89.9999999999999,8|2|8,0:0|0:0|0:0,0:0:0:0:
396,279,75997,5,6,0:0:0:0:
372,365,76377,2,0,L|264:355,1,89.9999999999999,8|2,0:0|0:0,0:0:0:0:
216,295,77136,1,8,0:0:0:0:
138,340,77516,2,0,P|124:293|143:243,1,89.9999999999999,2|8,0:0|0:0,0:0:0:0:
176,174,78275,2,0,P|187:125|171:77,1,89.9999999999999,2|8,0:0|0:0,0:0:0:0:
98,130,79035,5,4,0:0:0:0:
88,224,79415,2,0,L|-15:208,2,89.9999999999999,8|2|8,0:0|0:0|0:0,0:0:0:0:
151,287,80554,1,6,0:0:0:0:
239,270,80934,2,0,L|342:254,2,89.9999999999999,8|2|8,0:0|0:0|0:0,0:0:0:0:
204,353,82073,5,6,0:0:0:0:
293,357,82453,2,0,L|443:334,1,135,8|2,0:0|0:0,0:0:0:0:
466,255,83402,2,0,P|486:216|479:160,2,89.9999999999999,0|2|0,0:0|0:0|0:0,0:0:0:0:
397,196,84541,2,0,L|270:177,1,89.9999999999999,2|0,0:0|0:0,0:0:0:0:
256,192,85111,12,6,87389,0:0:0:0:
