osu file format v14

[General]
AudioFilename: audio.mp3
AudioLeadIn: 0
PreviewTime: 60390
Countdown: 1
SampleSet: Soft
StackLeniency: 0.7
Mode: 0
LetterboxInBreaks: 0
WidescreenStoryboard: 0

[Editor]
DistanceSpacing: 1
BeatDivisor: 4
GridSize: 4
TimelineZoom: 5.299997

[Metadata]
Title:Choose me Darling (TV Size)
TitleUnicode:Choose me♡ダーリン (TV Size)
Artist:StylipS
ArtistUnicode:StylipS
Creator:Shocko Moo
Version:Choose ME!
Source:この中に1人、妹がいる!
Tags:Kono Naka ni Hitori, Imouto ga Iru! Opening Ogura Yui Noto Arisa Ishihara Kaori Matsunaga Maho Japanese J-Pop
BeatmapID:2166512
BeatmapSetID:1036298

[Difficulty]
HPDrainRate:6
CircleSize:4
OverallDifficulty:7
ApproachRate:9
SliderMultiplier:1.8
SliderTickRate:1

[Events]
//Background and Video events
0,0,"shitbg.jpg",0,0
//Break Periods
//Storyboard Layer 0 (Background)
//Storyboard Layer 1 (Fail)
//Storyboard Layer 2 (Pass)
//Storyboard Layer 3 (Foreground)
//Storyboard Layer 4 (Overlay)
//Storyboard Sound Samples

[TimingPoints]
590,400,4,2,1,30,1,0
1190,400,4,2,1,70,1,0
1190,-125,4,2,1,50,0,0
6790,-100,4,2,1,50,0,0
7590,-200,4,2,1,40,0,0
7990,-83.3333333333333,4,2,1,70,0,0
8290,-100,4,2,1,70,0,0
10790,-200,4,2,1,70,0,0
13190,-200,4,2,1,40,0,0
13990,-100,4,2,1,70,0,0
18790,-83.3333333333333,4,2,1,70,0,0
20390,-200,4,2,1,70,0,0
21790,-200,4,2,1,50,0,0
29590,-100,4,2,1,70,0,0
29990,-76.9230769230769,4,2,1,70,0,0
31590,-100,4,2,1,70,0,0
33190,-125,4,2,1,70,0,0
37990,-83.3333333333333,4,2,1,70,0,0
39590,-125,4,2,1,70,0,0
45990,-166.666666666667,4,2,1,50,0,0
50390,-83.3333333333333,4,2,1,70,0,0
52390,-111.111111111111,4,2,1,70,0,0
57190,-111.111111111111,4,2,1,50,0,0
58790,-111.111111111111,4,2,1,70,0,0
59056,-111.111111111111,4,2,1,50,0,0
59990,-166.666666666667,4,2,1,50,0,0
60390,-100,4,2,1,70,0,1
66790,-125,4,2,1,70,0,1
71190,-125,4,2,1,70,0,0
71790,-83.3333333333333,4,2,1,70,0,1
72590,-83.3333333333333,4,2,1,70,0,0
73190,-100,4,2,1,70,0,1
79590,-100,4,2,1,70,0,0
85990,-100,4,2,1,70,0,1
86590,-100,4,2,1,70,0,0
87190,-100,4,2,1,70,0,1
87790,-100,4,2,1,70,0,0
88390,-100,4,2,1,70,0,1
88990,-100,4,2,1,70,0,0

[Colours]
Combo1 : 255,128,128
Combo2 : 255,128,64
Combo3 : 255,255,128
Combo4 : 192,192,192
Combo5 : 255,128,192
Combo6 : 128,255,128

[HitObjects]
116,22,590,38,0,L|152:18,2,30,8|8|8,0:3|0:3|0:3,0:0:0:0:
41,53,790,1,8,0:3:0:0:
38,64,890,1,8,0:3:0:0:
35,74,990,1,4,0:3:0:0:
89,328,1190,6,0,L|174:320,1,72,2|2,3:2|0:0,0:0:0:0:
282,197,1590,2,0,L|286:233,1,36,10|0,0:0|0:0,0:0:0:0:
304,350,1790,1,2,0:0:0:0:
304,350,1890,2,0,L|350:346,2,36,2|0|0,0:0|3:0|0:0,0:0:0:0:
286,233,2190,5,2,0:0:0:0:
172,335,2390,1,10,0:0:0:0:
363,267,2590,1,2,0:0:0:0:
363,267,2690,1,2,0:0:0:0:
363,267,2790,1,0,0:0:0:0:
282,129,2990,2,0,L|332:136,1,36
478,173,3190,1,0,0:0:0:0:
486,168,3290,1,0,0:0:0:0:
493,162,3390,1,2,0:0:0:0:
500,153,3490,1,2,0:0:0:0:
504,143,3590,2,0,L|487:92,3,36,0|0|2|0,3:0|0:0|0:0|0:0,0:0:0:0:
442,7,3990,6,0,L|433:41,1,36,10|0,0:0|0:0,0:0:0:0:
403,156,4190,2,0,L|394:121,1,36,2|0,0:2|0:0,0:0:0:0:
312,34,4390,6,0,P|277:44|238:42,1,72,2|2,3:2|0:0,0:0:0:0:
39,28,4790,1,10,0:0:0:0:
54,42,4890,2,0,L|53:91,1,36,2|2,0:0|0:0,0:0:0:0:
129,167,5090,1,2,0:0:0:0:
117,153,5190,2,0,P|80:149|45:162,1,72,0|2,3:2|0:0,0:0:0:0:
104,364,5590,6,0,L|112:329,1,36,10|0,0:0|0:0,0:0:0:0:
183,250,5790,1,2,0:0:0:0:
183,250,5890,1,2,0:0:0:0:
183,250,5990,2,0,L|187:333,1,72,0|2,3:0|0:0,0:0:0:0:
361,367,6390,2,0,L|405:361,1,36,10|0,0:0|0:0,0:0:0:0:
491,274,6590,21,2,0:0:0:0:
491,274,6690,1,2,0:0:0:0:
491,274,6790,2,0,L|497:318,1,45,8|0,0:0|0:0,0:0:0:0:
382,243,6990,2,0,L|375:290,1,45,8|8,0:0|0:0,0:0:0:0:
412,51,7190,5,2,3:2:0:0:
493,86,7390,1,2,0:0:0:0:
255,83,7590,6,0,L|260:28,1,45,0|0,3:0|0:0,0:0:0:0:
434,151,7990,6,0,P|355:143|305:200,1,161.999995056153,12|0,0:0|0:0,0:0:0:0:
302,236,8390,1,0,3:0:0:0:
243,25,8590,5,2,0:0:0:0:
37,97,8790,2,0,P|110:97|176:83,1,135,10|2,0:0|0:0,0:0:0:0:
234,43,9190,2,0,P|219:85|216:134,1,90,0|0,3:0|0:0,0:0:0:0:
90,325,9590,2,0,L|24:321,1,45,10|0,0:0|0:0,0:0:0:0:
208,276,9790,1,2,0:0:0:0:
212,287,9890,1,2,0:0:0:0:
213,297,9990,22,0,P|216:328|215:352,1,45,0|0,3:2|1:0,0:0:0:0:
313,330,10190,2,0,P|309:361|310:385,1,45,2|0,0:0|1:0,0:0:0:0:
401,248,10390,2,0,P|403:270|403:292,1,45,8|0,0:0|1:0,0:0:0:0:
498,284,10590,2,0,P|495:306|495:328,1,45,2|0,0:0|1:0,0:0:0:0:
392,30,10790,6,0,P|395:57|393:81,1,45,6|0,3:2|0:0,0:0:0:0:
308,252,11090,6,0,P|320:225|335:207,1,45,14|0,3:2|0:0,0:0:0:0:
508,113,11390,6,0,P|481:124|459:129,1,45,14|0,3:2|0:0,0:0:0:0:
269,114,11690,6,0,P|295:117|318:127,1,45,14|0,3:2|0:0,0:0:0:0:
470,250,11990,22,0,P|450:228|436:208,1,45,14|0,3:2|0:0,0:0:0:0:
390,152,12290,69,14,3:2:0:0:
189,30,13190,1,8,0:3:0:0:
183,45,13290,1,8,0:3:0:0:
15,39,13490,1,8,0:3:0:0:
26,29,13590,2,0,P|56:31|80:40,1,45,0|8,0:0|0:3,0:0:0:0:
82,51,13890,1,0,0:0:0:0:
152,179,13990,6,0,L|253:173,1,90,6|0,3:2|0:0,0:0:0:0:
75,280,14290,1,2,0:0:0:0:
60,271,14390,2,0,P|35:232|33:184,1,90,10|0,0:0|0:0,0:0:0:0:
181,351,14790,6,0,L|245:347,1,45,2|8,3:2|0:0,0:0:0:0:
370,339,14990,1,0,0:0:0:0:
383,348,15090,1,2,0:0:0:0:
396,357,15190,1,8,0:0:0:0:
367,154,15390,5,2,0:0:0:0:
360,161,15490,1,2,0:0:0:0:
354,168,15590,2,0,L|349:266,1,90,2|0,3:2|0:0,0:0:0:0:
468,188,15890,1,2,0:0:0:0:
482,176,15990,2,0,L|477:78,1,90,10|0,0:0|0:0,0:0:0:0:
314,55,16390,5,2,3:2:0:0:
298,63,16490,2,0,L|241:56,1,45,10|0,0:0|0:0,0:0:0:0:
137,25,16690,1,2,0:0:0:0:
129,9,16790,1,8,0:0:0:0:
33,153,16990,5,2,0:0:0:0:
43,160,17090,1,2,0:0:0:0:
53,167,17190,2,0,P|101:165|153:143,1,90,2|0,3:2|0:0,0:0:0:0:
283,217,17490,2,0,P|240:202|195:200,1,90,2|0,0:0|0:0,0:0:0:0:
33,286,17790,1,2,0:0:0:0:
33,286,17990,2,0,L|36:338,1,45,2|0,3:2|0:0,0:0:0:0:
134,355,18190,1,0,0:0:0:0:
134,355,18290,1,0,0:0:0:0:
134,355,18390,2,0,P|177:343|232:345,1,90,10|0,0:0|0:0,0:0:0:0:
452,268,18790,21,8,0:0:0:0:
443,337,18890,2,0,L|440:277,1,53.9999983520508,8|0,0:0|0:0,0:0:0:0:
324,180,19090,1,8,0:0:0:0:
329,254,19190,2,0,L|332:194,1,53.9999983520508,8|0,0:0|0:0,0:0:0:0:
465,111,19390,1,8,0:0:0:0:
465,111,19590,2,0,L|409:107,1,53.9999983520508,4|0,3:2|1:0,0:0:0:0:
252,101,19790,5,10,0:0:0:0:
284,352,19990,1,10,0:0:0:0:
329,254,20190,5,8,0:3:0:0:
146,368,20390,5,14,0:0:0:0:
7,215,21790,5,2,3:2:0:0:
2,225,21990,1,2,3:2:0:0:
88,0,23190,1,2,0:0:0:0:
92,9,23390,1,2,3:2:0:0:
295,56,23590,21,2,3:2:0:0:
30,95,24390,1,2,3:2:0:0:
295,56,25190,1,2,3:2:0:0:
30,95,25590,1,2,3:2:0:0:
242,165,25990,5,2,3:2:0:0:
209,251,26190,1,2,3:2:0:0:
193,90,26390,1,2,3:2:0:0:
124,281,26590,2,0,L|89:275,1,22.5,2|0,0:0|1:0,0:0:0:0:
17,222,26790,6,0,L|19:282,1,45,0|0,3:0|0:0,0:0:0:0:
91,347,27190,2,0,L|93:287,1,45,8|0,0:0|0:0,0:0:0:0:
209,251,27590,1,0,3:0:0:0:
220,261,27690,2,0,L|219:296,2,22.5,8|0|0,0:0|0:0|0:0,0:0:0:0:
191,356,27990,2,0,L|244:352,1,45,8|0,0:0|0:0,0:0:0:0:
470,294,28390,6,0,L|475:339,1,45,0|0,3:0|0:0,0:0:0:0:
351,353,28790,2,0,L|355:308,1,45,8|0,0:0|0:0,0:0:0:0:
413,198,29190,1,0,3:0:0:0:
426,212,29290,2,0,L|467:214,2,22.5,8|0|0,0:0|0:0|0:0,0:0:0:0:
309,179,29590,2,0,L|262:182,3,45,8|0|0|0,0:0|0:0|0:0|0:0,0:0:0:0:
101,27,29990,5,14,0:0:0:0:
37,95,30190,1,2,0:0:0:0:
262,89,30390,21,14,0:0:0:0:
194,24,30590,1,2,0:0:0:0:
200,250,30790,5,14,0:0:0:0:
265,182,30990,1,2,0:0:0:0:
39,188,31190,21,14,0:0:0:0:
107,252,31390,1,2,0:0:0:0:
310,42,31590,5,4,3:2:0:0:
432,74,31790,1,10,0:0:0:0:
432,74,31890,1,0,0:0:0:0:
432,74,31990,2,0,L|429:23,1,45,10|0,0:0|0:0,0:0:0:0:
323,136,32190,1,10,0:0:0:0:
414,211,32290,2,0,P|460:212|509:200,1,90,6|0,3:2|0:0,0:0:0:0:
502,202,32590,1,2,3:2:0:0:
426,309,32790,2,0,P|382:299|337:300,1,90,10|2,0:0|0:0,0:0:0:0:
178,358,33090,1,0,0:0:0:0:
194,349,33190,22,0,P|196:313|187:278,1,72,4|0,3:2|0:0,0:0:0:0:
38,268,33590,1,8,0:0:0:0:
38,268,33790,1,0,0:0:0:0:
202,189,33990,1,0,3:0:0:0:
182,199,34090,2,0,L|136:195,1,36,8|0,0:0|0:0,0:0:0:0:
36,86,34290,1,0,0:0:0:0:
52,79,34390,2,0,P|63:115|57:153,1,72,8|0,0:0|0:0,0:0:0:0:
168,11,34790,6,0,L|88:4,1,72,0|0,3:0|0:0,0:0:0:0:
208,111,35190,1,8,0:0:0:0:
208,111,35390,1,0,0:0:0:0:
302,20,35590,1,0,3:0:0:0:
315,32,35690,2,0,L|315:68,1,36,8|0,0:0|0:0,0:0:0:0:
249,187,35890,1,0,0:0:0:0:
235,201,35990,2,0,L|314:196,1,72,8|0,0:0|0:0,0:0:0:0:
474,20,36390,6,0,L|471:104,1,72,0|0,3:0|0:0,0:0:0:0:
370,112,36790,1,8,0:0:0:0:
370,112,36990,2,0,L|375:147,1,36,8|8,0:3|0:3,0:0:0:0:
447,302,37190,1,0,3:0:0:0:
439,288,37290,2,0,P|421:286|404:291,1,36,8|0,0:0|0:0,0:0:0:0:
348,229,37490,1,0,3:0:0:0:
331,224,37590,2,0,P|317:235|308:251,1,36,8|0,0:0|0:0,0:0:0:0:
191,355,37790,5,2,0:0:0:0:
270,328,37890,1,2,0:0:0:0:
187,278,37990,6,0,L|183:331,1,53.9999983520508,14|0,3:2|1:0,0:0:0:0:
37,230,38190,21,2,0:0:0:0:
110,196,38290,2,0,L|114:249,1,53.9999983520508,14|0,3:2|1:0,0:0:0:0:
273,175,38490,5,2,0:0:0:0:
200,141,38590,2,0,L|196:194,1,53.9999983520508,14|0,3:2|1:0,0:0:0:0:
39,99,38790,5,2,0:0:0:0:
112,65,38890,2,0,L|116:118,1,53.9999983520508,14|0,3:2|1:0,0:0:0:0:
256,47,39090,5,2,0:0:0:0:
183,13,39190,1,14,3:2:0:0:
195,194,39390,1,14,3:2:0:0:
398,91,39590,6,0,L|313:88,1,72,6|0,3:2|0:0,0:0:0:0:
267,234,39990,2,0,L|351:231,1,72,8|0,0:0|0:0,0:0:0:0:
485,300,40390,1,0,3:0:0:0:
499,286,40490,2,0,L|501:237,1,36,8|0,0:0|0:0,0:0:0:0:
400,351,40690,1,0,0:0:0:0:
388,334,40790,2,0,P|352:333|311:344,1,72,8|0,0:0|0:0,0:0:0:0:
63,275,41190,22,0,L|58:361,1,72,0|0,3:0|0:0,0:0:0:0:
180,242,41590,2,0,L|184:313,1,72,8|0,0:0|0:0,0:0:0:0:
39,175,41990,1,0,3:0:0:0:
58,186,42090,2,0,P|83:188|102:184,1,36,8|0,0:0|0:0,0:0:0:0:
148,35,42290,1,0,0:0:0:0:
132,45,42390,2,0,L|135:133,1,72,8|0,0:0|0:0,0:0:0:0:
287,205,42790,6,0,L|401:199,1,108,2|0,3:2|0:0,0:0:0:0:
459,157,43190,2,0,P|453:192|455:228,1,72,8|0,0:0|0:0,0:0:0:0:
427,53,43590,2,0,P|460:39|490:19,1,72,2|0,3:2|0:0,0:0:0:0:
337,124,43990,2,0,P|308:101|276:85,1,72,10|0,0:0|0:0,0:0:0:0:
336,343,44390,6,0,P|407:344|476:325,1,144,2|8,3:2|0:0,0:0:0:0:
302,219,44990,1,2,0:0:0:0:
228,313,45190,2,0,L|232:384,1,72,2|8,3:2|0:0,0:0:0:0:
206,176,45590,1,8,3:2:0:0:
66,360,45790,1,8,0:3:0:0:
66,360,45890,1,8,0:3:0:0:
66,360,45990,6,0,P|57:310|66:242,1,107.999996704102,6|0,3:2|0:0,0:0:0:0:
86,151,46590,1,0,3:0:0:0:
86,151,46790,2,0,L|30:147,1,53.9999983520508,2|0,3:2|0:0,0:0:0:0:
230,22,47190,5,8,0:0:0:0:
230,22,47590,2,0,L|234:85,1,53.9999983520508,2|2,3:2|0:0,0:0:0:0:
243,120,47890,2,0,L|240:209,1,80.9999975280763,2|2,0:0|3:2,0:0:0:0:
399,61,48390,2,0,P|403:34|397:8,1,53.9999983520508,2|0,3:2|0:0,0:0:0:0:
334,211,48790,21,8,0:0:0:0:
334,211,49190,2,0,L|449:206,1,107.999996704102,2|0,3:2|0:0,0:0:0:0:
400,305,49790,1,0,3:0:0:0:
400,305,49990,2,0,L|402:372,1,53.9999983520508,2|0,3:2|0:0,0:0:0:0:
129,255,50390,6,0,P|161:339|71:331,1,215.999993408203,10|0,0:0|3:0,0:0:0:0:
70,330,50990,5,10,0:2:0:0:
89,51,51190,1,10,0:2:0:0:
169,143,51390,1,2,0:0:0:0:
0,139,51490,2,0,P|81:141|171:129,1,161.999995056153,10|10,0:0|0:0,0:0:0:0:
238,22,51990,1,10,0:0:0:0:
428,113,52190,1,2,0:0:0:0:
425,104,52290,1,8,0:0:0:0:
422,98,52390,6,0,L|329:93,1,80.9999975280763,0|0,3:0|0:0,0:0:0:0:
251,212,52790,1,10,0:0:0:0:
239,203,52890,2,0,L|237:162,1,40.4999987640381,0|2,0:0|0:0,0:0:0:0:
396,184,53090,1,0,0:0:0:0:
410,195,53190,2,0,P|420:234|412:279,1,80.9999975280763,0|2,3:0|0:0,0:0:0:0:
245,361,53590,2,0,P|204:356|157:366,1,80.9999975280763,10|2,0:0|0:0,0:0:0:0:
4,280,53990,2,0,P|45:285|92:275,1,80.9999975280763,0|2,3:0|0:0,0:0:0:0:
163,109,54390,5,10,0:0:0:0:
47,192,54590,1,2,0:0:0:0:
39,202,54690,2,0,L|38:151,2,40.4999987640381,0|0|0,0:0|3:0|0:0,0:0:0:0:
151,235,54990,1,2,0:0:0:0:
82,41,55190,1,10,0:0:0:0:
244,109,55390,1,2,0:0:0:0:
244,109,55490,1,2,0:0:0:0:
244,109,55590,22,0,P|280:123|325:121,1,80.9999975280763,0|0,3:0|0:0,0:0:0:0:
492,90,55890,1,0,0:0:0:0:
476,70,55990,2,0,P|435:68|398:82,1,80.9999975280763,8|0,0:0|0:0,0:0:0:0:
318,197,56290,1,0,0:0:0:0:
333,209,56390,6,0,P|376:204|417:205,1,80.9999975280763,0|0,3:0|0:0,0:0:0:0:
482,284,56690,1,0,0:0:0:0:
467,296,56790,2,0,P|424:291|383:292,1,80.9999975280763,8|2,0:0|0:0,0:0:0:0:
281,365,57090,1,2,0:0:0:0:
281,365,57190,5,6,3:2:0:0:
203,358,57590,1,2,0:0:0:0:
127,352,57990,1,2,0:0:0:0:
51,347,58390,1,2,0:0:0:0:
141,10,58790,5,14,0:0:0:0:
80,221,59056,5,8,0:3:0:0:
69,235,59190,2,0,L|12:239,2,53.9999983520508,8|8|8,0:3|0:3|0:3,0:0:0:0:
174,196,59590,2,0,L|231:200,2,53.9999983520508,4|4|4,0:3|0:3|0:3,0:0:0:0:
141,10,59990,6,0,L|134:91,1,80.9999975280763,8|0,0:3|1:0,0:0:0:0:
121,121,60390,6,0,L|178:121,1,45,6|0,3:2|0:0,0:0:0:0:
319,28,60590,1,0,0:0:0:0:
301,21,60690,1,0,0:0:0:0:
284,25,60790,2,0,L|271:131,1,90,10|2,0:0|0:0,0:0:0:0:
474,183,61190,2,0,P|435:169|384:172,1,90,0|2,3:0|0:0,0:0:0:0:
394,274,61490,1,0,0:0:0:0:
408,284,61590,2,0,L|453:284,1,45,10|0,0:0|0:0,0:0:0:0:
225,347,61790,1,2,0:0:0:0:
225,347,61990,6,0,L|133:341,1,90,2|0,3:2|0:0,0:0:0:0:
4,276,62290,1,0,0:0:0:0:
19,264,62390,2,0,L|111:258,1,90,8|2,0:0|0:0,0:0:0:0:
175,153,62690,2,0,L|171:198,1,45,0|2,0:0|0:0,0:0:0:0:
73,122,62890,1,8,0:0:0:0:
63,112,62990,2,0,L|66:156,1,45
156,39,63190,2,0,P|198:53|243:51,1,90,8|0,0:0|0:0,0:0:0:0:
481,15,63590,6,0,L|470:119,1,90,2|0,3:2|0:0,0:0:0:0:
423,205,63890,1,0,0:0:0:0:
440,212,63990,2,0,L|501:200,1,45,10|0,0:0|0:0,0:0:0:0:
339,159,64190,2,0,P|329:202|335:247,1,90,2|0,0:0|3:0,0:0:0:0:
436,321,64490,1,0,0:0:0:0:
420,332,64590,2,0,L|359:325,1,45,2|0,0:0|0:0,0:0:0:0:
207,350,64790,2,0,P|251:343|302:351,1,90,10|2,0:0|0:0,0:0:0:0:
109,263,65190,6,0,L|102:353,1,90,2|0,3:2|0:0,0:0:0:0:
39,186,65490,1,0,0:0:0:0:
24,205,65590,2,0,L|29:267,1,45,8|0,0:0|0:0,0:0:0:0:
97,60,65790,2,0,P|51:51|1:60,1,90,2|2,0:0|3:2,0:0:0:0:
117,156,66090,1,8,0:0:0:0:
134,169,66190,2,0,L|178:166,1,45
258,23,66390,2,0,L|254:127,1,90,8|0,0:0|0:0,0:0:0:0:
272,202,66690,1,0,0:0:0:0:
272,202,66790,5,0,3:0:0:0:
342,88,66990,1,2,0:0:0:0:
461,281,67190,2,0,L|506:277,1,36,10|0,0:0|0:0,0:0:0:0:
371,324,67390,1,2,0:0:0:0:
367,298,67490,1,0,0:0:0:0:
362,273,67590,1,2,3:2:0:0:
469,162,67790,1,2,0:0:0:0:
270,214,67990,1,8,0:0:0:0:
462,364,68190,1,0,0:0:0:0:
278,351,68390,22,0,L|191:355,1,72,0|2,3:0|0:0,0:0:0:0:
58,211,68790,2,0,L|59:175,1,36,10|0,0:0|0:0,0:0:0:0:
32,314,68990,1,2,0:0:0:0:
61,320,69090,1,0,0:0:0:0:
90,315,69190,1,2,3:2:0:0:
257,206,69390,2,0,L|264:277,1,72,2|8,0:0|0:0,0:0:0:0:
64,219,69790,1,2,0:0:0:0:
158,37,69990,6,0,L|241:45,1,72,2|0,3:2|0:0,0:0:0:0:
403,103,70390,2,0,L|320:111,1,72,10|0,0:0|0:0,0:0:0:0:
160,186,70790,2,0,L|243:194,1,72,2|0,3:2|0:0,0:0:0:0:
370,249,71090,1,0,0:0:0:0:
381,239,71190,2,0,L|380:197,1,36,8|0,0:0|0:0,0:0:0:0:
258,339,71390,2,0,L|257:374,1,36,8|0,0:0|0:0,0:0:0:0:
261,196,71590,5,4,3:2:0:0:
379,327,71790,5,14,0:0:0:0:
127,304,71990,1,10,0:0:0:0:
274,81,72190,1,10,0:0:0:0:
281,62,72590,1,10,0:0:0:0:
126,147,72790,1,8,0:0:0:0:
426,151,72990,1,0,0:0:0:0:
426,151,73090,1,8,0:0:0:0:
426,151,73190,6,0,L|430:55,1,90,6|0,3:2|0:0,0:0:0:0:
335,134,73490,1,0,0:0:0:0:
319,145,73590,2,0,P|290:147|262:140,1,45,10|0,0:0|0:0,0:0:0:0:
422,235,73790,2,0,P|462:224|520:220,1,90,2|0,0:0|3:0,0:0:0:0:
342,278,74090,1,0,0:0:0:0:
324,267,74190,2,0,P|318:245|321:223,1,45,2|0,0:0|0:0,0:0:0:0:
409,357,74390,2,0,L|307:355,1,90,10|0,0:0|0:0,0:0:0:0:
24,374,74790,22,0,P|22:329|34:285,1,90,2|0,3:2|0:0,0:0:0:0:
110,187,75090,1,0,0:0:0:0:
88,200,75190,2,0,P|43:201|-2:192,1,90,8|2,0:0|0:0,0:0:0:0:
15,48,75490,2,0,L|21:98,1,45,0|2,0:0|0:0,0:0:0:0:
123,68,75690,1,8,0:0:0:0:
133,50,75790,2,0,L|127:0,1,45
180,156,75990,2,0,P|225:164|274:152,1,90,8|0,0:0|0:0,0:0:0:0:
451,28,76390,6,0,L|461:125,1,90,2|0,3:2|0:0,0:0:0:0:
383,200,76690,1,0,0:0:0:0:
371,188,76790,2,0,L|372:143,1,45,10|0,0:0|0:0,0:0:0:0:
471,227,76990,2,0,L|459:328,1,90,2|0,0:0|3:0,0:0:0:0:
327,253,77390,1,2,0:0:0:0:
449,334,77590,1,10,0:0:0:0:
257,345,77790,2,0,L|214:330,1,45,2|0,0:0|0:0,0:0:0:0:
171,200,77990,6,0,P|179:258|178:336,1,135,2|0,3:2|1:0,0:0:0:0:
167,361,78390,1,10,0:0:0:0:
29,260,78590,2,0,L|35:314,1,45,2|0,0:0|0:0,0:0:0:0:
57,330,78790,1,0,3:0:0:0:
113,3,78990,5,6,3:2:0:0:
11,163,79190,1,14,0:0:0:0:
257,168,79390,1,2,0:0:0:0:
138,75,79590,6,0,P|134:115|142:170,1,90,4|2,3:2|0:0,0:0:0:0:
349,15,79990,1,10,0:0:0:0:
404,104,80190,2,0,P|407:144|400:199,1,90,2|0,0:0|3:0,0:0:0:0:
195,237,80590,1,2,0:0:0:0:
195,237,80690,1,2,0:0:0:0:
195,237,80790,2,0,L|102:237,1,90,10|2,0:0|0:0,0:0:0:0:
275,357,81190,22,0,P|317:346|368:350,1,90,2|2,3:2|0:0,0:0:0:0:
512,282,81590,2,0,P|467:284|423:273,1,90,10|2,0:0|0:0,0:0:0:0:
275,74,81990,5,2,3:2:0:0:
349,15,82190,1,2,0:0:0:0:
426,197,82390,1,10,0:0:0:0:
352,256,82590,1,2,0:0:0:0:
206,21,82790,6,0,L|114:27,1,90,0|2,3:0|0:0,0:0:0:0:
2,139,83190,2,0,L|94:145,1,90,10|2,0:0|0:0,0:0:0:0:
276,259,83590,1,2,3:2:0:0:
294,353,83790,1,2,0:0:0:0:
196,185,83990,1,10,0:0:0:0:
214,91,84190,1,2,0:0:0:0:
165,342,84390,2,0,P|120:340|76:331,1,90,2|0,3:2|0:0,0:0:0:0:
185,175,84790,1,10,0:0:0:0:
364,279,84990,1,2,0:0:0:0:
364,279,85090,1,0,0:0:0:0:
364,279,85190,6,0,L|369:328,1,45,0|0,3:0|0:0,0:0:0:0:
468,234,85390,2,0,L|463:283,1,45,8|0,0:0|0:0,0:0:0:0:
386,60,85590,1,8,0:0:0:0:
374,44,85790,2,0,L|377:-11,1,45,8|0,0:0|0:0,0:0:0:0:
381,171,85990,5,14,0:0:0:0:
103,124,86190,1,14,0:2:0:0:
187,61,86390,1,2,0:0:0:0:
170,344,86590,1,12,0:0:0:0:
170,344,87190,21,14,0:0:0:0:
418,247,87390,1,14,0:0:0:0:
383,351,87590,1,2,0:0:0:0:
286,49,87790,1,14,0:0:0:0:
286,49,88390,5,14,0:0:0:0:
363,339,88590,1,14,0:0:0:0:
65,250,88790,1,14,0:0:0:0:
257,191,88990,1,14,3:2:0:0:
