osu file format v14

[General]
AudioFilename: audio.mp3
AudioLeadIn: 0
PreviewTime: -1
Countdown: 1
SampleSet: None
StackLeniency: 0.7
Mode: 0
LetterboxInBreaks: 0
WidescreenStoryboard: 1

[Editor]
DistanceSpacing: 0.8
BeatDivisor: 4
GridSize: 32
TimelineZoom: 1

[Metadata]
Title:Cold World (Cool Cat Remix)
TitleUnicode:Cold World (Cool Cat Remix)
Artist:Stupeflip
ArtistUnicode:Stupeflip
Creator:Stedoss
Version:There he is
Source:
Tags:
BeatmapID:1309260
BeatmapSetID:620943

[Difficulty]
HPDrainRate:4
CircleSize:4.1
OverallDifficulty:8.5
ApproachRate:9.5
SliderMultiplier:1.4
SliderTickRate:1

[Events]
//Background and Video events
0,0,"Image1.png",0,0
Video,0,"Untitled.mp4"
//Break Periods
//Storyboard Layer 0 (Background)
//Storyboard Layer 1 (Fail)
//Storyboard Layer 2 (Pass)
//Storyboard Layer 3 (Foreground)
//Storyboard Sound Samples

[TimingPoints]
-2360,472.44094488189,4,2,0,100,1,0
2,-50,4,2,0,100,0,0

[HitObjects]
222,40,238,6,0,P|74:135|202:305,1,420
512,341,1183,5,0,0:0:0:0:
0,193,1419,1,0,0:0:0:0:
479,135,1655,2,0,P|449:87|334:42,1,140
146,370,2128,1,0,0:0:0:0:
50,3,2364,2,0,L|184:76,1,140
256,192,2718,12,0,2954,0:0:0:0:
466,14,3073,5,0,0:0:0:0:
478,364,3309,2,0,P|418:331|318:291,1,140
13,26,3781,2,0,P|73:59|173:99,1,140
37,367,4254,1,0,0:0:0:0:
503,0,4490,1,0,0:0:0:0:
256,192,4726,12,0,4962,0:0:0:0:
26,8,5199,5,0,0:0:0:0:
459,323,5435,1,0,0:0:0:0:
258,0,5671,1,0,0:0:0:0:
459,323,5907,1,0,0:0:0:0:
0,129,6143,1,0,0:0:0:0:
459,323,6380,1,0,0:0:0:0:
84,0,6616,1,0,0:0:0:0:
462,221,6852,6,0,B|403:276|403:276|377:288|338:175,1,140
53,0,7325,1,0,0:0:0:0:
89,384,7561,1,0,0:0:0:0:
153,0,7797,1,0,0:0:0:0:
236,384,8033,1,0,0:0:0:0:
370,0,8269,1,0,0:0:0:0:
377,384,8505,1,0,0:0:0:0:
10,317,8742,6,0,P|60:332|51:301,1,70
61,0,8978,1,0,0:0:0:0:
512,304,9214,1,0,0:0:0:0:
201,0,9451,1,0,0:0:0:0:
456,340,9687,1,0,0:0:0:0:
8,0,9923,1,0,0:0:0:0:
157,378,10159,1,0,0:0:0:0:
362,10,10395,1,0,0:0:0:0:
456,340,10632,6,0,L|389:294,1,70
247,186,10868,1,0,0:0:0:0:
0,66,11104,1,0,0:0:0:0:
512,21,11340,1,0,0:0:0:0:
35,377,11577,1,0,0:0:0:0:
256,0,11813,6,0,L|255:90,1,70
256,384,12049,2,0,L|257:294,1,70
441,245,12285,2,0,P|477:188|442:151,1,70
480,32,12521,2,0,L|320:160,1,140
65,253,12994,2,0,L|144:109,1,140
447,253,13466,2,0,L|368:109,1,140
288,384,13939,1,0,0:0:0:0:
164,90,14175,6,0,B|174:30|174:30|250:126|170:-23|239:-10|433:55|327:101,1,280
216,384,14884,1,0,0:0:0:0:
22,5,15120,1,0,0:0:0:0:
512,201,15356,1,0,0:0:0:0:
0,341,15592,1,0,0:0:0:0:
398,0,15828,1,0,0:0:0:0:
94,194,16065,6,0,B|149:191|149:191|80:113|169:139|234:31|85:63,1,280
193,384,16773,1,0,0:0:0:0:
446,0,17010,1,0,0:0:0:0:
0,3,17246,1,0,0:0:0:0:
512,384,17482,1,0,0:0:0:0:
0,172,17718,1,0,0:0:0:0:
410,212,17954,6,0,B|402:104|350:97|264:193|264:193|221:109,1,280
0,0,18663,1,0,0:0:0:0:
512,382,18899,1,0,0:0:0:0:
272,0,19136,1,0,0:0:0:0:
99,239,19372,6,0,L|32:362,1,140
484,26,19844,6,0,L|417:149,1,140
