osu file format v14

[General]
AudioFilename: audio.mp3
AudioLeadIn: 0
PreviewTime: -1
Countdown: 1
SampleSet: None
StackLeniency: 0.7
Mode: 0
LetterboxInBreaks: 0
WidescreenStoryboard: 0

[Editor]
DistanceSpacing: 0.8
BeatDivisor: 4
GridSize: 32
TimelineZoom: 1

[Metadata]
Title:Cold World (Cool Cat Remix)
TitleUnicode:Cold World (Cool Cat Remix)
Artist:Stupeflip
ArtistUnicode:Stupeflip
Creator:Stedoss
Version:SandyFace
Source:
Tags:
BeatmapID:1309258
BeatmapSetID:620943

[Difficulty]
HPDrainRate:4
CircleSize:3.5
OverallDifficulty:7.7
ApproachRate:9.2
SliderMultiplier:1.4
SliderTickRate:1

[Events]
//Background and Video events
Video,0,"Untitled.mp4"
0,0,"Image1.png",0,0
//Break Periods
//Storyboard Layer 0 (Background)
//Storyboard Layer 1 (Fail)
//Storyboard Layer 2 (Pass)
//Storyboard Layer 3 (Foreground)
//Storyboard Sound Samples

[TimingPoints]
-2360,472.44094488189,4,2,0,100,1,0
2,-50,4,2,0,100,0,0

[HitObjects]
93,98,238,6,8,B|68:-11|207:-47|246:125|164:151|164:151|200:287,1,420,0|0,0:3|0:3,3:3:0:0:
216,349,1183,5,0,0:0:0:0:
343,282,1419,5,0,0:0:0:0:
434,160,1655,2,0,P|404:112|289:67,1,140
140,322,2128,1,0,0:0:0:0:
64,62,2364,2,0,L|198:135,1,140
256,192,2718,12,0,2954,0:0:0:0:
421,59,3073,5,0,0:0:0:0:
446,314,3309,2,0,P|386:281|286:241,1,140
66,70,3781,2,0,P|126:103|226:143,1,140
121,299,4254,1,0,0:0:0:0:
423,49,4490,1,0,0:0:0:0:
256,192,4726,12,0,4962,0:0:0:0:
73,57,5199,5,0,0:0:0:0:
459,323,5435,1,0,0:0:0:0:
190,40,5671,1,0,0:0:0:0:
459,323,5907,1,0,0:0:0:0:
71,184,6143,1,0,0:0:0:0:
459,323,6380,1,0,0:0:0:0:
227,43,6616,1,0,0:0:0:0:
462,221,6852,6,0,P|377:288|367:348,1,140
68,60,7325,1,0,0:0:0:0:
85,336,7561,1,0,0:0:0:0:
153,56,7797,1,0,0:0:0:0:
170,332,8033,1,0,0:0:0:0:
250,51,8269,1,0,0:0:0:0:
267,327,8505,1,0,0:0:0:0:
99,187,8742,6,0,P|149:202|140:171,1,70
219,150,8978,1,0,0:0:0:0:
425,47,9214,1,0,0:0:0:0:
219,150,9451,1,0,0:0:0:0:
456,340,9687,1,0,0:0:0:0:
64,59,9923,1,0,0:0:0:0:
168,342,10159,1,0,0:0:0:0:
322,49,10395,1,0,0:0:0:0:
456,340,10632,6,0,L|389:294,1,70
323,239,10868,1,0,0:0:0:0:
46,85,11104,1,0,0:0:0:0:
456,42,11340,1,0,0:0:0:0:
64,343,11577,1,0,0:0:0:0:
256,49,11813,2,0,L|255:139,1,70
256,335,12049,2,0,L|257:245,1,70
427,240,12285,2,0,P|463:183|428:146,1,70
376,164,12521,6,0,L|192:174,1,140
65,253,12994,2,0,L|144:109,1,140
447,253,13466,2,0,L|368:109,1,140
274,326,13939,1,0,0:0:0:0:
177,104,14175,6,0,B|187:44|187:44|263:140|183:-9|252:4|446:69|340:115,1,280
211,335,14884,1,0,0:0:0:0:
78,66,15120,1,0,0:0:0:0:
447,199,15356,1,0,0:0:0:0:
58,322,15592,1,0,0:0:0:0:
325,59,15828,1,0,0:0:0:0:
56,188,16065,6,0,B|111:185|111:185|42:107|131:133|196:25|47:57,1,280
208,327,16773,1,0,0:0:0:0:
377,56,17010,1,0,0:0:0:0:
51,50,17246,1,0,0:0:0:0:
441,328,17482,1,0,0:0:0:0:
55,202,17718,1,0,0:0:0:0:
410,212,17954,6,0,B|402:104|350:97|264:193|264:193|221:109,1,280
24,24,18663,1,0,0:0:0:0:
466,348,18899,1,0,0:0:0:0:
259,45,19136,1,0,0:0:0:0:
48,331,19372,6,0,L|136:169,1,140
464,331,19844,6,0,L|376:169,1,140
