osu file format v14

[General]
AudioFilename: audio.mp3
AudioLeadIn: 0
PreviewTime: 56080
Countdown: 0
SampleSet: Soft
StackLeniency: 0.7
Mode: 0
LetterboxInBreaks: 0
WidescreenStoryboard: 1

[Editor]
Bookmarks: 4537,11080,19218,26240,36133,43793,52091,59591,62623,69325,75708,83208,91665,106346,113367,120389,128048,133154,137942,142729,150548,159165,168899,177197,185335,192835,198261,202729,208474,216133,235282
DistanceSpacing: 1.3
BeatDivisor: 4
GridSize: 32
TimelineZoom: 1.6

[Metadata]
Title:Take a Break
TitleUnicode:ていく・あ・ぶれいく♪
Artist:Study
ArtistUnicode:Study
Creator:dkblaze
Version:BaAR's Hard
Source:ぼくたちは勉強ができない!
Tags:We can't study bokutachi wa benkyou ga dekinai bokuben we cant never learn Can now anime jpop j-pop japanese BaAR_Vendel sanairrt Aramaki aramaking Scaltinof 古橋文乃 furuhashi fumino 白石晴香 shiraishi haruka 緒方理珠 ogata rizu 富田美憂 tomita miyu 武元うるか takemoto uruka 鈴代紗弓 suzushiro sayumi
BeatmapID:2358524
BeatmapSetID:1128948

[Difficulty]
HPDrainRate:4
CircleSize:3.5
OverallDifficulty:6
ApproachRate:8
SliderMultiplier:1.4
SliderTickRate:1

[Events]
//Background and Video events
0,0,"BG.jpg",0,0
//Break Periods
2,97610,105596
2,188248,192085
//Storyboard Layer 0 (Background)
//Storyboard Layer 1 (Fail)
//Storyboard Layer 2 (Pass)
//Storyboard Layer 3 (Foreground)
//Storyboard Layer 4 (Overlay)
//Storyboard Sound Samples

[TimingPoints]
389,319.148936170213,4,2,2,60,1,0
4537,-100,4,2,2,65,0,0
8048,-100,4,2,2,70,0,0
10601,-100,4,2,2,75,0,0
20814,-111.111111111111,4,2,2,65,0,0
31027,-111.111111111111,4,2,2,70,0,0
46027,-111.111111111111,4,2,3,70,0,0
46107,-111.111111111111,4,2,2,70,0,0
48899,-100,4,2,2,70,0,0
51452,-100,4,2,2,75,0,0
51612,-100,4,2,2,50,0,0
52091,-100,4,2,2,60,0,0
52729,-100,4,2,2,70,0,0
53367,-100,4,2,2,75,0,0
56559,-90.9090909090909,4,2,2,85,0,1
87197,-100,4,2,2,75,0,0
97410,-111.111111111111,4,2,2,50,0,0
106346,-111.111111111111,4,2,2,60,0,0
107623,-111.111111111111,4,2,2,70,0,0
122623,-111.111111111111,4,2,3,70,0,0
122702,-111.111111111111,4,2,2,70,0,0
125495,-100,4,2,2,70,0,0
128048,-100,4,2,2,75,0,0
128208,-100,4,2,2,50,0,0
128686,-100,4,2,2,60,0,0
129325,-100,4,2,2,70,0,0
129963,-100,4,2,2,75,0,0
133154,-90.9090909090909,4,2,2,85,0,1
163793,-100,4,2,2,75,0,0
188048,-100,4,2,2,70,0,0
191718,-100,4,2,2,60,0,0
192676,-100,4,2,2,70,0,0
195867,-100,4,2,2,50,0,0
196346,-100,4,2,2,60,0,0
196665,-100,4,2,2,70,0,0
196984,-100,4,2,2,80,0,0
197623,-100,4,2,2,75,0,0
198261,-90.9090909090909,4,2,2,85,0,1
218686,-100,4,2,2,70,0,0
221240,-100,4,2,2,75,0,0
231452,-90.9090909090909,4,2,2,85,0,1
241665,-100,4,2,2,70,0,0
241984,-100,4,2,2,65,0,0
243101,-100,4,2,2,85,0,0

[Colours]
Combo1 : 164,122,239
Combo2 : 250,88,113
Combo3 : 91,122,247
Combo4 : 238,166,128
Combo5 : 250,175,248

[HitObjects]
256,192,389,5,6,3:1:0:0:
256,192,468,12,2,2623,0:0:0:0:
256,192,2942,5,6,3:2:0:0:
256,192,3021,12,2,4218,0:0:0:0:
384,160,4537,6,0,P|395:113|360:60,1,105,12|0,3:2|0:0,0:0:0:0:
368,65,4857,2,0,P|305:70|275:79,1,70,2|10,3:2|0:0,0:0:0:0:
219,116,5176,2,0,P|155:111|125:102,1,70,10|4,0:0|3:3,0:0:0:0:
86,44,5495,6,0,P|101:120|113:205,1,140,6|0,3:2|3:0,0:0:0:0:
28,217,5974,1,0,0:0:0:0:
28,217,6133,2,0,P|116:255|114:314,1,140,2|4,3:2|3:2,0:0:0:0:
123,384,6612,1,0,0:0:0:0:
123,384,6771,6,0,P|172:368|195:355,1,70,2|0,3:2|0:0,0:0:0:0:
244,250,7091,2,0,P|293:266|316:279,1,70,12|0,0:0|3:0,0:0:0:0:
376,335,7410,1,10,0:0:0:0:
376,335,7569,1,8,3:3:0:0:
468,315,7729,1,8,3:3:0:0:
468,315,7888,1,8,3:3:0:0:
508,202,8048,6,0,P|514:126|440:99,1,140,12|0,0:0|3:0,0:0:0:0:
375,105,8527,1,12,0:0:0:0:
297,56,8686,2,0,P|239:50|194:55,1,70,0|0,3:0|3:0,0:0:0:0:
141,17,9006,2,0,P|83:23|38:18,1,70,12|0,0:0|3:0,0:0:0:0:
0,80,9325,5,0,3:0:0:0:
0,80,9484,2,0,L|14:230,1,140,12|0,0:0|3:0,0:0:0:0:
39,306,9963,2,0,P|94:307|122:294,1,70,12|0,0:0|3:0,0:0:0:0:
186,257,10282,2,0,P|185:239|181:222,3,35,12|0|8|8,0:0|0:0|0:0|0:0,0:0:0:0:
208,185,10601,6,0,P|250:162|349:180,1,140,4|10,3:1|0:0,0:0:0:0:
433,184,11080,1,0,0:0:0:0:
433,184,11240,2,0,P|425:230|420:275,1,70,2|0,3:2|0:0,0:0:0:0:
488,315,11559,2,0,P|496:361|501:406,1,70,10|0,0:0|0:0,0:0:0:0:
409,365,11878,5,0,3:0:0:0:
409,365,12037,1,0,3:0:0:0:
318,374,12197,2,0,L|235:366,1,70,10|0,0:0|0:0,0:0:0:0:
164,332,12516,1,2,3:2:0:0:
164,332,12676,1,0,3:0:0:0:
84,375,12835,2,0,P|73:333|89:281,1,70,10|0,0:0|0:0,0:0:0:0:
12,241,13154,6,0,B|-2:153|-2:153|24:97,1,140,4|10,3:2|0:0,0:0:0:0:
81,39,13633,1,2,0:0:0:0:
81,39,13793,2,0,P|121:49|163:66,1,70,2|0,3:2|0:0,0:0:0:0:
204,130,14112,2,0,P|244:120|286:103,1,70,10|0,0:0|0:0,0:0:0:0:
332,42,14431,6,0,P|395:26|455:76,1,140,2|8,3:2|0:0,0:0:0:0:
503,143,14910,1,2,0:0:0:0:
503,143,15069,2,0,P|493:194|487:233,1,70,2|0,3:2|3:0,0:0:0:0:
509,301,15389,1,8,0:0:0:0:
461,378,15548,1,8,0:0:0:0:
461,378,15628,1,8,0:0:0:0:
461,378,15708,6,0,P|421:328|345:339,1,140,4|10,3:2|0:0,0:0:0:0:
280,384,16186,1,0,0:0:0:0:
280,384,16346,2,0,P|241:372|198:369,1,70,2|0,3:2|0:0,0:0:0:0:
121,357,16665,2,0,P|82:369|39:372,1,70,10|0,0:0|0:0,0:0:0:0:
13,295,16984,5,0,3:0:0:0:
13,295,17144,1,0,3:0:0:0:
61,218,17303,2,0,L|70:133,1,70,10|0,0:0|0:0,0:0:0:0:
36,62,17623,1,2,3:2:0:0:
36,62,17782,1,0,3:0:0:0:
111,10,17942,2,0,P|166:-1|211:5,1,70,10|0,0:0|0:0,0:0:0:0:
250,56,18261,6,0,P|245:108|243:146,1,70,4|0,3:2|0:0,0:0:0:0:
303,194,18580,2,0,P|308:246|310:284,1,70,10|0,0:0|0:0,0:0:0:0:
268,345,18899,1,2,3:2:0:0:
268,345,19059,1,0,3:0:0:0:
350,382,19218,2,0,P|396:379|419:363,1,70,10|0,0:0|0:0,0:0:0:0:
497,327,19537,6,0,P|484:253|468:160,1,140,6|8,3:2|0:0,0:0:0:0:
503,103,20016,1,2,0:0:0:0:
446,31,20176,2,0,P|409:36|397:39,3,35,10|2|10|10,3:2|0:0|0:0|0:0,0:0:0:0:
381,69,20495,1,2,3:2:0:0:
300,27,20654,1,10,0:0:0:0:
234,121,20814,6,0,L|90:107,1,125.999996154785,4|2,3:1|3:2,0:0:0:0:
28,146,21293,1,2,0:0:0:0:
28,146,21452,2,0,P|35:188|39:217,1,62.9999980773926,2|0,3:2|0:0,0:0:0:0:
114,252,21771,1,2,3:2:0:0:
42,380,22091,6,0,P|104:354|162:390,1,125.999996154785,2|2,3:2|3:2,0:0:0:0:
242,359,22569,1,2,0:0:0:0:
242,359,22729,2,0,L|317:351,2,62.9999980773926,0|0|0,3:0|0:0|3:0,0:0:0:0:
187,289,23208,1,8,0:0:0:0:
246,224,23367,6,0,L|321:232,1,62.9999980773926,0|0,3:0|0:0,0:0:0:0:
381,280,23686,1,2,3:2:0:0:
469,257,23846,1,2,0:0:0:0:
469,257,24006,2,0,P|497:197|470:138,1,125.999996154785,2|2,3:2|3:2,0:0:0:0:
322,116,24644,6,0,P|259:109|191:102,1,125.999996154785,2|2,3:2|3:2,0:0:0:0:
123,62,25123,1,2,0:0:0:0:
123,62,25282,2,0,P|109:108|117:139,1,62.9999980773926,0|0,3:0|0:0,0:0:0:0:
166,197,25601,1,8,0:0:0:0:
166,197,25761,1,8,3:3:0:0:
107,262,25920,6,0,L|33:251,1,62.9999980773926,4|0,3:2|0:0,0:0:0:0:
29,340,26240,2,0,L|158:359,2,125.999996154785,2|2|2,3:2|3:2|3:2,0:0:0:0:
44,252,27037,1,0,0:0:0:0:
44,252,27197,6,0,P|64:182|32:124,1,125.999996154785,2|2,3:2|3:2,0:0:0:0:
5,61,27676,1,0,0:0:0:0:
5,61,27835,2,0,P|46:55|74:50,1,62.9999980773926,2|0,3:2|0:0,0:0:0:0:
153,31,28154,1,14,0:0:0:0:
302,68,28474,6,0,P|383:79|418:31,1,125.999996154785,6|8,3:1|0:0,0:0:0:0:
483,3,28952,1,2,0:0:0:0:
483,3,29112,2,0,P|524:18|541:43,2,62.9999980773926,2|0|8,3:2|3:0|0:0,0:0:0:0:
410,52,29591,1,0,0:0:0:0:
446,151,29750,5,6,3:2:0:0:
446,151,30389,2,0,P|443:217|446:242,1,62.9999980773926,6|10,3:3|0:0,0:0:0:0:
456,260,30628,1,8,0:0:0:0:
456,260,30708,1,10,3:3:0:0:
512,328,30867,1,8,3:3:0:0:
421,384,31027,6,0,L|290:376,1,125.999996154785,4|10,3:1|0:0,0:0:0:0:
226,329,31506,1,0,0:0:0:0:
226,329,31665,2,0,P|185:332|161:340,1,62.9999980773926,2|0,3:2|0:0,0:0:0:0:
84,377,31984,2,0,P|43:374|19:366,1,62.9999980773926,10|0,0:0|0:0,0:0:0:0:
5,280,32303,6,0,P|-13:225|17:157,1,125.999996154785,2|10,3:2|0:0,0:0:0:0:
90,123,32782,1,2,0:0:0:0:
90,123,32942,2,0,L|99:46,2,62.9999980773926,0|0|8,3:0|3:0|0:0,0:0:0:0:
169,159,33420,1,0,0:0:0:0:
169,159,33580,6,0,P|223:145|248:137,1,62.9999980773926,6|0,3:2|0:0,0:0:0:0:
309,100,33899,1,10,0:0:0:0:
309,100,34059,1,2,0:0:0:0:
385,56,34218,2,0,P|439:70|464:78,1,62.9999980773926,2|0,3:2|0:0,0:0:0:0:
503,138,34537,2,0,P|514:185|503:224,1,62.9999980773926,10|0,0:0|0:0,0:0:0:0:
467,276,34857,6,0,P|387:284|351:241,1,125.999996154785,2|10,3:2|0:0,0:0:0:0:
284,218,35335,1,2,0:0:0:0:
284,218,35495,2,0,P|273:265|284:304,2,62.9999980773926,0|0|8,3:0|3:0|0:0,0:0:0:0:
297,42,36133,6,0,P|192:22|167:48,1,125.999996154785,6|10,3:2|0:0,0:0:0:0:
119,86,36612,1,0,0:0:0:0:
119,86,36771,2,0,P|72:82|45:71,1,62.9999980773926,2|0,3:2|0:0,0:0:0:0:
10,152,37091,2,0,L|16:238,1,62.9999980773926,10|0,0:0|0:0,0:0:0:0:
91,257,37410,6,0,L|77:401,1,125.999996154785,2|10,3:2|0:0,0:0:0:0:
167,383,37889,1,0,0:0:0:0:
167,383,38048,2,0,P|212:375|241:364,1,62.9999980773926,2|0,3:2|0:0,0:0:0:0:
305,327,38367,2,0,P|350:335|379:346,1,62.9999980773926,10|0,0:0|0:0,0:0:0:0:
448,373,38686,6,0,P|454:309|465:233,1,125.999996154785,6|10,3:2|0:0,0:0:0:0:
510,172,39165,2,0,P|502:137|482:111,1,62.9999980773926,2|0,0:0|3:0,0:0:0:0:
402,110,39484,1,10,0:0:0:0:
402,110,39644,1,4,3:3:0:0:
342,45,39803,6,0,B|261:21|299:93|196:54,1,125.999996154785,6|0,3:2|3:0,0:0:0:0:
147,18,40282,2,0,P|100:20|71:41,1,62.9999980773926,8|0,0:0|3:0,0:0:0:0:
35,99,40601,2,0,L|41:154,3,31.4999990386963,10|2|10|2,0:0|0:0|3:3|0:0,0:0:0:0:
56,170,40920,2,0,L|50:225,3,31.4999990386963,10|2|10|2,3:3|0:0|3:3|0:0,0:0:0:0:
67,243,41240,5,6,3:1:0:0:
13,352,41559,2,0,P|64:368|85:358,1,62.9999980773926,10|0,0:0|0:0,0:0:0:0:
149,335,41878,2,0,P|216:335|280:337,1,125.999996154785,2|8,3:2|0:0,0:0:0:0:
350,368,42357,6,0,B|401:379|401:379|497:350,1,125.999996154785,2|2,3:2|3:2,0:0:0:0:
501,275,42835,2,0,B|510:239|510:239|500:206,1,62.9999980773926,10|0,0:0|3:0,0:0:0:0:
466,133,43154,2,0,B|455:97|455:97|467:64,2,62.9999980773926,2|2|10,3:2|0:0|0:0,0:0:0:0:
413,203,43633,1,0,0:0:0:0:
327,180,43793,6,0,L|242:173,1,62.9999980773926,6|0,3:2|0:0,0:0:0:0:
195,119,44112,2,0,L|110:126,1,62.9999980773926,10|0,0:0|0:0,0:0:0:0:
68,185,44431,2,0,P|43:126|81:50,1,125.999996154785,2|10,3:2|0:0,0:0:0:0:
141,33,44910,6,0,L|270:22,1,125.999996154785,2|2,3:2|3:2,0:0:0:0:
349,65,45389,1,10,0:0:0:0:
349,65,45548,1,0,3:0:0:0:
426,22,45708,2,0,P|475:24|503:29,1,62.9999980773926,2|2,3:2|0:0,0:0:0:0:
507,112,46027,2,0,P|517:159|512:180,1,62.9999980773926,12|2,3:2|0:0,0:0:0:0:
457,240,46346,5,6,3:2:0:0:
512,384,46665,2,0,L|432:376,1,62.9999980773926,10|0,0:0|0:0,0:0:0:0:
368,342,46984,2,0,P|297:315|250:355,1,125.999996154785,2|8,3:2|0:0,0:0:0:0:
181,381,47463,6,0,P|112:373|35:362,1,125.999996154785,2|2,3:2|3:2,0:0:0:0:
8,290,47942,2,0,P|7:256|21:220,1,62.9999980773926,10|0,0:0|3:0,0:0:0:0:
69,158,48261,2,0,P|70:124|56:88,1,62.9999980773926,2|2,3:2|0:0,0:0:0:0:
18,19,48580,1,12,0:0:0:0:
191,72,48899,5,2,3:2:0:0:
191,72,49059,1,2,3:2:0:0:
258,11,49218,2,0,P|314:7|349:6,1,70,12|0,0:0|0:0,0:0:0:0:
397,73,49537,5,2,3:2:0:0:
397,73,49697,1,2,3:2:0:0:
481,39,49856,2,0,P|489:83|471:125,1,70,8|0,0:0|0:0,0:0:0:0:
410,163,50176,5,2,3:2:0:0:
410,163,50335,1,2,3:2:0:0:
393,252,50495,2,0,P|399:295|407:344,1,70,12|0,0:0|0:0,0:0:0:0:
476,384,50814,6,0,P|425:361|363:379,1,105,6|0,3:2|0:0,0:0:0:0:
378,370,51133,2,0,P|330:376|289:371,1,70,10|8,0:0|0:0,0:0:0:0:
217,315,51452,6,0,P|212:349|206:384,2,70,10|0|0,0:0|3:0|3:0,0:0:0:0:
160,243,51931,1,10,0:0:0:0:
207,165,52091,2,0,P|213:115|204:80,1,70,2|8,3:2|0:0,0:0:0:0:
148,28,52410,2,0,P|106:33|68:40,1,70,8|8,3:2|0:0,0:0:0:0:
17,105,52729,5,8,3:2:0:0:
17,105,52889,1,8,3:2:0:0:
66,180,53048,2,0,P|74:240|59:272,1,70,8|8,3:2|3:2,0:0:0:0:
5,310,53367,2,0,P|-3:370|12:402,2,70,8|8|8,3:2|3:2|3:2,0:0:0:0:
91,338,53846,1,8,3:2:0:0:
196,268,54006,6,0,P|255:266|344:272,1,140,14|0,0:0|3:0,0:0:0:0:
382,348,54484,1,14,0:0:0:0:
476,338,54644,1,2,3:2:0:0:
476,338,54803,2,0,L|487:250,1,70,2|12,3:2|0:0,0:0:0:0:
440,152,55123,6,0,P|463:101|432:19,1,140,6|0,3:1|3:0,0:0:0:0:
347,35,55601,1,8,0:0:0:0:
347,35,55761,1,0,3:0:0:0:
259,11,55920,2,0,P|221:3|193:4,3,35,10|2|10|10,3:2|0:0|0:0|0:0,0:0:0:0:
192,36,56240,2,0,P|154:44|126:43,3,35,10|2|10|10,0:0|0:0|0:0|0:0,0:0:0:0:
115,25,56559,6,0,P|52:29|31:132,1,154.000004699707,6|8,3:1|0:0,0:0:0:0:
68,182,57037,1,2,0:0:0:0:
36,269,57197,2,0,P|31:314|28:348,1,77.0000023498536,2|0,3:2|3:0,0:0:0:0:
114,379,57516,1,10,0:0:0:0:
183,318,57676,1,0,0:0:0:0:
269,349,57835,6,0,B|368:383|329:303|434:344,1,154.000004699707,2|8,3:2|0:0,0:0:0:0:
497,380,58314,1,2,0:0:0:0:
497,287,58474,2,0,L|490:205,1,77.0000023498536,2|0,3:2|0:0,0:0:0:0:
420,149,58793,2,0,P|362:142|333:158,1,77.0000023498536,10|0,0:0|0:0,0:0:0:0:
244,211,59112,6,0,P|172:188|151:116,1,154.000004699707,6|8,3:2|0:0,0:0:0:0:
179,30,59591,1,2,0:0:0:0:
270,33,59750,2,0,P|337:21|363:16,1,77.0000023498536,2|0,3:2|3:0,0:0:0:0:
430,57,60069,1,10,0:0:0:0:
420,149,60229,1,0,0:0:0:0:
495,202,60389,6,0,P|530:273|494:354,1,154.000004699707,2|8,3:2|0:0,0:0:0:0:
421,374,60867,1,2,0:0:0:0:
340,328,61027,2,0,P|333:291|337:253,1,77.0000023498536,2|0,3:2|0:0,0:0:0:0:
259,372,61346,2,0,P|210:362|166:358,1,77.0000023498536,10|0,0:0|0:0,0:0:0:0:
69,286,61665,6,0,P|107:282|145:274,1,77.0000023498536,6|0,3:2|0:0,0:0:0:0:
207,205,61984,2,0,P|214:167|210:129,1,77.0000023498536,10|0,0:0|0:0,0:0:0:0:
144,65,62303,1,2,3:2:0:0:
59,103,62463,1,0,3:0:0:0:
43,194,62623,2,0,P|81:189|118:181,1,77.0000023498536,10|0,0:0|0:0,0:0:0:0:
210,129,62942,6,0,P|300:124|366:139,1,154.000004699707,6|10,3:2|0:0,0:0:0:0:
451,117,63420,1,0,0:0:0:0:
499,197,63580,2,0,L|492:291,1,77.0000023498536,2|0,3:2|0:0,0:0:0:0:
405,304,63899,2,0,L|412:398,1,77.0000023498536,10|0,0:0|0:0,0:0:0:0:
318,384,64218,6,0,P|221:378|136:372,1,154.000004699707,6|8,3:2|0:0,0:0:0:0:
72,360,64697,1,2,0:0:0:0:
91,269,64857,2,0,P|94:230|84:173,1,77.0000023498536,2|0,3:2|0:0,0:0:0:0:
35,116,65176,2,0,P|31:77|36:39,1,77.0000023498536,8|0,0:0|0:0,0:0:0:0:
127,110,65495,6,0,L|218:100,1,77.0000023498536,14|0,0:0|3:0,0:0:0:0:
270,37,65814,2,0,L|361:47,1,77.0000023498536,10|0,0:0|3:0,0:0:0:0:
423,96,66133,1,10,3:3:0:0:
493,36,66293,2,0,P|502:7|501:-8,2,38.5000011749268,8|8|10,0:0|0:0|0:0,0:0:0:0:
512,133,66612,1,8,0:0:0:0:
512,133,66692,1,8,0:0:0:0:
512,133,66771,6,0,L|501:291,1,154.000004699707,6|8,3:1|0:0,0:0:0:0:
491,378,67250,1,2,0:0:0:0:
398,384,67410,2,0,P|330:369|306:359,1,77.0000023498536,2|0,3:2|3:0,0:0:0:0:
249,310,67729,1,10,0:0:0:0:
165,349,67889,1,0,0:0:0:0:
79,314,68048,6,0,P|53:249|92:172,1,154.000004699707,2|8,3:2|0:0,0:0:0:0:
172,141,68527,1,2,0:0:0:0:
245,196,68686,1,2,3:0:0:0:
326,151,68846,1,0,3:0:0:0:
398,208,69006,2,0,P|391:262|383:311,1,77.0000023498536,14|0,0:0|0:0,0:0:0:0:
492,313,69325,6,0,P|497:245|514:148,1,154.000004699707,6|8,3:2|0:0,0:0:0:0:
512,69,69803,1,2,0:0:0:0:
437,14,69963,2,0,P|398:5|356:14,1,77.0000023498536,2|0,3:2|3:0,0:0:0:0:
284,61,70282,1,10,0:0:0:0:
202,17,70442,1,0,0:0:0:0:
146,90,70601,6,0,B|97:113|97:113|-10:90,1,154.000004699707,2|8,3:2|0:0,0:0:0:0:
22,181,71080,1,2,0:0:0:0:
10,272,71240,2,0,P|1:329|-3:378,1,77.0000023498536,2|0,3:2|0:0,0:0:0:0:
88,371,71559,2,0,P|146:366|176:343,1,77.0000023498536,10|0,0:0|0:0,0:0:0:0:
243,276,71878,6,0,P|310:285|348:295,1,77.0000023498536,6|0,3:2|0:0,0:0:0:0:
389,347,72197,2,0,P|456:338|494:328,1,77.0000023498536,10|0,0:0|0:0,0:0:0:0:
508,254,72516,1,2,3:2:0:0:
464,172,72676,1,0,3:0:0:0:
510,92,72835,2,0,P|519:46|498:2,1,77.0000023498536,10|0,0:0|0:0,0:0:0:0:
417,13,73154,6,0,L|324:24,1,77.0000023498536,6|0,3:2|0:0,0:0:0:0:
271,84,73474,2,0,L|178:73,1,77.0000023498536,10|0,0:0|0:0,0:0:0:0:
111,33,73793,1,2,3:2:0:0:
32,81,73952,1,0,3:0:0:0:
51,171,74112,2,0,P|56:221|50:266,1,77.0000023498536,10|0,0:0|0:0,0:0:0:0:
16,332,74431,6,0,P|74:279|154:297,1,154.000004699707,6|8,3:2|0:0,0:0:0:0:
214,349,74910,1,2,0:0:0:0:
292,300,75069,2,0,P|297:253|285:219,1,77.0000023498536,2|0,3:2|0:0,0:0:0:0:
236,147,75389,2,0,P|231:100|243:66,1,77.0000023498536,8|0,0:0|0:0,0:0:0:0:
332,9,75708,6,0,P|390:14|426:23,1,77.0000023498536,6|0,3:2|0:0,0:0:0:0:
489,62,76027,1,2,3:2:0:0:
464,150,76186,1,0,0:0:0:0:
507,231,76346,1,2,3:2:0:0:
470,315,76506,1,8,0:0:0:0:
470,315,76585,1,8,0:0:0:0:
470,315,76665,2,0,P|434:298|392:298,1,77.0000023498536,10|4,3:2|3:3,0:0:0:0:
321,377,76984,6,0,P|240:373|155:366,1,154.000004699707,6|8,3:1|0:0,0:0:0:0:
93,311,77463,1,2,3:2:0:0:
10,352,77623,2,0,B|-2:309|-2:309|14:272,1,77.0000023498536,10|0,0:0|3:0,0:0:0:0:
81,219,77942,1,8,0:0:0:0:
39,136,78101,6,0,L|52:42,1,77.0000023498536,2|8,3:2|0:0,0:0:0:0:
126,8,78420,1,2,3:2:0:0:
195,69,78580,2,0,P|261:63|284:47,1,77.0000023498536,10|0,0:0|3:0,0:0:0:0:
345,6,78899,2,0,P|411:12|434:28,2,77.0000023498536,10|0|12,0:0|3:0|0:0,0:0:0:0:
269,58,79378,1,0,3:0:0:0:
351,97,79537,6,0,P|361:175|366:269,1,154.000004699707,14|8,0:0|0:0,0:0:0:0:
427,319,80016,1,2,3:2:0:0:
355,377,80176,2,0,P|299:374|271:360,1,77.0000023498536,10|0,0:0|3:0,0:0:0:0:
208,307,80495,1,8,0:0:0:0:
130,356,80654,6,0,P|93:368|55:367,2,77.0000023498536,2|8|2,3:2|0:0|0:0,0:0:0:0:
123,263,81133,2,0,P|129:192|134:169,1,77.0000023498536,10|2,0:0|3:2,0:0:0:0:
69,116,81452,2,0,P|63:45|58:22,1,77.0000023498536,10|8,0:3|0:0,0:0:0:0:
41,5,81692,1,8,0:0:0:0:
41,5,81771,1,8,0:0:0:0:
133,7,81931,1,0,3:0:0:0:
192,111,82091,6,0,B|293:142|260:76|356:103,1,154.000004699707,6|8,3:2|0:0,0:0:0:0:
425,134,82569,1,2,3:2:0:0:
502,83,82729,2,0,P|513:43|492:-10,1,77.0000023498536,10|0,0:0|3:0,0:0:0:0:
420,47,83048,1,8,0:0:0:0:
340,99,83208,6,0,P|297:93|242:88,1,77.0000023498536,2|8,3:2|0:0,0:0:0:0:
199,23,83527,1,2,3:2:0:0:
107,33,83686,2,0,P|66:57|29:94,1,77.0000023498536,10|0,0:0|3:0,0:0:0:0:
16,168,84006,1,10,0:0:0:0:
75,237,84165,1,0,3:0:0:0:
19,311,84325,2,0,P|15:356|28:385,1,77.0000023498536,10|0,0:0|3:0,0:0:0:0:
119,384,84644,6,0,L|222:371,1,77.0000023498536,14|0,0:0|0:0,0:0:0:0:
276,330,84963,2,0,L|379:343,1,77.0000023498536,10|0,0:0|3:0,0:0:0:0:
438,374,85282,1,14,0:0:0:0:
504,310,85442,1,10,0:3:0:0:
462,228,85601,1,0,3:0:0:0:
371,248,85761,1,6,3:2:0:0:
371,248,86080,6,0,L|294:238,2,77.0000023498536,10|10|10,3:2|3:2|3:2,0:0:0:0:
397,159,86559,1,10,3:2:0:0:
325,100,86718,1,0,3:0:0:0:
325,100,86798,1,0,3:0:0:0:
325,100,86878,2,0,P|311:38|363:-6,1,115.50000352478,12|0,0:0|0:0,0:0:0:0:
341,1,87197,6,0,P|277:5|187:12,1,140,4|10,3:1|0:0,0:0:0:0:
120,49,87676,1,0,0:0:0:0:
120,49,87835,2,0,P|111:96|122:127,1,70,2|0,3:2|0:0,0:0:0:0:
96,204,88154,2,0,P|105:251|94:282,1,70,10|0,0:0|0:0,0:0:0:0:
46,347,88474,5,0,3:0:0:0:
46,347,88633,1,0,3:0:0:0:
137,348,88793,2,0,L|230:340,1,70,10|0,0:0|0:0,0:0:0:0:
283,292,89112,1,2,3:2:0:0:
283,292,89271,1,0,3:0:0:0:
374,294,89431,2,0,P|414:302|456:323,1,70,10|0,0:0|0:0,0:0:0:0:
502,381,89750,6,0,P|493:317|483:211,1,140,4|10,3:2|0:0,0:0:0:0:
511,154,90229,1,2,0:0:0:0:
511,154,90389,2,0,P|464:142|421:157,1,70,2|0,3:2|0:0,0:0:0:0:
358,113,90708,2,0,P|311:125|268:110,1,70,10|0,0:0|0:0,0:0:0:0:
214,70,91027,6,0,B|194:116|194:116|216:204,1,140,2|8,3:2|0:0,0:0:0:0:
264,286,91506,1,2,0:0:0:0:
264,286,91665,2,0,B|274:325|274:325|256:361,1,70,2|0,3:2|3:0,0:0:0:0:
172,375,91984,1,8,0:0:0:0:
91,336,92144,1,8,0:0:0:0:
91,336,92224,1,8,0:0:0:0:
91,336,92303,6,0,P|59:265|95:198,1,140,4|10,3:2|0:0,0:0:0:0:
160,166,92782,1,0,0:0:0:0:
160,166,92942,2,0,L|154:89,1,70,2|0,3:2|0:0,0:0:0:0:
220,32,93261,2,0,P|270:20|308:20,1,70,10|0,0:0|0:0,0:0:0:0:
373,64,93580,5,0,3:0:0:0:
373,64,93740,1,0,3:0:0:0:
453,22,93899,2,0,P|463:65|448:116,1,70,10|0,0:0|0:0,0:0:0:0:
395,155,94218,1,2,3:2:0:0:
395,155,94378,1,0,3:0:0:0:
356,237,94537,2,0,P|365:282|374:326,1,70,10|0,0:0|0:0,0:0:0:0:
449,350,94857,6,0,L|276:348,1,140,4|10,3:2|0:0,0:0:0:0:
226,311,95335,1,0,0:0:0:0:
226,311,95495,2,0,P|168:319|147:329,1,70,2|0,3:2|0:0,0:0:0:0:
81,373,95814,2,0,P|23:365|2:355,1,70,10|0,0:0|0:0,0:0:0:0:
0,268,96133,6,0,P|-20:194|28:132,1,140,6|8,3:2|0:0,0:0:0:0:
95,108,96612,1,2,0:0:0:0:
169,159,96771,1,10,3:2:0:0:
241,104,96931,1,8,0:0:0:0:
241,104,97011,1,8,0:0:0:0:
241,104,97091,1,8,0:0:0:0:
210,18,97250,1,8,0:0:0:0:
118,20,97410,5,4,3:1:0:0:
152,76,106346,5,6,0:0:0:0:
152,76,106984,2,0,L|145:161,1,62.9999980773926,10|8,0:3|0:0,0:0:0:0:
130,176,107224,1,8,0:0:0:0:
130,176,107303,2,0,L|137:258,1,62.9999980773926,10|8,3:3|3:3,0:0:0:0:
86,335,107623,6,0,P|155:348|220:304,1,125.999996154785,4|10,3:1|0:0,0:0:0:0:
276,273,108101,1,0,0:0:0:0:
276,273,108260,2,0,P|317:276|341:284,1,62.9999980773926,2|0,3:2|0:0,0:0:0:0:
418,321,108580,2,0,P|459:318|483:310,1,62.9999980773926,10|0,0:0|0:0,0:0:0:0:
512,229,108899,6,0,L|504:100,1,125.999996154785,2|10,3:2|0:0,0:0:0:0:
425,62,109378,2,0,L|434:-15,2,62.9999980773926,2|0|0,0:0|3:0|3:0,0:0:0:0:
356,118,109857,1,8,0:0:0:0:
286,73,110015,1,0,0:0:0:0:
286,73,110175,6,0,P|232:87|207:95,1,62.9999980773926,6|0,3:2|0:0,0:0:0:0:
147,128,110494,1,10,0:0:0:0:
73,89,110654,1,2,0:0:0:0:
74,88,110814,2,0,P|63:135|74:174,1,62.9999980773926,2|0,3:2|0:0,0:0:0:0:
45,234,111133,2,0,P|56:281|45:320,1,62.9999980773926,10|0,0:0|0:0,0:0:0:0:
3,368,111452,6,0,P|53:332|112:348,1,125.999996154785,2|10,3:2|0:0,0:0:0:0:
198,383,111930,1,2,0:0:0:0:
198,383,112090,2,0,P|243:377|286:365,2,62.9999980773926,0|0|8,3:0|3:0|0:0,0:0:0:0:
313,249,112728,6,0,P|329:189|297:137,1,125.999996154785,6|10,3:2|0:0,0:0:0:0:
224,98,113207,1,0,0:0:0:0:
224,98,113367,2,0,P|228:51|239:24,1,62.9999980773926,2|0,3:2|0:0,0:0:0:0:
319,13,113686,2,0,L|398:11,1,62.9999980773926,10|0,0:0|0:0,0:0:0:0:
470,14,114005,6,0,L|456:158,1,125.999996154785,2|10,3:2|0:0,0:0:0:0:
382,181,114484,1,0,0:0:0:0:
382,181,114643,2,0,P|390:226|401:255,1,62.9999980773926,2|0,3:2|0:0,0:0:0:0:
436,320,114963,2,0,P|428:365|417:394,1,62.9999980773926,10|2,0:0|0:0,0:0:0:0:
333,381,115282,6,0,P|290:336|210:357,1,125.999996154785,6|10,3:2|0:0,0:0:0:0:
151,380,115761,2,0,L|67:370,1,62.9999980773926,2|0,0:0|3:0,0:0:0:0:
28,315,116079,1,10,0:0:0:0:
28,315,116239,1,4,3:3:0:0:
72,238,116398,6,0,B|101:168|30:188|83:92,1,125.999996154785,6|0,3:2|3:0,0:0:0:0:
138,60,116877,2,0,P|141:28|130:0,1,62.9999980773926,8|0,0:0|3:0,0:0:0:0:
223,86,117197,2,0,L|282:71,3,31.4999990386963,2|2|10|2,3:2|0:0|3:3|0:0,0:0:0:0:
299,57,117516,2,0,L|354:63,3,31.4999990386963,10|2|10|2,3:3|0:0|3:3|0:0,0:0:0:0:
372,46,117835,5,6,3:1:0:0:
463,196,118154,2,0,P|432:200|402:189,1,62.9999980773926,10|0,0:0|0:0,0:0:0:0:
325,147,118473,2,0,P|316:213|310:282,1,125.999996154785,2|8,3:2|0:0,0:0:0:0:
363,342,118952,6,0,P|303:359|233:315,1,125.999996154785,2|2,3:2|3:2,0:0:0:0:
175,282,119431,2,0,P|168:247|176:213,1,62.9999980773926,10|0,0:0|3:0,0:0:0:0:
225,149,119750,2,0,P|232:114|224:80,2,62.9999980773926,2|2|10,3:2|0:0|0:0,0:0:0:0:
172,220,120228,1,0,0:0:0:0:
94,177,120388,6,0,L|9:170,1,62.9999980773926,6|0,3:2|0:0,0:0:0:0:
6,258,120707,2,0,P|-4:297|2:330,1,62.9999980773926,10|0,0:0|0:0,0:0:0:0:
62,381,121027,2,0,L|191:370,1,125.999996154785,2|10,3:2|0:0,0:0:0:0:
258,319,121505,6,0,L|387:330,1,125.999996154785,2|2,3:2|3:2,0:0:0:0:
467,370,121984,1,10,0:0:0:0:
467,370,122143,1,0,3:0:0:0:
506,290,122303,2,0,P|508:258|498:229,1,62.9999980773926,2|2,3:2|0:0,0:0:0:0:
429,173,122623,2,0,P|426:141|436:112,1,62.9999980773926,12|2,3:2|0:0,0:0:0:0:
499,51,122941,5,6,3:2:0:0:
327,11,123260,2,0,L|247:3,1,62.9999980773926,10|0,0:0|0:0,0:0:0:0:
198,63,123579,2,0,P|127:90|76:52,1,125.999996154785,2|8,3:2|0:0,0:0:0:0:
30,0,124059,6,0,P|42:79|48:131,1,125.999996154785,2|2,3:2|3:2,0:0:0:0:
7,202,124537,2,0,P|-2:231|0:263,1,62.9999980773926,10|0,0:0|3:0,0:0:0:0:
79,299,124856,2,0,P|88:328|86:360,1,62.9999980773926,2|2,3:2|0:0,0:0:0:0:
3,384,125175,1,12,0:0:0:0:
182,378,125494,5,2,3:2:0:0:
182,378,125654,1,2,3:2:0:0:
251,319,125814,2,0,P|298:310|340:324,1,70,12|0,0:0|0:0,0:0:0:0:
392,376,126132,5,2,3:2:0:0:
392,376,126292,1,2,3:2:0:0:
467,324,126452,2,0,L|457:237,1,70,8|0,0:0|0:0,0:0:0:0:
404,186,126771,5,2,3:2:0:0:
404,186,126930,1,2,3:2:0:0:
339,120,127091,2,0,L|346:50,1,70,12|0,0:0|0:0,0:0:0:0:
262,170,127410,2,0,P|205:163|185:148,1,70,6|0,3:2|3:0,0:0:0:0:
131,92,127729,1,10,0:0:0:0:
180,18,127889,1,8,0:3:0:0:
180,18,127968,1,8,0:3:0:0:
180,18,128048,6,0,L|97:6,2,70,10|0|0,0:0|3:0|3:0,0:0:0:0:
244,82,128526,1,10,0:0:0:0:
322,35,128686,2,0,P|353:21|388:22,1,70,2|8,3:2|0:0,0:0:0:0:
466,68,129005,2,0,P|471:110|478:148,1,70,8|8,3:2|0:0,0:0:0:0:
511,226,129324,5,8,3:2:0:0:
511,226,129484,1,8,3:2:0:0:
462,302,129643,2,0,P|423:299|372:283,1,70,8|8,3:2|3:2,0:0:0:0:
309,253,129963,2,0,P|270:256|219:272,2,70,8|8|8,3:2|3:2|3:2,0:0:0:0:
313,343,130441,1,8,3:2:0:0:
202,384,130601,6,0,P|143:386|54:380,1,140,14|0,0:0|3:0,0:0:0:0:
15,303,131079,1,14,0:0:0:0:
66,227,131239,1,2,3:2:0:0:
66,227,131399,2,0,L|77:139,1,70,2|12,3:2|0:0,0:0:0:0:
16,59,131718,6,0,P|79:33|147:69,1,140,6|0,3:1|3:0,0:0:0:0:
181,147,132196,1,12,0:0:0:0:
181,147,132356,1,0,3:0:0:0:
253,201,132516,2,0,P|291:209|319:208,3,35,10|2|10|10,3:2|0:0|0:0|0:0,0:0:0:0:
324,183,132835,2,0,P|362:175|390:176,3,35,10|2|10|10,0:0|0:0|0:0|0:0,0:0:0:0:
400,194,133154,6,0,B|421:91|421:91|386:37,1,154.000004699707,6|8,3:1|0:0,0:0:0:0:
306,19,133632,1,2,0:0:0:0:
237,82,133793,2,0,B|200:94|200:94|140:74,1,77.0000023498536,2|0,3:2|3:0,0:0:0:0:
89,14,134111,1,10,0:0:0:0:
11,64,134271,1,0,0:0:0:0:
40,151,134431,6,0,P|54:236|60:319,1,154.000004699707,2|8,3:2|0:0,0:0:0:0:
113,377,134909,1,2,0:0:0:0:
191,328,135069,2,0,P|225:317|269:321,1,77.0000023498536,2|0,3:2|0:0,0:0:0:0:
337,378,135389,2,0,P|375:381|411:369,1,77.0000023498536,10|0,0:0|0:0,0:0:0:0:
501,275,135708,6,0,P|523:222|472:140,1,154.000004699707,6|8,3:2|0:0,0:0:0:0:
389,118,136186,1,2,0:0:0:0:
323,182,136346,2,0,P|285:174|247:168,1,77.0000023498536,2|0,3:2|3:0,0:0:0:0:
178,106,136664,1,10,0:0:0:0:
99,154,136824,1,0,0:0:0:0:
27,95,136984,6,0,B|2:152|2:152|28:247,1,154.000004699707,2|8,3:2|0:0,0:0:0:0:
87,307,137462,1,2,0:0:0:0:
170,347,137622,2,0,B|184:307|184:307|173:272,1,77.0000023498536,2|0,3:2|0:0,0:0:0:0:
181,180,137942,2,0,B|165:140|165:140|178:105,1,77.0000023498536,10|0,0:0|0:0,0:0:0:0:
275,31,138260,6,0,P|313:27|360:26,1,77.0000023498536,6|0,3:2|0:0,0:0:0:0:
414,94,138580,2,0,P|447:112|486:138,1,77.0000023498536,10|0,0:0|0:0,0:0:0:0:
502,223,138898,1,2,3:2:0:0:
446,297,139058,1,0,0:0:0:0:
487,379,139218,2,0,L|383:372,1,77.0000023498536,10|0,0:0|0:0,0:0:0:0:
326,333,139537,6,0,P|274:302|186:338,1,154.000004699707,6|10,3:2|0:0,0:0:0:0:
111,377,140015,1,0,0:0:0:0:
42,314,140175,2,0,L|47:237,1,77.0000023498536,2|0,3:2|0:0,0:0:0:0:
124,185,140494,2,0,L|117:91,1,77.0000023498536,10|0,0:0|0:0,0:0:0:0:
78,24,140813,6,0,P|175:18|260:12,1,154.000004699707,6|8,3:2|0:0,0:0:0:0:
313,57,141292,1,2,0:0:0:0:
397,20,141452,2,0,P|407:65|398:96,1,77.0000023498536,2|0,3:2|0:0,0:0:0:0:
324,150,141771,2,0,P|314:186|322:224,1,77.0000023498536,8|0,0:0|0:0,0:0:0:0:
237,118,142090,6,0,L|160:126,1,77.0000023498536,14|0,0:0|3:0,0:0:0:0:
107,202,142409,2,0,L|30:193,1,77.0000023498536,10|0,0:0|3:0,0:0:0:0:
2,282,142728,1,8,3:3:0:0:
69,345,142888,2,0,P|67:364|60:381,2,38.5000011749268,8|8|6,0:3|0:3|3:3,0:0:0:0:
163,319,143207,1,8,0:0:0:0:
163,319,143287,1,8,0:0:0:0:
163,319,143366,6,0,B|257:281|217:371|326:331,1,154.000004699707,6|8,3:1|0:0,0:0:0:0:
396,358,143845,1,2,0:0:0:0:
468,300,144005,2,0,P|465:258|450:209,1,77.0000023498536,2|0,3:2|3:0,0:0:0:0:
392,156,144324,1,10,0:0:0:0:
446,81,144484,1,0,0:0:0:0:
385,11,144643,6,0,P|323:-9|239:11,1,154.000004699707,2|8,3:2|0:0,0:0:0:0:
170,74,145122,1,2,0:0:0:0:
82,45,145281,1,2,3:0:0:0:
22,116,145441,1,0,3:0:0:0:
69,195,145601,2,0,P|72:251|54:298,1,77.0000023498536,14|0,0:0|0:0,0:0:0:0:
38,359,145920,6,0,P|113:345|190:339,1,154.000004699707,6|8,3:2|0:0,0:0:0:0:
273,384,146398,1,2,0:0:0:0:
345,326,146558,2,0,P|382:319|419:328,1,77.0000023498536,2|0,3:2|3:0,0:0:0:0:
497,379,146877,1,10,0:0:0:0:
502,286,147037,1,0,0:0:0:0:
507,193,147197,6,0,L|487:31,1,154.000004699707,2|8,3:2|0:0,0:0:0:0:
404,0,147675,1,2,0:0:0:0:
335,62,147835,2,0,P|289:61|258:39,1,77.0000023498536,2|0,3:2|3:0,0:0:0:0:
179,6,148154,2,0,P|133:7|102:29,1,77.0000023498536,10|0,0:0|0:0,0:0:0:0:
109,144,148473,6,0,P|100:211|90:249,1,77.0000023498536,6|0,3:2|0:0,0:0:0:0:
38,290,148792,2,0,P|47:357|57:395,1,77.0000023498536,10|0,0:0|0:0,0:0:0:0:
140,380,149111,1,2,3:2:0:0:
213,323,149271,1,0,3:0:0:0:
297,358,149431,2,0,P|306:312|285:268,1,77.0000023498536,10|0,0:0|0:0,0:0:0:0:
221,229,149750,6,0,L|232:136,1,77.0000023498536,6|0,3:2|0:0,0:0:0:0:
292,83,150069,2,0,L|281:-10,1,77.0000023498536,10|0,0:0|0:0,0:0:0:0:
373,24,150388,1,2,3:2:0:0:
462,2,150547,1,0,3:0:0:0:
476,93,150707,2,0,P|471:143|477:188,1,77.0000023498536,10|0,0:0|0:0,0:0:0:0:
511,254,151026,6,0,P|453:201|373:219,1,154.000004699707,6|8,3:2|0:0,0:0:0:0:
326,284,151505,1,2,0:0:0:0:
277,362,151665,2,0,P|230:367|196:355,1,77.0000023498536,2|0,3:2|0:0,0:0:0:0:
124,306,151984,2,0,P|77:301|43:313,1,77.0000023498536,8|0,0:0|0:0,0:0:0:0:
5,228,152303,6,0,L|-2:128,1,77.0000023498536,6|0,3:2|0:0,0:0:0:0:
54,76,152622,1,10,3:2:0:0:
142,101,152781,1,0,0:0:0:0:
223,58,152941,1,2,3:2:0:0:
307,95,153101,1,8,0:0:0:0:
307,95,153180,1,8,0:0:0:0:
307,95,153260,2,0,P|345:93|379:76,1,77.0000023498536,10|4,3:2|3:3,0:0:0:0:
475,2,153579,6,0,P|465:83|458:170,1,154.000004699707,6|8,3:1|0:0,0:0:0:0:
435,244,154058,1,2,3:2:0:0:
507,301,154218,2,0,B|515:339|515:339|503:381,1,77.0000023498536,10|0,0:0|3:0,0:0:0:0:
422,332,154537,1,8,0:0:0:0:
344,381,154697,6,0,L|267:370,1,77.0000023498536,2|8,3:2|0:0,0:0:0:0:
207,299,155015,1,2,3:2:0:0:
138,360,155175,2,0,P|72:354|49:338,1,77.0000023498536,10|0,0:0|3:0,0:0:0:0:
25,264,155495,2,0,L|20:166,2,77.0000023498536,10|0|12,0:0|3:0|0:0,0:0:0:0:
117,267,155973,1,0,3:0:0:0:
177,197,156132,6,0,P|186:122|196:42,1,154.000004699707,14|8,0:0|0:0,0:0:0:0:
280,7,156611,1,2,3:2:0:0:
352,65,156771,2,0,P|408:62|436:48,1,77.0000023498536,10|0,0:0|3:0,0:0:0:0:
501,108,157090,1,8,0:0:0:0:
452,186,157250,6,0,L|354:174,2,77.0000023498536,2|8|2,3:2|0:0|0:0,0:0:0:0:
501,263,157729,2,0,P|506:301|508:339,1,77.0000023498536,10|2,0:0|3:2,0:0:0:0:
422,376,158048,2,0,P|371:375|344:350,1,77.0000023498536,10|8,0:3|0:0,0:0:0:0:
324,329,158287,1,8,0:0:0:0:
324,329,158366,1,8,0:0:0:0:
240,368,158526,1,0,3:0:0:0:
168,308,158686,6,0,B|144:227|210:260|179:159,1,154.000004699707,6|8,3:2|0:0,0:0:0:0:
132,82,159164,1,2,3:2:0:0:
45,49,159324,2,0,P|37:86|48:122,1,77.0000023498536,10|0,0:0|3:0,0:0:0:0:
101,198,159643,1,8,0:0:0:0:
44,271,159803,6,0,P|38:314|33:369,1,77.0000023498536,2|8,3:2|0:0,0:0:0:0:
117,384,160122,1,2,3:2:0:0:
172,300,160282,2,0,P|223:296|265:308,1,77.0000023498536,10|0,0:0|3:0,0:0:0:0:
320,361,160601,1,10,0:0:0:0:
397,311,160760,1,0,3:0:0:0:
475,359,160920,2,0,P|488:323|483:285,1,77.0000023498536,10|0,0:0|3:0,0:0:0:0:
414,223,161239,6,0,L|427:120,1,77.0000023498536,14|0,0:0|0:0,0:0:0:0:
486,78,161558,2,0,L|473:-25,1,77.0000023498536,10|0,0:0|3:0,0:0:0:0:
383,1,161877,1,14,0:0:0:0:
304,49,162037,1,10,0:3:0:0:
221,8,162196,1,0,3:0:0:0:
146,61,162356,1,6,3:2:0:0:
146,61,162675,6,0,L|136:138,2,77.0000023498536,10|10|10,3:2|3:2|3:2,0:0:0:0:
230,98,163154,1,10,3:2:0:0:
320,146,163313,1,0,3:0:0:0:
320,146,163393,1,0,3:0:0:0:
320,146,163473,2,0,P|341:203|300:262,1,115.50000352478,12|0,0:0|0:0,0:0:0:0:
318,249,163793,6,0,P|245:241|233:240,2,70,6|2|10,3:1|0:0|0:0,0:0:0:0:
311,339,164271,2,0,P|238:347|226:348,1,70,2|0,0:0|3:0,0:0:0:0:
163,309,164591,1,2,3:2:0:0:
163,309,164750,1,10,0:0:0:0:
99,374,164910,6,0,P|66:310|101:241,1,140,6|2,3:2|3:2,0:0:0:0:
172,213,165389,1,10,0:0:0:0:
172,213,165548,2,0,L|169:138,1,70,2|0,0:0|3:0,0:0:0:0:
98,93,165867,1,2,3:2:0:0:
98,93,166026,2,0,L|101:18,1,70,10|0,0:0|0:0,0:0:0:0:
190,2,166346,6,0,P|234:10|273:24,1,70,6|2,3:2|3:2,0:0:0:0:
320,83,166665,1,10,0:0:0:0:
320,83,166825,2,0,P|364:75|403:61,1,70,2|0,0:0|3:0,0:0:0:0:
460,11,167144,2,0,P|478:47|467:100,1,70,2|10,3:2|0:0,0:0:0:0:
426,151,167463,5,6,3:2:0:0:
475,326,167782,1,2,3:2:0:0:
300,375,168101,1,2,3:2:0:0:
248,195,168420,1,2,3:2:0:0:
174,249,168580,1,8,0:0:0:0:
87,221,168740,1,8,0:0:0:0:
87,221,168819,1,8,0:0:0:0:
87,221,168899,6,0,P|75:157|70:120,2,70,6|2|10,3:2|0:0|0:0,0:0:0:0:
29,292,169378,2,0,P|86:315|159:270,1,140,10|6,0:0|3:3,0:0:0:0:
227,332,169857,1,10,0:3:0:0:
227,332,170016,6,0,P|294:323|366:316,1,140,6|2,3:2|3:2,0:0:0:0:
437,381,170495,1,10,0:0:0:0:
437,381,170654,2,0,P|465:312|425:239,1,140,6|2,3:2|3:2,0:0:0:0:
356,223,171133,2,0,P|366:158|372:137,1,70,10|2,0:0|3:2,0:0:0:0:
429,87,171452,6,0,P|374:64|345:68,1,70,14|2,0:0|3:2,0:0:0:0:
287,113,171771,1,10,0:0:0:0:
287,113,171931,2,0,P|231:135|214:158,1,70,2|8,3:2|0:0,0:0:0:0:
167,213,172250,1,2,3:2:0:0:
167,213,172410,1,14,0:0:0:0:
79,190,172569,6,0,P|83:259|88:329,1,140,6|0,3:2|3:0,0:0:0:0:
162,382,173048,1,8,0:0:0:0:
240,336,173208,1,2,3:2:0:0:
240,336,173287,1,2,0:0:0:0:
240,336,173367,2,0,P|289:343|322:359,1,70,10|8,0:3|0:0,0:0:0:0:
394,384,173686,1,8,3:2:0:0:
444,308,173846,6,0,P|493:301|526:285,2,70,8|6|0,3:2|3:1|0:0,0:0:0:0:
361,269,174325,2,0,P|354:212|366:188,1,70,10|0,0:0|0:0,0:0:0:0:
438,157,174644,2,0,P|444:122|434:89,1,70,2|0,3:2|3:0,0:0:0:0:
377,18,174963,1,10,0:0:0:0:
292,51,175123,6,0,P|229:41|146:33,1,140,6|2,3:2|3:2,0:0:0:0:
73,76,175601,2,0,P|59:129|74:174,1,70,10|0,0:0|0:0,0:0:0:0:
104,223,175920,2,0,P|118:276|103:321,2,70,2|2|10,3:2|3:2|0:0,0:0:0:0:
154,147,176399,1,0,0:0:0:0:
236,186,176559,6,0,L|309:180,1,70,6|0,3:2|0:0,0:0:0:0:
363,109,176878,2,0,L|436:115,1,70,10|0,0:0|0:0,0:0:0:0:
505,170,177197,2,0,P|521:124|514:82,2,70,2|0|10,3:2|3:0|0:0,0:0:0:0:
422,208,177676,6,0,P|409:293|401:367,1,140,6|2,3:2|3:2,0:0:0:0:
315,369,178154,1,10,0:0:0:0:
315,369,178314,2,0,P|272:325|182:349,1,140,2|0,0:0|3:0,0:0:0:0:
111,360,178793,2,0,P|49:344|39:333,1,70,10|0,0:0|0:0,0:0:0:0:
41,296,179032,1,0,0:0:0:0:
41,296,179112,6,0,L|55:212,1,70,6|2,3:2|0:0,0:0:0:0:
60,136,179431,1,10,0:0:0:0:
150,147,179591,2,0,L|144:-7,1,140,2|2,0:0|0:0,0:0:0:0:
235,1,180069,1,10,0:0:0:0:
285,77,180229,6,0,P|327:72|368:59,1,70,2|4,0:0|3:2,0:0:0:0:
424,6,180548,1,2,0:0:0:0:
424,6,180708,1,10,0:0:0:0:
493,63,180867,2,0,P|487:132|479:202,1,140,2|2,0:0|0:0,0:0:0:0:
417,269,181346,2,0,L|427:344,1,70,10|0,0:0|0:0,0:0:0:0:
345,380,181665,6,0,P|292:377|268:359,1,70,10|2,3:2|0:0,0:0:0:0:
207,321,181984,1,14,0:0:0:0:
121,353,182144,2,0,L|49:357,2,70,2|12|2,3:2|0:0|3:2,0:0:0:0:
207,321,182623,1,14,0:0:0:0:
136,263,182782,6,0,P|125:226|139:182,1,70,2|8,3:2|0:0,0:0:0:0:
195,131,183101,1,2,3:2:0:0:
195,131,183261,1,14,0:0:0:0:
154,49,183420,2,0,P|105:58|56:73,2,70,2|12|2,3:2|0:0|3:2,0:0:0:0:
232,1,183899,2,0,P|265:9|300:15,1,70,14|0,0:0|3:0,0:0:0:0:
396,95,184218,6,0,B|404:188,2,70,14|2|2,0:0|3:2|3:2,0:0:0:0:
305,108,184697,2,0,P|241:117|163:136,1,140,10|2,0:0|3:2,0:0:0:0:
92,186,185176,1,14,0:0:0:0:
11,99,185335,1,6,3:1:0:0:
256,192,185415,12,6,188048,3:1:0:0:
431,54,192835,5,12,0:0:0:0:
431,54,193154,2,0,P|451:147|460:207,1,140,6|2,3:1|3:2,0:0:0:0:
472,373,193793,2,0,P|448:332|352:324,1,140,2|10,3:2|3:2,0:0:0:0:
183,341,194431,6,0,P|138:332|97:325,1,70,2|8,3:2|0:0,0:0:0:0:
28,347,194750,1,2,3:2:0:0:
28,347,194910,1,8,3:3:0:0:
0,260,195069,2,0,P|-7:212|6:178,1,70,2|4,3:2|3:3,0:0:0:0:
74,141,195389,2,0,P|81:93|68:59,1,70,10|4,3:2|3:3,0:0:0:0:
8,10,195708,6,0,P|74:39|145:9,1,140,6|8,3:2|3:2,0:0:0:0:
225,6,196186,1,10,3:2:0:0:
225,6,196346,2,0,P|273:17|308:29,1,70,10|8,3:2|3:2,0:0:0:0:
370,70,196665,2,0,P|418:59|453:47,1,70,8|8,3:2|3:2,0:0:0:0:
512,0,196984,1,2,3:2:0:0:
452,208,197623,6,0,L|402:199,3,35,10|2|10|10,3:2|0:0|0:0|0:0,0:0:0:0:
376,181,197942,2,0,P|329:200|316:225,1,70,10|10,0:0|3:2,0:0:0:0:
346,303,198261,6,0,B|262:329|278:256|179:287,1,154.000004699707,6|8,3:1|0:0,0:0:0:0:
118,327,198740,1,2,0:0:0:0:
42,272,198900,2,0,L|38:190,1,77.0000023498536,2|0,3:2|3:0,0:0:0:0:
66,106,199219,1,10,0:0:0:0:
158,115,199379,1,0,0:0:0:0:
214,42,199538,6,0,P|284:16|352:49,1,154.000004699707,2|8,3:2|0:0,0:0:0:0:
393,132,200017,1,2,0:0:0:0:
484,128,200176,1,2,3:0:0:0:
507,217,200336,1,0,3:0:0:0:
438,278,200495,2,0,P|433:326|428:368,1,77.0000023498536,14|0,0:0|0:0,0:0:0:0:
307,384,200815,6,0,P|231:369|154:363,1,154.000004699707,6|8,3:2|0:0,0:0:0:0:
63,384,201293,1,2,0:0:0:0:
21,301,201452,2,0,P|14:257|40:211,1,77.0000023498536,2|0,3:2|3:0,0:0:0:0:
94,164,201772,1,10,0:0:0:0:
178,201,201932,1,0,0:0:0:0:
239,132,202092,6,0,P|309:103|384:143,1,154.000004699707,2|8,3:2|0:0,0:0:0:0:
449,190,202570,1,2,0:0:0:0:
500,113,202729,2,0,P|508:67|513:28,1,77.0000023498536,2|0,3:2|3:0,0:0:0:0:
421,0,203048,1,10,0:0:0:0:
421,0,203208,1,0,0:0:0:0:
325,76,203367,6,0,L|233:71,1,77.0000023498536,6|0,3:2|0:0,0:0:0:0:
164,31,203686,2,0,L|72:36,1,77.0000023498536,10|0,0:0|0:0,0:0:0:0:
26,105,204006,1,2,3:2:0:0:
76,182,204166,1,0,3:0:0:0:
29,261,204325,2,0,P|19:297|29:334,1,77.0000023498536,10|0,0:0|0:0,0:0:0:0:
110,379,204644,6,0,P|162:369|195:359,1,77.0000023498536,6|0,3:2|0:0,0:0:0:0:
262,312,204963,2,0,P|314:322|347:332,1,77.0000023498536,10|0,0:0|0:0,0:0:0:0:
415,379,205283,1,2,3:2:0:0:
493,331,205442,1,0,3:0:0:0:
471,240,205602,2,0,P|470:202|474:156,1,77.0000023498536,10|0,0:0|0:0,0:0:0:0:
512,55,205921,6,0,P|438:45|384:97,1,154.000004699707,6|8,3:2|0:0,0:0:0:0:
313,156,206400,1,2,0:0:0:0:
236,105,206559,2,0,P|189:100|155:112,1,77.0000023498536,2|0,3:2|0:0,0:0:0:0:
83,161,206879,2,0,P|36:166|2:154,1,77.0000023498536,8|0,0:0|0:0,0:0:0:0:
2,249,207198,6,0,L|7:325,1,77.0000023498536,6|0,3:2|0:0,0:0:0:0:
90,366,207517,1,2,3:2:0:0:
169,319,207676,1,0,0:0:0:0:
154,227,207836,1,2,3:2:0:0:
241,188,207996,1,8,0:0:0:0:
241,188,208075,1,8,0:0:0:0:
241,188,208155,2,0,P|279:190|313:207,1,77.0000023498536,10|4,3:2|3:3,0:0:0:0:
358,296,208474,6,0,P|349:210|404:151,1,154.000004699707,6|8,3:1|0:0,0:0:0:0:
480,163,208953,1,2,3:2:0:0:
511,249,209112,2,0,L|513:357,1,77.0000023498536,10|0,0:0|3:0,0:0:0:0:
427,364,209432,1,8,0:0:0:0:
358,296,209591,6,0,P|320:289|281:285,1,77.0000023498536,2|8,3:2|0:0,0:0:0:0:
200,328,209910,1,2,3:2:0:0:
125,382,210070,2,0,P|74:380|39:354,1,77.0000023498536,10|0,0:0|3:0,0:0:0:0:
19,280,210390,2,0,L|14:182,2,77.0000023498536,10|0|12,0:0|3:0|0:0,0:0:0:0:
110,287,210868,1,0,3:0:0:0:
186,235,211027,6,0,P|204:160|156:88,1,154.000004699707,14|8,0:0|0:0,0:0:0:0:
90,45,211506,1,2,3:2:0:0:
172,3,211666,2,0,P|228:0|268:-3,1,77.0000023498536,10|0,0:0|3:0,0:0:0:0:
338,21,211985,1,8,0:0:0:0:
417,67,212144,6,0,P|470:79|508:71,2,77.0000023498536,2|8|2,3:2|0:0|0:0,0:0:0:0:
337,114,212623,2,0,P|332:152|330:190,1,77.0000023498536,10|2,0:0|3:2,0:0:0:0:
396,254,212942,2,0,P|401:292|403:330,1,77.0000023498536,10|8,0:3|0:0,0:0:0:0:
402,381,213182,1,8,0:0:0:0:
402,381,213261,1,8,0:0:0:0:
309,381,213421,1,0,3:0:0:0:
248,311,213581,6,0,B|153:286|197:355|99:322,1,154.000004699707,6|8,3:2|0:0,0:0:0:0:
49,247,214059,1,2,3:2:0:0:
106,173,214219,2,0,P|117:136|109:99,1,77.0000023498536,10|0,0:0|3:0,0:0:0:0:
48,29,214538,1,8,0:0:0:0:
138,9,214698,6,0,L|223:18,1,77.0000023498536,2|8,3:2|0:0,0:0:0:0:
282,79,215017,1,2,3:2:0:0:
364,36,215177,2,0,P|415:32|457:44,1,77.0000023498536,10|0,0:0|3:0,0:0:0:0:
500,107,215496,1,10,0:0:0:0:
468,193,215655,1,0,3:0:0:0:
375,200,215815,2,0,P|365:241|361:288,1,77.0000023498536,10|0,0:0|3:0,0:0:0:0:
285,177,216133,6,0,P|245:167|209:175,1,77.0000023498536,14|0,0:0|0:0,0:0:0:0:
140,235,216452,2,0,P|100:245|64:236,1,77.0000023498536,10|0,0:0|3:0,0:0:0:0:
10,312,216772,1,10,0:0:0:0:
70,382,216932,1,2,3:2:0:0:
157,354,217091,1,8,0:0:0:0:
244,326,217250,1,2,3:2:0:0:
331,298,217410,6,0,L|321:375,2,77.0000023498536,14|0|14,0:0|3:0|0:0,0:0:0:0:
261,236,217889,1,2,3:2:0:0:
293,149,218049,1,14,0:0:0:0:
392,162,218208,1,2,3:2:0:0:
392,162,218368,2,0,P|449:183|490:160,1,77.0000023498536,14|0,0:0|0:0,0:0:0:0:
509,110,218686,5,6,3:2:0:0:
134,29,220123,5,10,3:2:0:0:
103,114,220283,1,10,3:2:0:0:
174,170,220442,1,10,3:2:0:0:
249,119,220602,1,10,3:2:0:0:
235,32,220761,1,0,3:0:0:0:
235,32,220841,1,0,3:0:0:0:
235,32,220920,2,0,P|298:15|342:14,1,105,12|0,0:0|0:0,0:0:0:0:
337,13,221240,6,0,L|349:159,1,140,4|10,3:1|0:0,0:0:0:0:
418,220,221719,1,0,0:0:0:0:
418,220,221878,2,0,P|427:267|416:298,1,70,2|0,3:2|0:0,0:0:0:0:
333,316,222197,2,0,P|324:363|335:394,1,70,10|0,0:0|0:0,0:0:0:0:
241,384,222517,5,0,3:0:0:0:
241,384,222676,1,0,3:0:0:0:
174,321,222836,2,0,L|104:326,1,70,10|0,0:0|0:0,0:0:0:0:
34,276,223155,1,2,3:2:0:0:
34,276,223314,1,0,3:0:0:0:
77,195,223474,2,0,P|85:155|71:110,1,70,10|0,0:0|0:0,0:0:0:0:
39,44,223793,6,0,L|180:35,1,140,4|10,3:2|0:0,0:0:0:0:
253,86,224271,1,2,0:0:0:0:
253,86,224431,2,0,P|296:73|334:57,1,70,2|0,3:2|0:0,0:0:0:0:
406,35,224750,2,0,P|449:48|487:64,1,70,10|0,0:0|0:0,0:0:0:0:
508,141,225070,6,0,P|537:203|506:275,1,140,2|8,3:2|0:0,0:0:0:0:
441,322,225548,1,2,0:0:0:0:
441,322,225708,2,0,L|348:310,1,70,2|0,3:2|3:0,0:0:0:0:
287,278,226027,1,8,0:0:0:0:
228,348,226187,1,8,0:0:0:0:
228,348,226267,1,8,0:0:0:0:
228,348,226346,6,0,P|196:277|232:210,1,140,4|10,3:2|0:0,0:0:0:0:
303,190,226825,1,0,0:0:0:0:
303,190,226985,2,0,P|297:151|288:110,1,70,2|0,3:2|0:0,0:0:0:0:
244,42,227303,2,0,P|220:25|180:26,1,70,10|0,0:0|0:0,0:0:0:0:
99,63,227623,5,0,3:0:0:0:
99,63,227783,1,0,3:0:0:0:
80,151,227942,2,0,L|75:245,1,70,10|0,0:0|0:0,0:0:0:0:
47,310,228261,1,2,3:2:0:0:
47,310,228421,1,0,3:0:0:0:
130,345,228580,2,0,P|176:343|214:338,1,70,10|0,0:0|0:0,0:0:0:0:
265,277,228899,6,0,P|339:280|412:286,1,140,4|10,3:2|0:0,0:0:0:0:
496,313,229378,1,0,0:0:0:0:
496,313,229538,2,0,P|501:263|489:225,1,70,2|0,3:2|0:0,0:0:0:0:
421,190,229857,2,0,P|416:140|428:102,1,70,10|0,0:0|0:0,0:0:0:0:
493,66,230176,6,0,P|419:86|363:29,1,140,6|12,3:2|0:0,0:0:0:0:
287,15,230655,1,2,0:0:0:0:
229,84,230814,1,10,0:0:0:0:
154,53,230974,1,8,0:0:0:0:
154,53,231054,1,8,0:0:0:0:
154,53,231134,1,8,0:0:0:0:
91,119,231293,1,8,0:0:0:0:
0,54,231452,6,0,P|4:104|5:157,1,77.0000023498536,4|0,3:1|3:0,0:0:0:0:
60,205,231771,2,0,P|56:255|55:308,1,77.0000023498536,10|0,0:0|3:0,0:0:0:0:
114,353,232091,1,10,0:0:0:0:
197,314,232250,1,0,3:0:0:0:
279,355,232410,2,0,P|336:344|357:328,1,77.0000023498536,10|0,0:0|3:0,0:0:0:0:
398,254,232729,6,0,P|455:265|476:281,1,77.0000023498536,8|0,0:0|3:0,0:0:0:0:
507,190,233048,2,0,L|513:108,1,77.0000023498536,10|0,0:0|3:0,0:0:0:0:
485,24,233367,1,10,0:0:0:0:
393,12,233527,1,0,3:0:0:0:
354,95,233686,2,0,P|310:88|260:80,1,77.0000023498536,14|0,0:0|3:0,0:0:0:0:
199,33,234006,6,0,P|155:40|105:48,1,77.0000023498536,4|0,3:2|3:0,0:0:0:0:
52,105,234325,1,10,0:0:0:0:
85,190,234484,1,2,3:2:0:0:
175,211,234644,2,0,P|219:195|259:167,1,77.0000023498536,10|0,0:0|3:0,0:0:0:0:
336,188,234963,2,0,P|380:204|420:232,1,77.0000023498536,10|0,0:0|3:0,0:0:0:0:
480,274,235282,6,0,L|492:369,2,77.0000023498536,10|0|12,0:0|3:0|0:0,0:0:0:0:
405,219,235761,1,2,3:2:0:0:
335,279,235920,1,10,0:0:0:0:
247,247,236080,1,0,3:0:0:0:
247,247,236160,1,0,3:0:0:0:
247,247,236240,2,0,P|203:250|162:261,1,77.0000023498536,12|0,0:0|3:0,0:0:0:0:
69,321,236559,6,0,L|81:217,1,77.0000023498536,4|0,3:2|3:0,0:0:0:0:
39,160,236878,2,0,L|27:56,1,77.0000023498536,10|0,0:0|3:0,0:0:0:0:
93,16,237197,1,10,0:0:0:0:
178,50,237357,1,0,3:0:0:0:
259,6,237516,2,0,P|298:-1|338:0,1,77.0000023498536,10|0,0:0|3:0,0:0:0:0:
416,44,237835,6,0,P|455:51|495:50,1,77.0000023498536,8|0,0:0|3:0,0:0:0:0:
512,143,238154,2,0,L|501:229,1,77.0000023498536,10|0,0:0|3:0,0:0:0:0:
445,293,238474,1,10,0:0:0:0:
364,247,238633,1,0,3:0:0:0:
301,314,238793,2,0,P|251:300|214:299,1,77.0000023498536,14|0,0:0|3:0,0:0:0:0:
148,349,239112,6,0,P|134:277|148:247,1,77.0000023498536,4|0,3:2|3:0,0:0:0:0:
46,247,239431,2,0,P|87:186|118:174,1,77.0000023498536,10|2,0:0|3:2,0:0:0:0:
46,103,239750,2,0,P|118:89|148:103,1,77.0000023498536,10|0,0:0|3:0,0:0:0:0:
204,125,240069,1,10,0:0:0:0:
275,66,240229,1,0,3:0:0:0:
361,134,240389,5,14,0:0:0:0:
448,95,240548,1,0,3:0:0:0:
448,95,240628,1,0,3:0:0:0:
448,95,240708,2,0,P|462:142|446:182,1,77.0000023498536,8|0,0:0|3:0,0:0:0:0:
384,227,241027,2,0,L|397:322,1,77.0000023498536,8|0,0:0|3:0,0:0:0:0:
318,356,241346,1,8,0:0:0:0:
243,300,241506,1,8,0:0:0:0:
134,347,241665,1,6,3:2:0:0:
438,60,243101,5,10,3:2:0:0:
416,148,243261,1,10,3:2:0:0:
328,126,243420,1,10,3:2:0:0:
350,38,243580,1,10,3:2:0:0:
256,192,243899,5,14,3:1:0:0:
256,192,243979,12,6,252835,3:1:0:0:
