osu file format v14

[General]
AudioFilename: audio.mp3
AudioLeadIn: 0
PreviewTime: 50341
Countdown: 0
SampleSet: Normal
StackLeniency: 0.7
Mode: 1
LetterboxInBreaks: 0
WidescreenStoryboard: 1

[Editor]
DistanceSpacing: 1.2
BeatDivisor: 2
GridSize: 32
TimelineZoom: 2.2

[Metadata]
Title:Seishun Seminar (TV Size)
TitleUnicode:セイシュンゼミナール (TV Size)
Artist:Study
ArtistUnicode:Study
Creator:realy0_
Version:Muzukashii
Source:ぼくたちは勉強ができない
Tags:Atalanta Toshino Kyoko can't study bokutachi wa benkyou ga dekinai bokuben we cant never learn 古橋文乃 furuhashi fumino 白石晴香 shiraishi haruka 緒方理珠 ogata rizu 富田美憂 tomita miyu 武元うるか takemoto uruka 鈴代紗弓 suzushiro sayumi anime japanese
BeatmapID:2139157
BeatmapSetID:1012167

[Difficulty]
HPDrainRate:6
CircleSize:5
OverallDifficulty:5
ApproachRate:5
SliderMultiplier:1.4
SliderTickRate:1

[Events]
//Background and Video events
0,0,"cropped-1920-1200-1000048.jpg",0,45
//Break Periods
//Storyboard Layer 0 (Background)
//Storyboard Layer 1 (Fail)
//Storyboard Layer 2 (Pass)
//Storyboard Layer 3 (Foreground)
//Storyboard Layer 4 (Overlay)
//Storyboard Sound Samples

[TimingPoints]
2230,545.454545454546,4,1,0,40,1,0
2230,-90.9090909090909,4,1,0,40,0,0
15320,555.555555555556,4,1,0,40,1,0
15320,-92.5925925925926,4,1,0,40,0,0
15597,566.037735849057,4,1,0,40,1,8
15597,-94.3396226415094,4,1,0,40,0,8
15880,576.923076923077,4,1,0,40,1,8
15880,-96.1538461538461,4,1,0,40,0,8
16168,588.235294117647,4,1,0,40,1,8
16168,-98.0392156862745,4,1,0,40,0,8
16462,600,4,1,0,40,1,8
16762,612.244897959184,4,1,0,40,1,8
16762,-102.040816326531,4,1,0,40,0,8
17068,625,4,1,0,40,1,8
17068,-104.166666666667,4,1,0,40,0,8
17380,638.297872340426,4,1,0,40,1,8
17380,-106.382978723404,4,1,0,40,0,8
17752,652.173913043478,4,1,0,40,1,0
17752,-108.695652173913,4,1,0,40,0,0
20117,451.127819548872,4,1,0,40,1,8
20117,-76.9230769230769,4,1,0,40,0,8
20342,-86.9565217391304,4,1,0,65,0,8
20455,-76.9230769230769,4,1,0,65,0,8
20568,451.127819548872,4,1,0,75,1,0
20568,-76.9230769230769,4,1,0,75,0,0
36808,-83.3333333333333,4,1,0,50,0,0
43575,-81.9672131147541,4,1,0,50,0,0
43688,-80.6451612903226,4,1,0,50,0,0
43801,-79.3650793650794,4,1,0,50,0,0
43913,-78.125,4,1,0,50,0,0
44026,-76.9230769230769,4,1,0,60,0,0
44928,-76.9230769230769,4,1,0,65,0,0
45831,-76.9230769230769,4,1,0,70,0,0
46733,-76.9230769230769,4,1,0,75,0,0
47635,-76.9230769230769,4,1,0,80,0,0
48086,-76.9230769230769,4,1,0,70,0,0
50229,-83.3333333333333,4,1,0,70,0,0
51019,-76.9230769230769,4,1,0,70,0,0
51244,-71.4285714285714,4,1,0,85,0,1
62071,-71.4285714285714,4,1,0,85,0,0
65680,-71.4285714285714,4,1,0,85,0,1
76507,-71.4285714285714,4,1,0,85,0,0
80116,-71.4285714285714,4,1,0,85,0,1
81695,-71.4285714285714,4,1,0,75,0,0
82146,-74.0740740740741,4,1,0,75,0,0
83725,-76.9230769230769,4,1,0,75,0,0
85304,-71.4285714285714,4,1,0,75,0,1
86432,-66.6666666666667,4,1,0,85,0,0

[HitObjects]
351,228,2230,5,8,1:0:0:0:
309,163,3320,1,8,1:0:0:0:
309,163,3730,1,0,1:0:0:0:
309,163,4139,1,0,1:0:0:0:
309,163,4411,1,8,1:0:0:0:
314,122,5502,1,8,1:0:0:0:
314,122,5911,1,0,1:0:0:0:
311,127,6320,1,8,1:0:0:0:
311,127,6593,1,8,1:0:0:0:
191,132,7411,1,0,1:0:0:0:
191,132,7684,1,8,1:0:0:0:
191,132,8775,1,8,1:0:0:0:
237,135,9866,1,0,1:0:0:0:
191,132,10411,1,8,1:0:0:0:
191,132,10684,1,0,1:0:0:0:
191,132,10957,1,8,1:0:0:0:
369,65,11775,1,8,1:0:0:0:
191,132,12048,1,0,1:0:0:0:
369,64,12866,1,0,1:0:0:0:
191,132,13139,1,8,1:0:0:0:
191,132,13684,1,0,1:0:0:0:
191,132,14230,1,8,1:0:0:0:
191,132,14775,1,8,1:0:0:0:
191,132,15320,1,0,1:0:0:0:
334,101,15597,1,0,1:0:0:0:
334,101,15880,1,8,1:0:0:0:
334,101,16168,1,0,1:0:0:0:
191,132,16462,1,8,1:0:0:0:
261,90,16762,1,8,1:0:0:0:
261,90,17068,1,0,1:0:0:0:
261,90,17380,1,0,1:0:0:0:
335,101,17752,1,8,1:0:0:0:
225,6,17833,1,8,1:0:0:0:
225,10,17915,1,8,1:0:0:0:
378,288,20342,1,0,1:0:0:0:
378,288,20568,1,8,1:0:0:0:
378,288,20680,1,0,1:0:0:0:
374,288,20906,1,0,1:0:0:0:
374,288,21019,1,0,1:0:0:0:
374,288,21131,1,0,1:0:0:0:
359,277,21357,1,0,1:0:0:0:
359,277,21470,1,8,1:0:0:0:
359,277,21695,1,8,1:0:0:0:
359,277,21921,1,8,1:0:0:0:
359,277,22146,1,0,1:0:0:0:
359,277,22372,1,12,1:0:0:0:
452,201,22823,1,0,1:0:0:0:
389,166,23049,1,8,1:0:0:0:
389,166,23161,1,8,1:0:0:0:
452,201,23274,1,8,1:0:0:0:
429,103,23613,1,0,1:0:0:0:
429,103,23951,1,8,1:0:0:0:
429,103,24177,1,0,1:0:0:0:
429,103,24402,1,8,1:0:0:0:
429,103,24515,1,0,1:0:0:0:
429,103,24740,1,0,1:0:0:0:
429,103,24853,1,8,1:0:0:0:
429,103,25079,1,0,1:0:0:0:
227,37,25530,1,0,1:0:0:0:
340,128,25755,1,8,1:0:0:0:
340,128,25981,1,4,1:0:0:0:
372,126,26658,1,8,1:0:0:0:
372,126,26883,1,0,1:0:0:0:
371,125,27222,1,0,1:0:0:0:
191,154,27560,1,8,1:0:0:0:
371,125,27786,1,8,1:0:0:0:
227,37,28124,1,8,1:0:0:0:
227,37,28237,1,0,1:0:0:0:
227,37,28575,1,0,1:0:0:0:
227,37,28688,1,8,1:0:0:0:
227,37,28913,1,0,1:0:0:0:
227,37,29139,1,8,1:0:0:0:
227,37,29252,1,8,1:0:0:0:
227,37,29364,1,8,1:0:0:0:
359,277,29590,1,12,1:0:0:0:
452,201,30041,1,0,1:0:0:0:
389,166,30267,1,8,1:0:0:0:
389,166,30380,1,8,1:0:0:0:
452,201,30492,1,8,1:0:0:0:
429,103,30831,1,0,1:0:0:0:
429,103,31169,1,8,1:0:0:0:
429,103,31395,1,0,1:0:0:0:
282,149,31620,1,8,1:0:0:0:
429,103,31733,1,0,1:0:0:0:
282,149,31958,1,0,1:0:0:0:
429,103,32071,1,8,1:0:0:0:
429,103,32297,1,0,1:0:0:0:
227,37,32748,1,0,1:0:0:0:
340,128,32974,1,8,1:0:0:0:
340,128,33199,1,4,1:0:0:0:
372,126,33876,1,8,1:0:0:0:
372,126,34101,1,0,1:0:0:0:
371,125,34440,1,0,1:0:0:0:
191,154,34778,1,8,1:0:0:0:
371,125,35004,1,8,1:0:0:0:
227,37,35342,1,0,1:0:0:0:
227,37,35455,1,8,1:0:0:0:
227,37,35793,1,8,1:0:0:0:
227,37,35906,1,0,1:0:0:0:
227,37,36131,1,0,1:0:0:0:
227,37,36357,1,8,1:0:0:0:
227,37,36470,1,8,1:0:0:0:
227,37,36583,1,8,1:0:0:0:
290,41,36808,1,12,1:0:0:0:
399,46,37710,1,8,1:0:0:0:
392,52,37823,1,0,1:0:0:0:
390,52,38049,1,0,1:0:0:0:
390,52,38161,1,8,1:0:0:0:
388,49,38387,1,8,1:0:0:0:
388,49,38613,1,0,1:0:0:0:
388,49,39515,1,8,1:0:0:0:
388,49,39628,1,0,1:0:0:0:
386,47,39853,1,0,1:0:0:0:
509,248,40079,1,0,1:0:0:0:
505,244,40192,1,8,1:0:0:0:
355,135,40417,1,0,1:0:0:0:
355,135,40868,1,8,1:0:0:0:
355,135,41319,1,8,1:0:0:0:
355,135,41771,1,0,1:0:0:0:
355,135,42222,1,0,1:0:0:0:
436,193,42898,1,0,1:0:0:0:
435,191,43011,1,0,1:0:0:0:
435,191,43124,1,0,1:0:0:0:
435,191,43575,1,8,1:0:0:0:
435,189,43688,1,8,1:0:0:0:
435,189,43801,1,8,1:0:0:0:
270,22,44026,1,12,1:0:0:0:
259,158,44364,1,8,1:0:0:0:
259,158,44477,1,0,1:0:0:0:
269,151,44703,1,8,1:0:0:0:
269,151,44928,1,8,1:0:0:0:
260,155,45267,1,8,1:0:0:0:
260,155,45380,1,0,1:0:0:0:
269,151,45605,1,8,1:0:0:0:
269,151,45831,1,0,1:0:0:0:
269,151,46169,1,8,1:0:0:0:
269,151,46282,1,0,1:0:0:0:
344,33,46507,1,8,1:0:0:0:
269,151,46733,1,8,1:0:0:0:
344,33,47071,1,8,1:0:0:0:
344,33,47184,1,0,1:0:0:0:
344,33,47410,1,0,1:0:0:0:
344,33,47635,1,12,1:0:0:0:
205,115,48086,1,0,1:0:0:0:
201,111,48537,1,8,1:0:0:0:
333,75,48650,1,8,1:0:0:0:
332,75,48763,1,8,1:0:0:0:
333,75,48876,1,8,1:0:0:0:
332,75,48989,1,8,1:0:0:0:
332,75,49214,1,8,1:0:0:0:
246,37,49440,1,0,1:0:0:0:
247,66,50342,1,8,1:0:0:0:
265,34,51244,1,4,1:0:0:0:
412,100,51695,1,0,1:0:0:0:
412,100,51921,1,0,1:0:0:0:
256,134,52146,1,8,1:0:0:0:
401,51,52372,1,8,1:0:0:0:
396,188,52485,1,0,1:0:0:0:
257,133,52710,1,0,1:0:0:0:
257,133,52823,1,8,1:0:0:0:
401,51,53049,1,0,1:0:0:0:
374,161,53500,1,8,1:0:0:0:
374,161,53725,1,8,1:0:0:0:
374,161,53951,1,0,1:0:0:0:
374,161,54177,1,8,1:0:0:0:
383,159,54289,1,8,1:0:0:0:
374,161,54402,1,8,1:0:0:0:
383,159,54628,1,8,1:0:0:0:
287,28,55079,1,8,1:0:0:0:
287,26,55304,1,0,1:0:0:0:
286,23,55530,1,8,1:0:0:0:
285,23,55755,1,0,1:0:0:0:
285,23,56094,1,0,1:0:0:0:
356,34,56432,1,8,1:0:0:0:
455,59,56658,1,0,1:0:0:0:
454,56,57560,1,8,1:0:0:0:
454,56,57786,1,0,1:0:0:0:
452,51,58011,1,8,1:0:0:0:
451,51,58124,1,8,1:0:0:0:
451,51,58237,1,8,1:0:0:0:
425,123,58462,1,12,1:0:0:0:
286,179,58913,1,0,1:0:0:0:
327,79,59139,1,8,1:0:0:0:
325,53,59252,1,8,1:0:0:0:
286,179,59364,1,8,1:0:0:0:
286,179,59816,1,8,1:0:0:0:
303,186,60041,1,0,1:0:0:0:
303,186,60154,1,0,1:0:0:0:
303,186,60267,1,0,1:0:0:0:
356,289,60492,1,8,1:0:0:0:
447,117,60605,1,0,1:0:0:0:
352,289,60831,1,0,1:0:0:0:
447,117,60943,1,8,1:0:0:0:
441,130,61169,1,0,1:0:0:0:
446,137,61620,1,8,1:0:0:0:
446,137,61846,1,0,1:0:0:0:
446,137,62071,1,12,1:0:0:0:
364,31,62522,1,0,1:0:0:0:
320,201,62748,1,8,1:0:0:0:
227,174,62974,1,4,1:0:0:0:
446,137,63425,1,8,1:0:0:0:
364,31,63650,1,0,1:0:0:0:
364,31,63876,1,12,1:0:0:0:
339,211,64101,1,8,1:0:0:0:
272,94,64214,1,0,1:0:0:0:
339,211,64440,1,0,1:0:0:0:
276,92,64552,1,8,1:0:0:0:
339,63,64778,1,8,1:0:0:0:
339,63,65229,1,0,1:0:0:0:
336,59,65342,1,0,1:0:0:0:
336,59,65455,1,0,1:0:0:0:
265,34,65680,1,12,1:0:0:0:
412,100,66131,1,0,1:0:0:0:
412,100,66357,1,0,1:0:0:0:
256,134,66583,1,8,1:0:0:0:
401,51,66808,1,8,1:0:0:0:
396,188,66921,1,0,1:0:0:0:
257,133,67146,1,0,1:0:0:0:
257,133,67259,1,8,1:0:0:0:
401,51,67485,1,0,1:0:0:0:
374,161,67936,1,8,1:0:0:0:
374,161,68161,1,8,1:0:0:0:
374,161,68387,1,0,1:0:0:0:
374,161,68613,1,0,1:0:0:0:
383,159,68725,1,0,1:0:0:0:
374,161,68838,1,0,1:0:0:0:
383,159,69064,1,8,1:0:0:0:
287,28,69515,1,8,1:0:0:0:
287,26,69740,1,8,1:0:0:0:
286,23,69966,1,0,1:0:0:0:
285,23,70192,1,8,1:0:0:0:
285,23,70530,1,8,1:0:0:0:
455,59,70868,1,0,1:0:0:0:
356,34,71094,1,8,1:0:0:0:
454,56,71996,1,8,1:0:0:0:
454,56,72222,1,0,1:0:0:0:
452,51,72447,1,8,1:0:0:0:
451,51,72560,1,8,1:0:0:0:
451,51,72673,1,8,1:0:0:0:
425,123,72898,1,12,1:0:0:0:
286,179,73349,1,0,1:0:0:0:
327,79,73575,1,8,1:0:0:0:
325,53,73688,1,8,1:0:0:0:
286,179,73801,1,8,1:0:0:0:
286,179,74252,1,8,1:0:0:0:
257,132,74477,1,0,1:0:0:0:
303,186,74590,1,0,1:0:0:0:
303,186,74703,1,0,1:0:0:0:
339,211,74928,1,8,1:0:0:0:
447,117,75041,1,0,1:0:0:0:
339,211,75267,1,0,1:0:0:0:
447,117,75380,1,8,1:0:0:0:
441,130,75605,1,0,1:0:0:0:
446,137,76282,1,0,1:0:0:0:
446,137,76507,1,12,1:0:0:0:
348,238,76733,1,0,1:0:0:0:
301,43,76846,1,8,1:0:0:0:
320,201,77184,1,8,1:0:0:0:
227,174,77410,1,4,1:0:0:0:
403,221,77635,1,8,1:0:0:0:
403,221,77748,1,0,1:0:0:0:
364,31,78086,1,0,1:0:0:0:
364,31,78312,1,12,1:0:0:0:
402,220,78537,1,0,1:0:0:0:
272,94,78650,1,8,1:0:0:0:
276,92,78989,1,8,1:0:0:0:
339,63,79214,1,4,1:0:0:0:
402,220,79440,1,8,1:0:0:0:
402,220,79552,1,0,1:0:0:0:
336,59,79891,1,0,1:0:0:0:
301,208,80116,1,12,1:0:0:0:
304,109,80342,1,0,1:0:0:0:
304,109,80567,1,12,1:0:0:0:
316,75,81019,1,8,1:0:0:0:
316,75,81244,1,0,1:0:0:0:
316,75,81470,1,8,1:0:0:0:
349,44,81695,1,4,1:0:0:0:
305,88,82710,1,0,1:0:0:0:
305,88,82823,1,8,1:0:0:0:
286,63,83049,1,8,1:0:0:0:
286,63,83161,1,0,1:0:0:0:
310,51,83500,1,0,1:0:0:0:
310,51,83725,1,8,1:0:0:0:
293,74,84177,1,8,1:0:0:0:
293,74,84628,1,0,1:0:0:0:
293,74,84966,1,0,1:0:0:0:
293,74,85079,1,8,1:0:0:0:
293,74,85304,1,4,1:0:0:0:
372,43,85755,1,8,1:0:0:0:
372,43,85981,1,8,1:0:0:0:
369,44,86207,1,0,1:0:0:0:
367,44,86432,1,12,1:0:0:0:
